osu file format v14

[General]
AudioFilename: Decretum.mp3
AudioLeadIn: 0
PreviewTime: 233
Countdown: 0
SampleSet: Soft
StackLeniency: 0.7
Mode: 0
LetterboxInBreaks: 0
WidescreenStoryboard: 1

[Editor]
Bookmarks: 9655,18655,55780,58780,59530,59811,59905,60186,60280,61030,61217,61405,63186,63280,63467,63655,65530,65717,65905,66655,67030,68530,68780,68967,69905,70155,70405,72655
DistanceSpacing: 1.4
BeatDivisor: 4
GridSize: 4
TimelineZoom: 1.6

[Metadata]
Title:Decretum
TitleUnicode:Decretum
Artist:Kajiura Yuki
ArtistUnicode:梶浦由記
Creator:Smokeman
Version:Hard
Source:魔法少女まどか☆マギカ
Tags:Puella Magi Madoka Magica Kajiura Yuki ORIGINAL SOUNDTRACK II 2 miki sayaka theme determination
BeatmapID:877008
BeatmapSetID:402915

[Difficulty]
HPDrainRate:6
CircleSize:4
OverallDifficulty:6
ApproachRate:7.5
SliderMultiplier:1.2
SliderTickRate:1

[Events]
//Background and Video events
0,0,"BG_1.jpg",0,0
//Break Periods
//Storyboard Layer 0 (Background)
//Storyboard Layer 1 (Fail)
//Storyboard Layer 2 (Pass)
//Storyboard Layer 3 (Foreground)
//Storyboard Sound Samples

[TimingPoints]
275,375,3,2,1,20,1,0
650,375,3,2,1,30,1,0
18275,-100,3,2,1,25,0,0
18650,-100,3,2,1,30,0,0
72650,-100,3,2,1,45,0,1
76025,-100,3,2,1,40,0,0
77150,-100,3,2,1,45,0,1
80525,-100,3,2,1,40,0,0
81650,-100,3,2,1,45,0,1
85025,-100,3,2,1,40,0,0
86150,-100,3,2,1,45,0,1
92900,-100,3,2,1,40,0,0
97400,-100,3,2,1,35,0,0
100775,-100,3,2,1,30,0,0
101900,-100,3,2,1,20,0,0
103025,-100,3,2,1,10,0,0
103212,-100,3,2,1,5,0,0

[Colours]
Combo1 : 147,245,253
Combo2 : 81,164,255
Combo3 : 243,105,216
Combo4 : 255,234,193

[HitObjects]
356,64,275,5,0,0:0:0:0:
348,80,650,2,0,B|340:144|340:144|352:204,1,120,2|0,0:0|0:0,0:0:0:0:
392,272,1212,2,0,L|476:296,2,60,0|0|0,0:0|0:0|0:0,0:0:0:0:
324,320,1775,2,0,P|264:336|200:312,1,120,2|0,0:0|0:0,0:0:0:0:
172,244,2337,2,0,L|160:172,1,60,0|0,0:0|0:0,0:0:0:0:
96,28,2900,6,0,L|71:173,1,120,2|0,0:0|0:0,0:0:0:0:
60,228,3462,1,0,0:0:0:0:
60,228,3650,2,0,L|119:220,1,60,0|0,0:0|0:0,0:0:0:0:
192,260,4025,2,0,P|256:244|328:256,1,120,2|0,0:0|0:0,0:0:0:0:
435,325,4775,1,0,0:0:0:0:
388,188,5150,6,0,B|380:140|380:140|396:64,1,120,6|0,0:0|0:0,0:0:0:0:
328,12,5712,1,0,0:0:0:0:
328,12,5900,2,0,L|313:81,1,60,0|0,0:0|0:0,0:0:0:0:
292,156,6275,2,0,P|232:128|164:132,1,120,2|0,0:0|0:0,0:0:0:0:
108,168,6837,2,0,L|93:237,1,60
204,356,7400,6,0,P|196:296|216:220,1,120,2|0,0:0|0:0,0:0:0:0:
264,176,7962,1,0,0:0:0:0:
264,176,8150,2,0,P|320:176|352:188,1,60,0|0,0:0|0:0,0:0:0:0:
400,216,8525,1,2,0:0:0:0:
296,348,8900,1,2,0:0:0:0:
244,188,9275,1,2,0:0:0:0:
112,292,9650,6,0,P|204:308|272:272,1,120,6|0,0:0|0:0,0:0:0:0:
296,256,10212,2,0,L|304:180,2,60,0|0|0,0:0|0:0|0:0,0:0:0:0:
356,316,10775,2,0,P|424:324|464:256,1,120,2|0,0:0|0:0,0:0:0:0:
468,208,11337,2,0,L|460:132,1,60,0|0,0:0|0:0,0:0:0:0:
340,32,11900,6,0,B|347:96|347:96|335:160,1,120,2|0,0:0|0:0,0:0:0:0:
288,220,12462,1,0,0:0:0:0:
288,220,12650,2,0,L|204:232,1,60,0|0,0:0|0:0,0:0:0:0:
152,260,13025,2,0,P|136:200|136:120,1,120,6|0,0:0|0:0,0:0:0:0:
160,64,13587,1,0,0:0:0:0:
160,64,13775,2,0,L|232:56,1,60
300,76,14150,6,0,P|312:160|300:216,1,120,2|0,0:0|0:0,0:0:0:0:
256,260,14712,1,0,0:0:0:0:
312,324,14900,2,0,L|384:324,1,60,0|0,0:0|0:0,0:0:0:0:
440,276,15275,2,0,P|432:216|444:140,1,120,2|0,0:0|0:0,0:0:0:0:
480,84,15837,2,0,P|497:62|512:32,2,60
396,92,16400,6,0,P|320:100|256:84,1,120,2|0,0:0|0:0,0:0:0:0:
204,52,16962,2,0,L|136:72,1,60,2|0,0:0|0:0,0:0:0:0:
84,128,17337,1,2,0:0:0:0:
84,128,17525,2,0,L|152:148,1,60,2|0,0:0|0:0,0:0:0:0:
212,188,17900,2,0,P|256:184|292:200,1,60,2|0,0:0|0:0,0:0:0:0:
344,232,18275,1,8,0:0:0:0:
360,316,18462,1,0,0:0:0:0:
288,360,18650,6,0,B|252:340|252:340|152:328,1,120,6|0,0:0|0:0,0:0:0:0:
96,364,19212,1,0,0:0:0:0:
84,280,19400,2,0,L|100:192,1,60,0|0,0:0|0:0,0:0:0:0:
164,172,19775,2,0,P|160:108|192:44,1,120,8|0,0:0|0:0,0:0:0:0:
260,36,20337,1,0,0:0:0:0:
332,80,20525,1,0,0:0:0:0:
340,248,20900,6,0,P|348:184|408:136,1,120,6|0,0:0|0:0,0:0:0:0:
468,124,21462,1,0,0:0:0:0:
428,52,21650,2,0,L|348:32,1,60,0|0,0:0|0:0,0:0:0:0:
296,80,22025,2,0,P|220:84|164:68,1,120,8|0,0:0|0:0,0:0:0:0:
52,112,22775,1,0,0:0:0:0:
144,252,23150,6,0,B|196:236|196:236|300:244,1,120,6|0,0:0|0:0,0:0:0:0:
324,296,23712,1,0,0:0:0:0:
396,252,23900,2,0,L|388:168,1,60,0|0,0:0|0:0,0:0:0:0:
316,148,24275,2,0,P|316:80|260:28,1,120,8|0,0:0|0:0,0:0:0:0:
200,20,24837,1,0,0:0:0:0:
136,80,25025,2,0,P|96:92|40:88,1,60
36,185,25400,6,0,P|103:169|175:191,1,120,6|0,0:0|0:0,0:0:0:0:
214,234,25962,1,0,0:0:0:0:
218,318,26150,2,0,P|190:342|166:354,1,60
86,304,26525,6,0,L|101:235,1,60,8|0,0:0|0:0,0:0:0:0:
156,183,26900,2,0,L|198:126,1,60
270,102,27275,2,0,L|332:69,1,60
412,77,27650,6,0,P|432:136|412:216,1,120,6|0,0:0|0:0,0:0:0:0:
380,264,28212,1,0,0:0:0:0:
300,288,28400,2,0,L|228:272,1,60,0|0,0:0|0:0,0:0:0:0:
164,312,28775,2,0,P|129:292|32:296,1,120,8|0,0:0|0:0,0:0:0:0:
0,224,29337,1,0,0:0:0:0:
80,196,29525,2,0,P|116:164|136:136,1,60
148,76,29900,6,0,P|208:68|272:96,1,120,6|0,0:0|0:0,0:0:0:0:
296,164,30462,2,0,L|276:236,2,60,0|0|0,0:0|0:0|0:0,0:0:0:0:
368,124,31025,2,0,P|440:132|456:200,1,120,8|0,0:0|0:0,0:0:0:0:
416,281,31775,1,0,0:0:0:0:
265,208,32150,6,0,B|257:136|257:136|265:60,1,120,6|0,0:0|0:0,0:0:0:0:
380,207,32900,1,0,0:0:0:0:
257,322,33275,2,0,P|196:301|159:240,1,120,8|0,0:0|0:0,0:0:0:0:
214,97,34025,1,0,0:0:0:0:
52,176,34400,6,0,B|84:164|84:164|132:160|184:188,1,120,6|0,0:0|0:0,0:0:0:0:
220,244,34962,1,0,0:0:0:0:
288,196,35150,2,0,P|348:184|364:188,1,60,0|0,0:0|0:0,0:0:0:0:
436,136,35525,2,0,P|376:108|308:108,1,120,8|0,0:0|0:0,0:0:0:0:
248,128,36087,1,2,0:0:0:0:
176,156,36275,1,2,0:0:0:0:
104,124,36462,1,2,0:0:0:0:
176,52,36650,6,0,L|172:196,1,120,6|0,0:0|0:0,0:0:0:0:
148,252,37212,1,0,0:0:0:0:
220,300,37400,2,0,P|268:272|300:268,1,60,0|0,0:0|0:0,0:0:0:0:
356,268,37775,1,8,0:0:0:0:
244,140,38150,1,0,0:0:0:0:
284,348,38525,1,0,0:0:0:0:
392,164,38900,6,0,B|400:104|400:104|396:36,1,120,6|0,0:0|0:0,0:0:0:0:
316,20,39462,1,0,0:0:0:0:
248,68,39650,2,0,P|168:84|152:80,1,60,0|0,0:0|0:0,0:0:0:0:
108,72,40025,2,0,P|100:136|120:200,1,120,8|0,0:0|0:0,0:0:0:0:
200,276,40775,1,0,0:0:0:0:
268,120,41150,6,0,B|304:112|304:112|416:128,2,120,6|0|0,0:0|0:0|0:0,0:0:0:0:
200,168,42087,1,0,0:0:0:0:
124,136,42275,2,0,P|112:72|120:12,2,120,8|0|0,0:0|0:0|0:0,0:0:0:0:
168,208,43212,1,0,0:0:0:0:
232,260,43400,6,0,P|292:232|380:248,1,120,6|0,0:0|0:0,0:0:0:0:
416,280,43962,1,0,0:0:0:0:
464,212,44150,2,0,P|467:177|460:144,1,60,0|0,0:0|0:0,0:0:0:0:
392,104,44525,6,0,P|336:108|300:100,1,60,10|0,0:0|0:0,0:0:0:0:
260,68,44900,2,0,P|230:67|200:71,1,60,0|0,0:0|0:0,0:0:0:0:
144,132,45275,2,0,P|113:125|84:124,1,60
11,176,45650,6,0,L|27:300,1,120,6|0,0:0|0:0,0:0:0:0:
81,359,46212,1,0,0:0:0:0:
149,310,46400,2,0,P|193:298|241:310,1,60
287,328,46775,2,0,P|307:259|355:224,1,120,8|0,0:0|0:0,0:0:0:0:
426,230,47337,1,0,0:0:0:0:
380,160,47525,2,0,L|316:128,1,60,0|0,0:0|0:0,0:0:0:0:
208,112,47900,6,0,P|232:180|224:244,1,120,6|0,0:0|0:0,0:0:0:0:
176,292,48462,1,0,0:0:0:0:
108,240,48650,2,0,L|112:176,1,60,0|0,0:0|0:0,0:0:0:0:
132,96,49025,6,0,P|160:52|204:36,1,60,8|0,0:0|0:0,0:0:0:0:
248,68,49400,2,0,P|300:70|335:100,1,60,0|0,0:0|0:0,0:0:0:0:
330,154,49775,2,0,P|354:200|345:246,1,60,0|0,0:0|0:0,0:0:0:0:
296,268,50150,6,0,P|244:280|200:336,1,120,6|0,0:0|0:0,0:0:0:0:
124,360,50712,1,0,0:0:0:0:
84,284,50900,2,0,L|88:216,1,60,0|0,0:0|0:0,0:0:0:0:
96,140,51275,2,0,B|168:128|168:128|216:136,1,120,8|0,0:0|0:0,0:0:0:0:
292,168,51837,1,0,0:0:0:0:
352,108,52025,2,0,B|380:96|380:96|432:88,1,60,0|0,0:0|0:0,0:0:0:0:
480,192,52400,6,0,P|416:208|348:192,1,120,6|0,0:0|0:0,0:0:0:0:
292,160,52962,1,0,0:0:0:0:
216,200,53150,2,0,L|208:288,1,60,0|0,0:0|0:0,0:0:0:0:
140,340,53525,2,0,L|127:205,1,120,8|0,0:0|0:0,0:0:0:0:
88,148,54087,1,0,0:0:0:0:
124,72,54275,2,0,P|156:64|188:68,1,60,0|0,0:0|0:0,0:0:0:0:
264,136,54650,6,0,P|320:112|384:112,1,120,6|0,0:0|0:0,0:0:0:0:
432,176,55212,2,0,L|424:252,1,60,0|0,0:0|0:0,0:0:0:0:
396,316,55587,1,0,0:0:0:0:
316,348,55775,2,0,B|264:320|264:320|184:312,1,120,8|0,0:0|0:0,0:0:0:0:
120,332,56337,2,0,L|104:260,1,60,0|0,0:0|0:0,0:0:0:0:
60,204,56712,1,0,0:0:0:0:
88,124,56900,6,0,P|136:108|212:124,1,120,6|0,0:0|0:0,0:0:0:0:
260,180,57462,2,0,L|328:152,1,60,0|0,0:0|0:0,0:0:0:0:
400,168,57837,1,0,0:0:0:0:
452,236,58025,2,0,P|412:252|328:216,1,120,8|0,0:0|0:0,0:0:0:0:
276,176,58587,1,0,0:0:0:0:
252,96,58775,2,0,P|252:48|264:12,1,60,0|0,0:0|0:0,0:0:0:0:
352,4,59150,6,0,B|356:68|356:68|340:140,1,120,6|0,0:0|0:0,0:0:0:0:
300,192,59712,2,0,L|236:208,1,60,0|0,0:0|0:0,0:0:0:0:
160,180,60087,1,0,0:0:0:0:
128,100,60275,2,0,P|188:84|256:104,1,120,8|0,0:0|0:0,0:0:0:0:
292,164,60837,2,0,L|300:236,1,60,0|0,0:0|0:0,0:0:0:0:
256,296,61212,1,0,0:0:0:0:
172,312,61400,6,0,B|128:248|128:248|80:216,1,120,6|0,0:0|0:0,0:0:0:0:
28,168,61962,2,0,P|24:124|32:92,1,60,0|0,0:0|0:0,0:0:0:0:
88,48,62337,1,0,0:0:0:0:
172,60,62525,2,0,L|188:208,1,120,8|0,0:0|0:0,0:0:0:0:
236,244,63087,1,0,0:0:0:0:
320,256,63275,1,0,0:0:0:0:
396,224,63462,1,0,0:0:0:0:
484,300,63650,6,0,B|424:296|424:296|360:324,1,120,6|0,0:0|0:0,0:0:0:0:
292,356,64212,2,0,P|296:300|292:272,1,60,0|0,0:0|0:0,0:0:0:0:
256,220,64587,1,0,0:0:0:0:
292,144,64775,2,0,P|296:92|276:20,1,120,8|0,0:0|0:0,0:0:0:0:
196,20,65337,2,0,L|184:96,1,60,0|0,0:0|0:0,0:0:0:0:
156,156,65712,1,0,0:0:0:0:
192,232,65900,6,0,P|252:244|320:224,1,120,6|0,0:0|0:0,0:0:0:0:
376,184,66462,2,0,L|388:112,1,60,0|0,0:0|0:0,0:0:0:0:
344,52,66837,1,0,0:0:0:0:
272,96,67025,2,0,L|281:155,1,60,8|0,0:0|0:0,0:0:0:0:
240,228,67400,2,0,P|212:200|168:184,1,60,0|0,0:0|0:0,0:0:0:0:
112,196,67775,1,0,0:0:0:0:
224,320,68150,6,0,P|280:296|344:300,1,120,6|0,0:0|0:0,0:0:0:0:
412,336,68712,1,0,0:0:0:0:
464,268,68900,2,0,L|472:192,1,60,0|0,0:0|0:0,0:0:0:0:
440,132,69275,2,0,B|392:116|392:116|312:120,1,120,8|0,0:0|0:0,0:0:0:0:
268,180,69837,2,0,L|188:184,2,60,0|0|0,0:0|0:0|0:0,0:0:0:0:
328,236,70400,6,0,P|332:284|296:344,1,120,6|0,0:0|0:0,0:0:0:0:
212,344,70962,1,0,0:0:0:0:
136,308,71150,2,0,L|120:236,1,60,10|0,0:0|0:0,0:0:0:0:
184,192,71525,2,0,L|214:55,1,120,2|0,0:0|0:0,0:0:0:0:
152,12,72087,1,0,0:0:0:0:
92,68,72275,2,0,L|105:126,1,60,8|0,0:0|0:0,0:0:0:0:
152,240,72650,6,0,P|196:220|284:224,1,120,6|0,0:0|0:0,0:0:0:0:
340,260,73212,1,0,0:0:0:0:
424,276,73400,1,0,0:0:0:0:
488,224,73587,1,0,0:0:0:0:
456,148,73775,2,0,L|336:132,1,120,8|0,0:0|0:0,0:0:0:0:
260,164,74337,1,0,0:0:0:0:
180,132,74525,2,0,P|160:92|160:60,1,60,0|0,0:0|0:0,0:0:0:0:
72,24,74900,6,0,L|60:160,1,120,6|0,0:0|0:0,0:0:0:0:
92,220,75462,1,0,0:0:0:0:
164,268,75650,2,0,P|196:256|232:256,1,60,0|0,0:0|0:0,0:0:0:0:
288,312,76025,2,0,L|420:324,2,120,8|0|0,0:0|0:0|0:0,0:0:0:0:
221,254,76962,1,0,0:0:0:0:
292,164,77150,6,0,P|352:152|416:176,1,120,6|0,0:0|0:0,0:0:0:0:
444,244,77712,1,0,0:0:0:0:
407,322,77900,1,0,0:0:0:0:
328,344,78087,1,0,0:0:0:0:
248,316,78275,2,0,B|224:268|224:268|212:192,1,120,8|0,0:0|0:0,0:0:0:0:
228,120,78837,1,0,0:0:0:0:
288,60,79025,2,0,P|328:56|364:68,1,60,0|0,0:0|0:0,0:0:0:0:
408,144,79400,6,0,L|292:184,1,120,2|0,0:0|0:0,0:0:0:0:
216,212,79962,1,0,0:0:0:0:
136,192,80150,2,0,P|120:156|100:132,1,60,0|0,0:0|0:0,0:0:0:0:
76,256,80525,6,0,L|124:312,1,60,8|0,0:0|0:0,0:0:0:0:
200,316,80900,2,0,L|269:340,1,60,0|0,0:0|0:0,0:0:0:0:
337,305,81275,2,0,L|409:291,1,60,0|0,0:0|0:0,0:0:0:0:
450,226,81650,6,0,P|460:168|448:96,1,120,6|0,0:0|0:0,0:0:0:0:
396,48,82212,1,0,0:0:0:0:
316,28,82400,1,0,0:0:0:0:
248,76,82587,1,0,0:0:0:0:
224,156,82775,2,0,L|212:292,1,120,8|0,0:0|0:0,0:0:0:0:
148,328,83337,1,0,0:0:0:0:
84,272,83525,2,0,P|76:232|80:188,1,60,0|0,0:0|0:0,0:0:0:0:
128,124,83900,6,0,L|264:128,1,120,6|0,0:0|0:0,0:0:0:0:
328,100,84462,1,0,0:0:0:0:
396,148,84650,2,0,P|408:192|424:216,1,60,0|0,0:0|0:0,0:0:0:0:
468,304,85025,2,0,P|396:280|332:284,1,120,8|0,0:0|0:0,0:0:0:0:
276,316,85587,2,0,L|236:380,2,60,0|0|0,0:0|0:0|0:0,0:0:0:0:
284,232,86150,6,0,P|252:176|192:152,1,120,6|0,0:0|0:0,0:0:0:0:
124,184,86712,1,0,0:0:0:0:
72,116,86900,2,0,P|76:68|96:36,1,60,0|0,0:0|0:0,0:0:0:0:
160,32,87275,2,0,P|200:48|288:48,2,120,8|0|0,0:0|0:0|0:0,0:0:0:0:
280,148,88400,6,0,B|340:136|340:136|424:132,1,120,6|0,0:0|0:0,0:0:0:0:
452,196,88962,1,0,0:0:0:0:
416,272,89150,1,0,0:0:0:0:
332,284,89337,1,0,0:0:0:0:
264,232,89525,2,0,P|200:208|132:224,1,120,8|0,0:0|0:0,0:0:0:0:
88,268,90087,1,0,0:0:0:0:
144,332,90275,2,0,L|216:328,1,60,0|0,0:0|0:0,0:0:0:0:
296,356,90650,6,0,P|340:332|412:328,1,120,6|0,0:0|0:0,0:0:0:0:
472,272,91212,1,0,0:0:0:0:
472,188,91400,1,0,0:0:0:0:
420,124,91587,1,0,0:0:0:0:
336,108,91775,2,0,L|328:244,1,120,8|0,0:0|0:0,0:0:0:0:
276,296,92337,1,0,0:0:0:0:
208,248,92525,2,0,L|203:173,1,60,0|0,0:0|0:0,0:0:0:0:
168,112,92900,6,0,P|96:100|48:128,1,120,6|0,0:0|0:0,0:0:0:0:
36,200,93462,1,0,0:0:0:0:
36,200,93650,2,0,L|96:232,1,60,0|0,0:0|0:0,0:0:0:0:
136,296,94025,2,0,P|204:264|252:264,1,120,2|0,0:0|0:0,0:0:0:0:
328,288,94587,1,0,0:0:0:0:
328,288,94775,2,0,L|344:208,1,60
392,164,95150,6,0,P|372:112|316:80,1,120,6|0,0:0|0:0,0:0:0:0:
235,91,95712,1,0,0:0:0:0:
179,154,95900,2,0,L|171:222,1,60
100,257,96275,2,0,L|92:189,2,60,8|0|0,0:0|0:0|0:0,0:0:0:0:
170,302,96837,2,0,L|162:361,2,60,8|0|0,0:0|0:0|0:0,0:0:0:0:
240,256,97400,5,6,0:0:0:0:
256,192,97587,12,2,103212,0:3:0:0:
