osu file format v9

[General]
AudioFilename: Kajiura Yuki - Credens justitiam.mp3
AudioLeadIn: 1500
PreviewTime: 622
Countdown: 0
SampleSet: Soft
StackLeniency: 0.7
Mode: 0
LetterboxInBreaks: 1

[Editor]
Bookmarks: 21798,39445,70769
DistanceSpacing: 1.1
BeatDivisor: 4
GridSize: 4

[Metadata]
Title:Credens justitiam
Artist:Kajiura Yuki
Creator:kyuten
Version:Hard
Source:Puella Magi Madoka Magica
Tags:mahou shoujo tomoe mami Eri Itou yuca y_u_c_a Mei_coN KDS

[Difficulty]
HPDrainRate:5
CircleSize:4
OverallDifficulty:5
ApproachRate:6
SliderMultiplier:1.4
SliderTickRate:1

[Events]
//Background and Video events
0,0,"1.jpg"
//Break Periods
//Storyboard Layer 0 (Background)
//Storyboard Layer 1 (Fail)
//Storyboard Layer 2 (Pass)
//Storyboard Layer 3 (Foreground)
//Storyboard Sound Samples
//Background Colour Transformations
3,100,163,162,255

[TimingPoints]
622,441.176470588235,4,1,1,50,1,0
842,-100,4,2,1,30,0,0
2276,-100,4,1,1,50,0,0
2496,-100,4,2,1,40,0,0
4041,-100,4,1,1,50,0,0
4261,-100,4,2,1,50,0,0
5805,-100,4,1,1,50,0,0
6026,-100,4,2,1,50,0,0
11099,-100,4,1,1,80,0,0
11320,-100,4,2,1,80,0,0
14629,-100,4,1,1,80,0,0
14849,-100,4,2,1,80,0,0
18158,-100,4,1,1,80,0,0
18379,-100,4,2,1,80,0,0
21688,-100,4,1,1,80,0,0
21908,-100,4,2,1,80,0,0
28746,-100,4,1,1,80,0,0
28967,-100,4,2,1,80,0,0
32276,-100,4,1,1,80,0,0
32496,-100,4,2,1,80,0,0
35805,-100,4,1,1,80,0,0
36026,-100,4,2,1,80,0,0
37570,-100,4,1,1,70,0,0
39114,-100,4,2,1,80,0,0
39335,-100,4,1,1,80,0,0
39445,-100,4,1,1,80,0,1
39555,-100,4,2,1,80,0,1
42919,-100,4,1,1,80,0,1
43085,-100,4,2,1,80,0,1
46394,-100,4,1,1,80,0,1
46614,-100,4,2,1,80,0,1
49923,-100,4,1,1,80,0,1
50144,-100,4,2,1,80,0,1
53452,-100,4,1,1,80,0,1
53673,-100,4,2,1,80,0,1
56982,-100,4,1,1,80,0,1
57202,-100,4,2,1,80,0,1
60566,-100,4,1,1,80,0,1
60621,-100,4,1,1,80,0,0
60732,-100,4,2,1,80,0,0
67625,-100,4,1,1,80,0,0
67791,-100,4,2,1,80,0,0
71210,-100,4,1,1,80,0,1
71320,-100,4,2,1,80,0,1
74629,-100,4,1,1,80,0,1
74849,-100,4,2,1,80,0,1
78158,-100,4,1,1,80,0,1
78379,-100,4,2,1,80,0,1
85327,-200,4,1,1,60,0,0
85438,-200,4,2,1,60,0,0
89188,-100,4,2,1,50,0,0
90511,-100,4,2,1,40,0,0
90952,-100,4,2,1,30,0,0
91394,-100,4,2,1,20,0,0
92276,-100,4,2,1,5,0,0

[Colours]
Combo1 : 252,253,215
Combo2 : 230,205,68
Combo3 : 64,44,101
SliderBorder : 255,255,255

[HitObjects]
144,160,622,2,0,B|240:48,1,140
208,208,1504,2,0,B|344:168,1,140
240,288,2386,2,0,B|192:308|140:276|128:225,2,140
392,304,3710,2,0,B|448:352,2,70
320,168,4592,6,0,B|320:128|352:104,1,70
424,84,5033,2,0,B|408:56|376:36|376:36|304:36,1,140
168,40,5916,2,0,B|78:41|60:117,1,140
184,208,6798,2,0,B|273:206|291:130,1,140
256,192,7680,12,0,10327
40,288,11210,6,0,B|112:288,1,70,4|0
160,352,11651,2,0,B|232:352,1,70,8|0
200,280,12092,2,0,B|200:208,1,70
276,219,12533,2,0,B|276:147,1,70,8|0
336,104,12974,2,0,B|320:80|288:64|261:64|232:80|216:104,2,140,0|8|0
432,224,14298,2,0,B|464:208|480:168,2,70,8|0|0
360,312,15180,6,0,B|304:256,1,70,8|0
256,208,15622,1,0
216,276,15842,2,0,B|181:276,2,35,0|0|8
176,208,16283,1,0
136,144,16504,6,0,B|112:136|112:96|136:88,1,70
216,88,16945,1,8
216,88,17166,1,0
297,32,17386,2,0,B|320:40|320:80|296:88,1,70
216,88,17827,1,8
216,88,18048,1,0
136,88,18269,2,0,B|84:92|36:56|32:8,2,140,0|8|0
296,96,19592,6,0,B|360:144|360:144,1,70,8|0
420,100,20033,2,0,B|484:148|484:148,1,70,0|0
424,196,20474,2,0,B|424:268,1,70,8|0
348,220,20916,2,0,B|349:292,1,70
272,244,21357,2,0,B|272:316,1,70,8|8
200,288,21798,5,4
124,280,22019,1,0
52,256,22239,2,0,B|64:220|104:204,1,70,8|0
172,180,22680,1,0
232,132,22901,1,0
304,108,23122,2,0,B|292:72|256:60,1,70,8|0
184,36,23563,6,0,B|184:108,1,70
108,88,24004,2,0,B|108:160,1,70,8|0
40,192,24445,1,0
104,328,24886,6,0,B|176:328,1,70,8|0
312,328,25327,1,2
208,240,25548,1,0
336,192,25769,1,8
200,56,26210,1,2
304,144,26430,1,0
176,192,26651,1,8
416,40,27092,6,0,B|384:64|384:112|408:136,1,105,2|0
424,164,27533,2,0,B|456:192|472:220|472:256|464:292,1,140,8|0
416,348,28195,1,0
348,312,28416,2,0,B|284:272,1,70,8|0
208,296,28857,6,0,B|168:280|152:240,1,70,4|0
176,176,29298,2,0,B|144:144|160:96,1,70,8|0
232,96,29739,1,0
232,96,29960,2,0,B|240:40|200:24,2,70,0|8|0
264,168,30622,2,0,B|304:160|312:112,1,70
328,48,31063,2,0,B|352:24|400:32,1,70,8|0
472,48,31504,1,0
456,248,31945,6,0,B|416:304,1,70,8|0
376,240,32386,1,4
336,176,32607,1,0
400,136,32827,1,8
440,200,33048,1,0
376,240,33269,2,0,B|320:280,1,70
272,216,33710,2,0,B|200:216,1,70,8|0
200,136,34151,5,0
136,176,34372,1,0
136,256,34592,1,8
200,296,34813,1,0
264,336,35033,2,0,B|332:336,2,70,0|0|8
200,296,35695,1,0
48,152,35916,6,0,B|76:80|175:47,1,140,0|8
304,64,36798,2,0,B|275:135|176:168,1,140,0|8
256,192,37680,12,0,39004
412,296,39445,6,0,B|448:236,1,70,4|0
376,208,39886,2,0,B|416:144,1,70,8|0
368,72,40327,2,0,B|332:132,1,70,0|0
276,80,40768,2,0,B|238:139,1,70,8|0
172,104,41210,6,0,B|136:124|124:156,1,70
132,192,41541,1,0
124,230,41651,2,0,B|136:260|172:280,1,70,8|0
212,192,42092,1,0
212,192,42313,2,0,B|280:192,1,70,0|8
360,192,42754,1,0
360,192,42864,1,0
360,192,42974,1,0
484,280,43416,6,0,B|476:320|440:344,1,70,8|0
400,276,43857,2,0,B|360:316|328:332|272:332,1,140,0|8
140,260,44739,1,0
84,208,44960,1,0
84,208,45070,1,0
84,208,45180,2,0,B|28:152,1,70,8|0
104,124,45621,5,0
160,176,45842,1,0
160,176,45952,1,0
160,176,46063,2,0,B|224:232,1,70,8|0
276,180,46504,2,0,B|292:152|324:132,1,70
356,200,46945,2,0,B|389:179|405:151,1,70,8|0
256,192,47386,12,8,49592
184,160,50033,6,0,B|168:128|184:88,2,70,4|0|8
264,160,50695,1,0
344,160,50916,2,0,B|360:192|344:232,3,70,0|0|8|0
286,278,51798,2,0,B|294:302|334:318|358:318|398:302|406:278,2,140,0|8|0
256,128,53121,2,0,B|256:88|216:72,2,70,8|0|0
328,264,54004,6,0,B|304:296|264:304,1,70,8|0
278,379,54445,2,0,B|238:377|208:349,1,70
136,336,54886,2,0,B|103:313|93:273,1,70,8|0
128,216,55327,6,0,B|104:184|128:152,1,70
160,136,55658,1,0
200,128,55769,2,0,B|232:96|208:64,1,70,8|0
304,64,56210,2,0,B|281:94|313:126,1,70
353,134,56541,1,0
392,150,56651,2,0,B|416:182|392:214,1,70,8|0
352,280,57092,6,0,B|328:312|352:344,1,70
432,344,57533,2,0,B|456:311|432:279,1,70,8|0
384,216,57974,2,0,B|349:196|316:218,1,70
256,264,58416,2,0,B|221:284|188:262,1,70,8|0
120,232,58857,5,0
48,272,59077,1,0
120,312,59298,1,8
120,232,59519,1,0
120,152,59739,2,0,B|120:80,2,70,0|0|8
192,120,60401,5,8
192,120,60511,1,0
192,120,60621,2,0,B|208:88|240:64,1,70,4|0
280,136,61063,2,0,B|315:136|351:155,1,70,8|0
296,216,61504,1,0
216,208,61724,1,0
240,280,61945,1,8
320,288,62166,1,0
344,360,62386,6,0,B|384:344|392:304,1,70
392,232,62827,2,0,B|392:192|424:168,1,70,8|0
472,232,63269,1,0
432,80,63710,6,0,B|400:64|360:64,1,70,8|0
200,56,64151,1,2
304,144,64371,1,0
176,192,64592,1,8
312,328,65033,1,2
208,240,65254,1,0
336,192,65474,1,8
144,144,65916,5,2
48,224,66136,1,0
88,344,66357,1,8
216,344,66577,2,0,B|288:336|328:256,1,140
344,192,67239,1,8
344,112,67460,5,0
344,112,67570,1,0
344,112,67680,2,0,B|392:112|408:152,1,70
424,216,68121,2,0,B|424:288,1,70,8|0
368,344,68563,1,0
304,304,68783,1,0
360,256,69004,1,8
296,208,69224,1,0
264,136,69445,6,0,B|224:152|216:192,1,70
216,224,69776,1,0
216,264,69886,2,0,B|208:304|168:320,1,70,8|0
144,248,70327,1,0
64,112,70769,6,0,B|120:56,1,70,8|8
192,48,71210,1,4
272,48,71430,1,0
240,120,71651,1,8
320,120,71871,1,0
352,48,72092,2,0,B|392:64|400:112,3,70,0|0|8|0
416,176,72974,5,0
480,224,73195,1,0
408,256,73416,1,8
344,208,73636,1,0
336,288,73857,2,0,B|296:280|272:240,3,70,0|0|8|0
272,176,74739,6,0,B|224:176|208:224,1,70
208,288,75180,2,0,B|167:314|128:282,1,70,8|0
72,256,75621,2,0,B|26:240|27:189,3,70,0|0|8|0
104,184,76504,6,0,B|160:144,1,70
192,128,76835,1,0
232,120,76945,2,0,B|304:120,1,70,8|0
368,80,77386,2,0,B|383:43|363:8,2,70,0|0|8
428,128,78048,1,0
480,184,78269,6,0,B|480:256,1,70
472,288,78599,1,0
448,320,78710,2,0,B|420:353|379:348,1,70,8|0
384,272,79151,6,0,B|312:272,1,70
272,272,79482,1,0
232,272,79592,2,0,B|192:264|176:208,1,70,8|0
256,192,80033,2,0,B|288:188|308:160|308:124|288:96|248:84|212:96|196:128|204:160,1,210
202,150,80916,1,0
256,192,81026,12,8,84886
286,156,85327,6,0,B|318:132|358:132,1,70,4|0
284,236,86210,2,0,B|289:276|269:311,1,70
215,195,87092,2,0,B|178:179|158:144,1,70
192,80,87974,2,0,B|236:58|284:58|328:83,1,140
344,224,89298,5,0
392,280,89519,1,0
320,296,89739,2,0,B|276:318|228:318|184:293,1,140
256,176,90622,21,0
220,40,91063,2,0,B|256:24|288:40,1,70
320,112,91504,2,0,B|256:160|192:112,1,140
256,192,92386,12,0,95474
256,192,95916,12,0,99445
