osu file format v9

[General]
AudioFilename: Kajiura Yuki - Credens justitiam.mp3
AudioLeadIn: 2000
PreviewTime: 21570
Countdown: 0
SampleSet: Soft
StackLeniency: 0.4
Mode: 0
LetterboxInBreaks: 0

[Editor]
DistanceSpacing: 1.1
BeatDivisor: 4
GridSize: 8

[Metadata]
Title:Credens justitiam
Artist:Kajiura Yuki
Creator:kanpakyin
Version:Hard
Source:Puella Magi Madoka Magica
Tags:tomoe mami theme KanaRin karenying spboxer3

[Difficulty]
HPDrainRate:7
CircleSize:5
OverallDifficulty:7
ApproachRate:7
SliderMultiplier:1.4
SliderTickRate:1

[Events]
//Background and Video events
0,0,"mami.jpg"
//Break Periods
//Storyboard Layer 0 (Background)
//Storyboard Layer 1 (Fail)
//Storyboard Layer 2 (Pass)
//Storyboard Layer 3 (Foreground)
//Storyboard Sound Samples
//Background Colour Transformations
3,100,163,162,255

[TimingPoints]
622,441.176470588235,4,2,1,50,1,0
622,-133.333333333333,4,1,1,30,0,0
732,-133.333333333333,4,2,1,40,0,0
2276,-133.333333333333,4,1,1,40,0,0
2496,-133.333333333333,4,2,1,40,0,0
4041,-133.333333333333,4,1,1,30,0,0
4371,-133.333333333333,4,2,1,40,0,0
5805,-133.333333333333,4,1,1,30,0,0
6136,-133.333333333333,4,2,1,40,0,0
7570,-133.333333333333,4,1,1,40,0,0
7791,-133.333333333333,4,2,1,40,0,0
11210,-100,4,1,1,45,0,0
11320,-100,4,2,1,60,0,0
12864,-100,4,1,1,60,0,0
13085,-100,4,2,1,60,0,0
14629,-100,4,1,1,60,0,0
14960,-100,4,2,1,60,0,0
16394,-100,4,1,1,60,0,0
16614,-100,4,2,1,60,0,0
18158,-100,4,1,1,60,0,0
18489,-100,4,2,1,60,0,0
21688,-100,4,2,0,45,0,0
21908,-100,4,2,1,60,0,0
23452,-100,4,1,1,60,0,0
23673,-100,4,2,1,60,0,0
25217,-100,4,1,1,60,0,0
25438,-100,4,2,1,60,0,0
26982,-100,4,2,1,40,0,0
27313,-100,4,2,1,60,0,0
28746,-100,4,1,1,60,0,0
28967,-100,4,2,1,60,0,0
30511,-100,4,1,1,60,0,0
30732,-100,4,2,1,60,0,0
32276,-100,4,1,1,60,0,0
32496,-100,4,1,1,20,0,0
35474,-100,4,2,1,60,0,0
35916,-200,4,1,1,50,0,0
36026,-200,4,2,1,50,0,0
36688,-133.333333333333,4,2,1,50,0,0
37680,-100,4,1,1,50,0,0
37791,-100,4,2,1,50,0,0
38452,-100,4,1,1,40,0,0
39114,-100,4,2,1,70,0,0
41099,-100,4,1,1,70,0,0
41320,-100,4,2,1,70,0,0
42864,-100,4,2,2,40,0,0
43085,-100,4,2,1,70,0,0
46394,-100,4,2,2,40,0,0
46614,-100,4,2,1,70,0,0
49923,-100,4,2,2,40,0,0
50144,-100,4,2,1,70,0,0
51688,-100,4,1,1,70,0,0
51908,-100,4,2,1,70,0,0
53452,-100,4,2,2,40,0,0
53673,-100,4,2,1,70,0,0
55217,-100,4,1,1,70,0,0
55438,-100,4,2,1,70,0,0
56982,-100,4,2,2,40,0,0
57313,-100,4,1,1,40,0,0
59960,-100,4,1,1,50,0,0
60621,-100,4,1,1,50,0,1
60732,-100,4,2,1,70,0,1
61394,-100,4,1,1,40,0,1
61614,-100,4,2,1,70,0,1
62276,-100,4,1,1,70,0,1
62496,-100,4,2,1,70,0,1
64041,-100,4,1,1,40,0,1
67460,-100,4,2,1,70,0,1
69335,-100,4,1,1,50,0,1
69555,-100,4,2,1,70,0,1
71099,-100,4,2,2,40,0,1
71430,-100,4,2,1,70,0,1
72864,-100,4,1,1,50,0,1
73085,-100,4,2,1,70,0,1
74739,-100,4,2,2,40,0,1
74849,-100,4,2,1,70,0,1
76394,-100,4,1,1,50,0,1
76614,-100,4,2,1,70,0,1
78269,-100,4,2,2,40,0,1
78379,-100,4,2,1,70,0,1
79151,-100,4,1,1,70,0,1
79261,-100,4,2,1,70,0,1
85327,-133.333333333333,4,1,1,45,0,0
85769,-133.333333333333,4,2,1,40,0,0
88305,-133.333333333333,4,2,1,25,0,0
88636,-133.333333333333,4,2,1,40,0,0
95805,-133.333333333333,4,2,1,20,0,0
96136,-200,4,2,1,20,0,0
99335,-133.333333333333,4,2,1,5,0,0

[Colours]
Combo1 : 146,170,211
Combo2 : 216,182,165
Combo3 : 249,130,113
SliderBorder : 255,255,255

[HitObjects]
159,255,622,2,0,B|165:300|127:334|81:331,1,104.999996870756,0|0
77,254,1283,1,2
114,184,1504,2,0,B|137:160|201:163|221:194,1,104.999996870756
262,244,2166,1,2
311,304,2386,2,0,B|360:337|415:305,2,104.999996870756,0|2|0
123,81,4151,5,0
123,81,4592,1,0
157,151,4813,1,2
117,218,5033,2,0,B|144:264,1,52.4999984353781,0|2
94,325,5474,2,0,B|121:373,1,52.4999984353781,0|2
157,151,5916,6,0,B|104:53,1,104.999996870756
142,232,6577,1,2
142,232,6798,2,0,B|177:245|227:219|230:171,1,104.999996870756
256,344,7680,5,0
256,40,8121,1,2
256,192,8563,12,2,10769
256,192,11210,5,0
161,130,11430,2,0,B|123:114|86:134,1,70,2|8
128,199,11871,2,0,B|119:242|153:265,1,70,2|0
201,204,12313,2,0,B|237:183|238:138,1,70,2|8
219,72,12754,1,2
291,97,12974,2,0,B|349:97|349:97|372:65|339:13,2,140,0|8|0
322,171,14077,1,0
322,171,14188,1,0
322,171,14298,2,0,B|395:171,1,70,8|2
243,198,14739,5,0
243,198,15180,1,8
261,273,15401,1,0
236,345,15621,2,0,B|272:365|313:338,1,70,0|2
92,290,16063,2,0,B|55:273|14:295,1,70,8|0
114,366,16504,6,0,B|164:360|190:290|155:244,1,140,0|8
98,211,17166,1,2
56,104,17386,2,0,B|36:171,1,70,0|2
132,121,17827,2,0,B|120:53,1,70,8|2
211,103,18269,5,0
211,103,18710,1,8
211,103,19151,1,0
256,192,19371,12,8,21357
104,262,21798,6,0,B|144:225|110:168|110:168|158:188,1,140,4|8
220,48,22680,2,0,B|180:85|214:142|214:142|166:122,1,140,2|8
341,93,23563,6,0,B|260:96,1,70,0|2
405,134,24004,1,8
405,134,24445,1,0
369,304,24886,5,8
281,233,25107,1,2
275,340,25327,1,0
275,340,25548,1,2
356,227,25769,5,8
225,291,25989,1,0
345,369,26210,1,2
146,238,26651,6,0,B|146:168|108:182|107:85,1,140,8|4
107,105,27533,1,8
107,105,27974,1,2
353,112,28416,5,8
424,83,28636,1,0
413,159,28857,2,0,B|412:219|412:219|420:233|420:233|421:302,1,140,0|8
346,274,29519,1,2
264,349,29739,6,0,B|219:345|193:365|193:365|210:335|178:282,1,140,0|8
157,231,30401,1,2
132,158,30621,2,0,B|170:134|172:57|131:27,1,140,0|8
90,94,31283,1,2
157,232,31504,2,0,B|190:221|203:182,1,70,0|2
269,225,31945,5,8
270,147,32166,1,0
424,192,32386,5,0
88,192,32827,1,0
256,320,33269,1,0
256,64,33710,1,0
256,192,33820,12,2,35695
251,92,35916,6,0,B|197:61|147:94,1,105,0|2
298,167,36798,6,0,B|323:205|428:207|446:164,1,157.499995306134,0|2
248,247,37680,6,0,B|220:201|79:201|47:252,1,210,0|2
325,301,38563,5,0
229,340,38783,1,0
121,302,39004,2,0,B|135:337,3,35,0|0|0|0
121,302,39445,6,0,B|85:281|88:239|88:239|65:275|61:290,1,105,4|2
72,264,39886,1,8
5,225,40107,1,2
157,231,40327,2,0,B|157:156,1,70,0|0
5,225,40769,5,8
5,225,40989,1,2
225,172,41210,2,0,B|229:125|197:104|197:104|220:58,1,105
220,65,41651,2,0,B|141:107,2,70,8|0|2
362,123,42533,5,8
390,194,42754,1,2
368,267,42974,2,0,B|356:305|321:322,1,70,10|2
251,345,43416,2,0,B|216:361|169:349,1,70,8|0
313,203,43857,5,0
368,267,44077,1,2
429,313,44298,2,0,B|461:334|497:315,1,70,8|0
463,245,44739,2,0,B|466:98,1,140,4|8
395,137,45401,1,2
322,112,45621,1,2
322,112,46063,6,0,B|172:112,1,140,8|10
111,80,46724,1,2
58,136,46945,1,8
95,203,47166,1,2
170,189,47386,1,0
256,192,47496,12,8,50033
128,139,50254,5,2
128,139,50364,1,0
128,139,50474,1,8
92,207,50695,1,0
169,205,50916,1,2
128,272,51136,1,0
169,205,51357,5,8
128,139,51577,1,0
179,81,51798,1,0
251,107,52019,1,0
245,183,52239,1,8
238,259,52460,1,0
285,373,52680,6,0,B|273:337|293:305|293:305|270:336|211:331,1,140,2|8
155,320,53342,1,0
113,254,53563,1,8
70,105,54004,5,8
55,180,54224,1,2
131,167,54445,2,0,B|163:139|144:87,1,70
70,105,54886,1,8
131,167,55107,1,0
221,177,55327,6,0,B|214:216|178:238,1,70,0|0
289,217,55769,1,8
289,217,55989,1,0
289,217,56210,2,0,B|289:72,2,140,2|8|8
289,231,57533,5,0
289,243,57974,5,0
256,192,58195,12,0,60180
106,276,60621,6,0,B|141:261|127:204|127:204|160:227|171:228,1,105,4|0
162,209,61063,2,0,B|238:209,1,70,8|0
292,160,61504,1,0
409,275,61945,2,0,B|409:198,1,70,8|0
480,79,62386,6,0,B|480:235,1,140,0|8
456,293,63048,1,2
396,341,63269,2,0,B|369:376|294:376|268:335,1,140,0|8
113,330,63930,5,2
113,330,64151,2,0,B|115:256|83:275|83:182,1,140
165,64,65033,2,0,B|165:215,1,140
232,342,65916,2,0,B|232:188,1,140
346,99,66798,5,0
346,99,67239,1,0
346,99,67680,2,0,B|379:145|350:209|293:210,1,140,4|8
329,281,68342,1,0
252,269,68563,2,0,B|204:260|149:317|173:373,1,140,2|8
244,347,69224,1,0
116,261,69445,5,0
148,191,69666,1,0
112,122,69886,1,8
77,190,70107,1,0
148,191,70327,2,0,B|-3:191,2,140,0|8|8
258,82,71651,5,8
334,83,71871,1,0
297,150,72092,2,0,B|345:175|407:139|408:82,1,140,2|8
297,150,72754,1,0
258,82,72974,1,0
221,149,73195,2,0,B|222:190|264:215,1,70,0|8
220,15,73636,5,0
183,82,73857,1,2
74,191,74298,1,8
134,239,74519,1,0
134,239,74629,1,0
134,239,74739,1,10
61,266,74960,1,0
123,311,75180,6,0,B|123:381,2,70,8|0|0
195,285,75842,1,0
269,263,76063,2,0,B|303:242|351:255,1,70,8|0
319,326,76504,2,0,B|319:178,2,140,0|8|0
439,96,77827,5,8
371,57,78048,1,0
371,57,78158,1,0
371,57,78269,2,0,B|292:57,1,70,10|0
489,35,78710,5,8
439,96,78930,1,0
489,158,79151,1,0
489,171,79261,1,0
489,184,79371,1,0
489,198,79482,1,0
489,211,79592,2,0,B|489:290,1,70,8|2
320,334,80033,6,0,B|345:316|345:316|384:338|435:316,1,105,4|0
416,322,80474,1,8
484,366,80695,1,2
276,278,80916,2,0,B|315:242|315:242|320:194|269:152,1,140,0|8
256,192,81577,12,4,85327
113,94,86210,5,2
113,94,87092,1,0
167,143,87533,1,2
97,166,87974,2,0,B|97:276,1,104.999996870756,0|2
23,273,88857,5,0
55,339,89298,1,0
55,339,89519,1,2
55,339,89739,1,0
128,340,90180,1,0
161,274,90621,6,0,B|264:274,1,104.999996870756,2|0
301,264,91283,1,0
330,241,91504,2,0,B|356:216|365:168|351:140,1,104.999996870756,2|0
317,79,92386,2,0,B|423:79,1,104.999996870756
422,79,93048,1,2
422,79,93269,1,0
256,192,93379,12,0,95916
256,192,96357,6,0,B|256:144,2,35,2|0|4
256,192,96908,12,4,99445
