osu file format v9

[General]
AudioFilename: Kajiura Yuki - Credens justitiam.mp3
AudioLeadIn: 2000
PreviewTime: 21570
Countdown: 0
SampleSet: Soft
StackLeniency: 0.4
Mode: 0
LetterboxInBreaks: 0

[Editor]
DistanceSpacing: 1.3
BeatDivisor: 4
GridSize: 8

[Metadata]
Title:Credens justitiam
Artist:Kajiura Yuki
Creator:kanpakyin
Version:Easy
Source:Puella Magi Madoka Magica
Tags:tomoe mami theme KanaRin karenying spboxer3

[Difficulty]
HPDrainRate:2
CircleSize:4
OverallDifficulty:1
ApproachRate:3
SliderMultiplier:0.8
SliderTickRate:1

[Events]
//Background and Video events
0,0,"mami.jpg"
//Break Periods
//Storyboard Layer 0 (Background)
//Storyboard Layer 1 (Fail)
//Storyboard Layer 2 (Pass)
//Storyboard Layer 3 (Foreground)
//Storyboard Sound Samples
//Background Colour Transformations
3,100,163,162,255

[TimingPoints]
622,441.176470588235,4,2,1,50,1,0
622,-133.333333333333,4,1,1,30,0,0
732,-133.333333333333,4,2,1,30,0,0
2276,-133.333333333333,4,1,1,30,0,0
2496,-133.333333333333,4,2,1,30,0,0
4041,-133.333333333333,4,1,1,30,0,0
4261,-133.333333333333,4,2,1,30,0,0
5805,-133.333333333333,4,1,1,30,0,0
6136,-133.333333333333,4,2,1,30,0,0
7570,-133.333333333333,4,1,1,30,0,0
7901,-133.333333333333,4,2,1,30,0,0
11099,-100,4,2,1,50,0,0
12864,-100,4,1,1,50,0,0
13085,-100,4,2,1,50,0,0
14629,-100,4,1,1,50,0,0
14849,-100,4,2,1,50,0,0
16394,-100,4,2,0,20,0,0
16835,-100,4,2,1,50,0,0
18158,-100,4,1,1,50,0,0
18489,-100,4,2,1,50,0,0
21688,-100,4,2,0,50,0,0
22019,-100,4,2,1,50,0,0
23342,-100,4,1,1,50,0,0
23783,-100,4,2,1,50,0,0
25217,-100,4,1,1,50,0,0
25438,-100,4,2,1,50,0,0
26982,-100,4,1,1,50,0,0
27202,-100,4,2,1,50,0,0
30621,-100,4,1,1,50,0,0
30952,-100,4,2,1,50,0,0
32386,-100,4,1,1,50,0,0
32607,-100,4,2,1,50,0,0
35805,-100,4,1,1,30,0,0
36026,-100,4,2,1,50,0,0
37570,-100,4,1,1,30,0,0
37791,-100,4,2,1,50,0,0
41099,-100,4,1,1,50,0,0
41320,-100,4,2,1,50,0,0
42864,-100,4,2,2,30,0,0
43085,-100,4,2,1,50,0,0
44629,-100,4,1,1,50,0,0
44960,-100,4,2,1,50,0,0
46394,-100,4,2,2,30,0,0
46614,-100,4,1,2,50,0,0
49923,-100,4,2,2,30,0,0
50474,-100,4,2,1,50,0,0
51688,-100,4,1,1,50,0,0
51908,-100,4,2,1,50,0,0
53452,-100,4,2,2,30,0,0
53673,-100,4,2,1,50,0,0
56982,-100,4,2,2,30,0,0
57202,-100,4,2,1,50,0,0
60070,-100,4,1,1,50,0,0
60621,-100,4,2,1,50,0,1
62276,-100,4,1,1,50,0,1
62496,-100,4,2,1,50,0,1
64041,-100,4,1,1,50,0,1
64371,-100,4,2,1,50,0,1
65805,-100,4,1,1,50,0,1
66026,-100,4,2,1,50,0,1
67570,-100,4,1,1,50,0,1
68452,-100,4,2,1,50,0,1
69335,-100,4,1,1,50,0,1
70217,-100,4,2,1,50,0,1
71099,-100,4,2,2,30,0,1
71320,-100,4,2,1,50,0,1
72864,-100,4,1,1,50,0,1
73085,-100,4,2,1,50,0,1
74629,-100,4,2,2,30,0,1
74960,-100,4,2,1,50,0,1
78158,-100,4,2,2,30,0,1
78489,-100,4,2,1,50,0,1
79923,-100,4,1,1,50,0,1
80254,-100,4,2,1,50,0,1
85327,-100,4,2,0,50,0,0
85769,-133.333333333333,4,2,1,30,0,0
99335,-133.333333333333,4,2,1,5,0,0

[Colours]
Combo1 : 146,170,211
Combo2 : 216,182,165
Combo3 : 249,130,113
SliderBorder : 255,255,255

[HitObjects]
139,311,622,2,0,B|79:311,2,59.9999982118607,0|0|2
216,288,1945,1,0
288,312,2386,1,0
360,288,2827,2,0,B|360:219,1,59.9999982118607,0|2
264,104,4151,5,0
187,117,4592,2,0,B|176:77,2,29.9999991059304,0|2|0
236,177,5474,1,2
159,193,5916,6,0,B|158:242|158:242|150:271|150:271|150:322,2,119.999996423721,0|2|0
181,118,8121,1,2
105,138,8563,1,0
256,192,8783,12,0,10769
203,268,11210,6,0,B|127:267|140:310|50:310,2,160,4|2|0
193,347,13416,2,0,B|276:347,1,80,8|0
358,211,14739,5,0
323,138,15180,2,0,B|342:101,2,40,8|2|0
277,203,16063,2,0,B|186:203,1,80,8|4
139,147,16945,2,0,B|79:230|156:302,1,160,8|8
87,347,18269,5,0
18,305,18710,1,8
256,192,19151,12,8,21357
178,205,21798,6,0,B|195:134|195:134|176:85|125:68,2,160,4|2|0
257,197,24004,1,8
334,205,24445,2,0,B|317:134|317:134|336:85|387:68,2,160,0|0|0
416,209,26651,2,0,B|416:294,2,80,8|0|8
283,298,28416,5,8
218,344,28857,2,0,B|180:269|180:269|99:247,1,160,4|2
74,175,30180,2,0,B|24:162,2,40,8|2|0
152,193,31063,1,8
229,211,31504,1,0
209,133,31945,6,0,B|260:143,2,40,8|2|0
131,113,32827,1,8
151,35,33269,1,2
228,53,33710,1,8
256,192,33930,12,8,35474
17,116,35916,6,0,B|8:149|34:179|68:183,1,80,4|8
96,112,36798,2,0,B|260:113,1,160,2|4
258,33,38121,5,8
326,74,38563,1,0
325,153,39004,1,8
257,196,39445,5,4
327,234,39886,2,0,B|327:316,2,80,8|0|8
407,252,41210,2,0,B|407:167,2,80,0|8|2
247,266,42974,5,8
279,339,43416,2,0,B|315:307,2,40,8|2|0
199,335,44298,1,8
121,316,44739,5,0
79,247,45180,1,8
95,168,45621,2,0,B|116:150|122:108|109:77,1,80,2|8
35,109,46504,5,8
54,31,46945,1,0
256,192,47386,12,8,50033
139,134,50916,5,2
139,134,51798,1,0
170,207,52239,1,8
137,280,52680,2,0,B|56:280,2,80,2|8|8
214,299,54004,6,0,B|192:340,2,40,8|2|0
291,277,54886,2,8,B|332:254|333:161|287:133,1,160,8|8
211,137,56210,2,0,B|382:138,1,160,0|8
450,138,57533,1,8
256,192,57974,12,0,60180
203,190,60621,6,0,B|169:198|131:162|131:162|101:194|53:186,2,160,4|0|0
190,110,62827,2,0,B|227:131|274:112,1,80,8|0
385,91,63930,6,0,B|375:142,1,40,2|0
435,185,64592,2,0,B|454:263,3,80,8|0|8|0
414,332,66357,1,8
337,309,66798,6,0,B|296:322|256:283|256:283|278:330|243:361,1,160,2|0
111,275,68563,2,0,B|152:288|195:250|195:250|170:296|200:323,1,160
72,213,70327,1,0
170,143,70989,6,0,B|154:93,2,40,2|8|2
232,192,71871,2,0,B|275:175,2,40,2|0|2
172,245,72754,2,0,B|187:290,2,40,2|0|2
113,191,73636,2,0,B|66:208,2,40,2|0|2
107,270,74519,6,0,B|70:301,1,40,2|8
145,336,75180,2,0,B|189:320|189:320|239:352|312:324,1,160,8|8
376,344,76504,2,0,B|373:267|323:265|326:188,1,160,2|0
369,127,77827,1,8
405,201,78269,5,8
256,140,79151,1,2
105,193,80033,1,0
257,240,80916,1,2
256,319,81357,2,0,B|256:371,1,40,0|2
256,192,81798,12,4,85327
134,112,86210,6,0,B|134:179,1,59.9999982118607,2|0
178,235,87092,1,0
141,304,87533,1,2
70,271,87974,2,0,B|7:271,1,59.9999982118607
55,121,89298,6,0,B|35:89,2,29.9999991059304,0|2|0
124,155,90180,2,0,B|157:171|192:154,1,59.9999982118607,2|0
256,133,91063,2,0,B|290:123|323:136,1,59.9999982118607,2|0
387,163,91945,1,0
256,192,92386,12,0,94592
256,192,95033,6,0,B|256:120,1,59.9999982118607,2|0
256,192,95916,12,4,99445
