osu file format v12

[General]
AudioFilename: Chloe (Noir).mp3
AudioLeadIn: 0
PreviewTime: 15536
Countdown: 0
SampleSet: Soft
StackLeniency: 0.7
Mode: 0
LetterboxInBreaks: 1
WidescreenStoryboard: 1

[Editor]
Bookmarks: 25474,27724,37474,38974,49474,50974,111724
DistanceSpacing: 1.2
BeatDivisor: 4
GridSize: 4

[Metadata]
Title:Chloe
TitleUnicode:Chloe
Artist:Kajiura Yuki
ArtistUnicode:梶浦 由記
Creator:Lizbeth
Version:Easy
Source:Noir
Tags:ノワール Nowaru Original Soundtrack I
BeatmapID:311496
BeatmapSetID:112403

[Difficulty]
HPDrainRate:2
CircleSize:3
OverallDifficulty:2
ApproachRate:2
SliderMultiplier:1
SliderTickRate:1

[Events]
//Background and Video events
0,0,"astomoe.jpg",0,0
//Break Periods
//Storyboard Layer 0 (Background)
//Storyboard Layer 1 (Fail)
//Storyboard Layer 2 (Pass)
//Storyboard Layer 3 (Foreground)
//Storyboard Sound Samples
//Background Colour Transformations
3,100,163,162,255

[TimingPoints]
15724,750,4,2,1,15,1,0
15911,-100,4,2,3,15,0,0
16661,-100,4,2,1,15,0,0
19099,-100,4,2,3,15,0,0
19661,-100,4,2,2,15,0,0
20036,-100,4,2,2,20,0,0
20411,-100,4,2,1,15,0,0
21911,-100,4,2,3,15,0,0
22661,-100,4,2,2,15,0,0
23036,-100,4,2,2,20,0,0
23411,-100,4,2,3,15,0,0
24161,-100,4,2,1,15,0,0
29036,-100,4,2,2,15,0,0
29411,-100,4,2,2,20,0,0
29786,-100,4,2,1,15,0,0
31099,-100,4,2,3,15,0,0
31661,-100,4,2,2,15,0,0
32036,-100,4,2,2,20,0,0
32411,-100,4,2,1,15,0,0
34661,-100,4,2,2,15,0,0
35036,-100,4,2,2,20,0,0
35411,-100,4,2,2,30,0,0
35786,-100,4,2,1,15,0,0
36911,-100,4,2,3,15,0,0
37661,-100,4,2,1,15,0,0
40661,-100,4,2,2,15,0,0
41036,-100,4,2,2,20,0,0
41411,-100,4,2,1,15,0,0
43099,-100,4,2,3,15,0,0
43661,-100,4,2,1,15,0,0
44411,-100,4,2,2,15,0,0
44786,-100,4,2,2,20,0,0
45161,-100,4,2,1,15,0,0
46661,-100,4,2,2,15,0,0
47036,-100,4,2,2,20,0,0
47411,-100,4,2,1,15,0,0
47786,-100,4,2,3,15,0,0
48161,-100,4,2,1,15,0,0
50786,-100,4,2,2,15,0,0
51161,-100,4,2,1,15,0,0
52286,-100,4,2,1,15,0,0
52661,-100,4,2,2,15,0,0
53036,-100,4,2,2,20,0,0
53411,-100,4,2,3,15,0,0
53786,-100,4,2,1,15,0,0
55474,-100,4,2,3,15,0,0
55661,-100,4,2,2,15,0,0
56036,-100,4,2,2,20,0,0
56411,-100,4,2,1,15,0,0
56786,-100,4,2,3,15,0,0
57161,-100,4,2,1,15,0,0
58286,-100,4,2,2,15,0,0
58661,-100,4,2,2,15,0,0
59036,-100,4,2,2,20,0,0
59411,-100,4,2,1,15,0,0
63724,-100,4,2,1,30,0,1
64099,-100,4,2,1,30,0,0
64849,-100,4,2,2,30,0,0
65411,-100,4,2,1,30,0,0
67661,-100,4,2,2,40,0,0
68411,-100,4,2,1,30,0,0
70661,-100,4,2,2,40,0,0
71411,-100,4,2,1,30,0,0
73849,-100,4,2,2,40,0,0
74411,-100,4,2,1,30,0,0
74974,-100,4,2,1,30,0,0
76849,-100,4,2,2,40,0,0
77411,-100,4,2,1,30,0,0
79661,-100,4,2,2,40,0,0
80411,-100,4,2,1,30,0,0
82849,-100,4,2,2,40,0,0
83411,-100,4,2,1,30,0,0
85849,-100,4,2,2,40,0,0
86411,-100,4,2,1,30,0,0
88661,-100,4,2,2,40,0,0
89411,-100,4,2,1,30,0,0
91849,-100,4,2,2,40,0,0
92036,-100,4,2,1,30,0,0
92224,-100,4,2,2,40,0,0
92411,-100,4,2,1,30,0,0
94849,-100,4,2,2,40,0,0
95411,-100,4,2,1,30,0,0
97849,-100,4,2,2,40,0,0
98036,-100,4,2,1,30,0,0
98224,-100,4,2,2,40,0,0
98411,-100,4,2,1,30,0,0
100661,-100,4,2,2,40,0,0
101411,-100,4,2,1,30,0,0
104224,-100,4,2,2,40,0,0
104411,-100,4,2,1,30,0,0
106661,-100,4,2,2,40,0,0
107411,-100,4,2,1,30,0,0
109661,-100,4,2,2,40,0,0
110411,-100,4,2,1,30,0,0

[Colours]
Combo1 : 168,0,84
Combo2 : 255,141,28
Combo3 : 45,187,255

[HitObjects]
104,64,15724,2,0,L|112:180,1,100,4|2,0:0|0:0,0:0:0:0:
220,212,17224,2,0,L|232:324,1,100,0|0,0:0|0:0,0:0:0:0:
348,344,18724,5,4,0:0:0:0:
404,240,19474,2,0,L|448:144,1,100,2|2,0:0|0:0,0:0:0:0:
356,68,20974,1,0,0:0:0:0:
236,56,21724,6,0,L|124:92,1,100,4|2,0:0|0:0,0:0:0:0:
80,188,23224,2,0,L|188:216,1,100,2|2,0:0|0:0,0:0:0:0:
272,284,24724,2,0,L|168:340,1,100,4|0,0:0|0:0,0:0:0:0:
448,336,27724,5,4,0:0:0:0:
344,272,28474,2,0,L|364:172,1,100,0|2,0:0|0:0,0:0:0:0:
416,68,29974,1,0,0:0:0:0:
296,84,30724,6,0,P|252:48|204:36,1,100,4|2,0:0|0:0,0:0:0:0:
92,56,32224,1,2,0:0:0:0:
48,168,32974,1,0,0:0:0:0:
124,260,33724,5,4,0:0:0:0:
232,308,34474,1,0,0:0:0:0:
224,188,35224,1,2,0:0:0:0:
328,244,35974,2,0,L|440:216,2,100,0|4|2,0:0|0:0|0:0,0:0:0:0:
180,56,38974,6,0,P|128:52|76:68,1,100,0|4,0:0|0:0,0:0:0:0:
132,176,40474,2,0,P|180:172|232:192,1,100,0|2,0:0|0:0,0:0:0:0:
292,292,41974,6,0,L|404:280,1,100,0|4,0:0|0:0,0:0:0:0:
496,340,43474,1,2,0:0:0:0:
484,220,44224,1,0,0:0:0:0:
372,176,44974,6,0,L|272:196,1,100,2|4,0:0|0:0,0:0:0:0:
192,284,46474,1,0,0:0:0:0:
72,304,47224,1,2,0:0:0:0:
16,196,47974,1,2,0:0:0:0:
72,88,48724,2,0,P|108:56|176:52,1,100,4|0,0:0|0:0,0:0:0:0:
396,80,50974,6,0,L|500:104,1,100,2|4,0:0|0:0,0:0:0:0:
420,196,52474,2,0,L|308:212,1,100,0|2,0:0|0:0,0:0:0:0:
228,288,53974,6,0,P|168:296|120:268,1,100,0|4,0:0|0:0,0:0:0:0:
76,176,55474,1,2,0:0:0:0:
124,68,56224,2,0,P|172:48|224:52,1,100,2|2,0:0|0:0,0:0:0:0:
336,80,57724,6,0,P|356:140|396:176,1,100,4|2,0:0|0:0,0:0:0:0:
448,264,59224,2,0,P|392:304|372:352,1,100,2|0,0:0|0:0,0:0:0:0:
260,304,60724,2,0,P|208:320|144:312,1,100,4|0,0:0|0:0,0:0:0:0:
124,44,63724,6,0,P|160:88|220:104,1,100,4|2,0:0|0:0,0:0:0:0:
316,132,65224,2,0,L|276:232,1,100,2|8,0:0|0:0,0:0:0:0:
236,336,66724,5,4,0:0:0:0:
124,296,67474,1,2,0:0:0:0:
84,184,68224,1,2,0:0:0:0:
132,72,68974,1,8,0:0:0:0:
240,120,69724,6,0,L|344:80,1,100,4|2,0:0|0:0,0:0:0:0:
428,156,71224,1,2,0:0:0:0:
436,276,71974,1,8,0:0:0:0:
320,240,72724,6,0,P|268:264|236:308,1,100,4|2,0:0|0:0,0:0:0:0:
136,240,74224,2,0,P|88:272|32:276,1,100,2|8,0:0|0:0,0:0:0:0:
60,160,75724,5,4,0:0:0:0:
136,68,76474,1,2,0:0:0:0:
184,180,77224,2,0,B|240:276,1,100,2|8,0:0|0:0,0:0:0:0:
336,332,78724,6,0,L|360:228,1,100,4|2,0:0|0:0,0:0:0:0:
476,216,80224,1,2,0:0:0:0:
400,120,80974,1,8,0:0:0:0:
280,104,81724,5,4,0:0:0:0:
172,156,82474,2,0,L|72:176,1,100,2|2,0:0|0:0,0:0:0:0:
168,252,83974,2,0,L|280:252,1,100,8|4,0:0|0:0,0:0:0:0:
368,316,85474,1,0,0:0:0:0:
468,252,86224,5,2,0:0:0:0:
428,140,86974,1,8,0:0:0:0:
308,136,87724,6,0,P|260:116|204:136,1,100,4|2,0:0|0:0,0:0:0:0:
116,196,89224,2,0,P|80:236|80:296,1,100,2|8,0:0|0:0,0:0:0:0:
196,280,90724,2,0,L|304:292,2,100,0|2|2,0:0|0:0|0:0,0:0:0:0:
272,184,92974,5,8,0:0:0:0:
388,156,93724,1,4,0:0:0:0:
308,68,94474,1,2,0:0:0:0:
188,84,95224,1,2,0:0:0:0:
120,184,95974,6,0,P|104:232|100:288,1,100,8|4,0:0|0:0,0:0:0:0:
196,352,97474,2,0,P|212:304|216:248,1,100,2|2,0:0|0:0,0:0:0:0:
324,200,98974,5,8,0:0:0:0:
440,176,99724,1,4,0:0:0:0:
352,96,100474,1,2,0:0:0:0:
236,120,101224,1,2,0:0:0:0:
172,220,101974,5,8,0:0:0:0:
224,328,102724,2,0,L|344:336,2,100,0|2|2,0:0|0:0|0:0,0:0:0:0:
104,320,104974,1,8,0:0:0:0:
48,212,105724,6,0,P|48:156|72:104,1,100,4|2,0:0|0:0,0:0:0:0:
168,176,107224,2,0,P|188:224|236:268,1,100,2|8,0:0|0:0,0:0:0:0:
316,188,108724,5,4,0:0:0:0:
436,192,109474,1,2,0:0:0:0:
372,292,110224,2,0,L|284:340,1,100,2|8,0:0|0:0,0:0:0:0:
