osu file format v6

[General]
AudioFilename: Kajiura Yuki - Break the sword of justice.mp3
AudioLeadIn: 0
PreviewTime: 18866
Countdown: 0
SampleSet: Soft
StackLeniency: 0.7
Mode: 0
LetterboxInBreaks: 1

[Editor]
Bookmarks: 10012,47142,56044
DistanceSpacing: 1.5
BeatDivisor: 4
GridSize: 8

[Metadata]
Title:Break the Sword of Justice
Artist:Kajiura Yuki
Creator:Lissette
Version:Insane
Source:Tsubasa Chronicle
Tags:Future Soundscape Lizbeth

[Difficulty]
HPDrainRate:7
CircleSize:5
OverallDifficulty:7
SliderMultiplier:2
SliderTickRate:1

[Events]
//Background and Video events
0,0,"syaoran tsubasa2.jpg"
//Break Periods
2,65905,71773
//Storyboard Layer 0 (Background)
//Storyboard Layer 1 (Fail)
//Storyboard Layer 2 (Pass)
//Storyboard Layer 3 (Foreground)
Sprite,Foreground,Centre,"speedx2.png",320,240 M,0,28952,,323,66 F,0,28952,29097,1,0 F,0,29097,29242,0,1 F,0,29242,29387,1,0 F,0,29387,29532,0,1 F,0,29532,29677,1,0 F,0,29677,29823,0,0.968 F,0,29823,,0.968 F,0,29823,,0.968 F,0,29823,,0.968
Sprite,Foreground,Centre,"speedx2.png",320,240 M,0,31274,,319,144 F,0,31274,31419,1,0 F,0,31419,31564,0,1 F,0,31564,31710,1,0 F,0,31710,31855,0,1 F,0,31855,32000,1,0 F,0,32000,32145,0,1
Sprite,Foreground,Centre,"speedx2.png",320,240 M,0,50242,,319,262 F,0,50242,50387,1,0 F,0,50387,50532,0,0.96 F,0,50532,50677,0.96,0 F,0,50677,50823,0,1 F,0,50823,50968,1,0 F,0,50968,51113,0,0.86 F,0,51113,51258,0.86,0 F,0,51258,51403,0,0.92 F,0,51403,51548,0.92,0 F,0,51548,,0
//Storyboard Sound Samples
//Background Colour Transformations
3,100,163,162,255

[TimingPoints]
673,387.096774193548,3,2,0,100,1,0
10177,-100,4,2,0,40,0,0
10468,-100,4,2,0,100,0,0
10758,-100,4,2,0,40,0,0
11435,-100,4,2,0,100,0,0
11726,-100,4,2,0,30,0,0
12210,-100,4,2,0,100,0,0
12500,-100,4,2,0,31,0,0
12790,-100,4,2,0,100,0,0
13081,-100,4,2,0,31,0,0
13758,-100,4,2,0,100,0,0
14048,-100,4,2,0,31,0,0
14726,-100,4,2,0,100,0,0
15403,-100,4,2,0,30,0,0
16081,-100,4,2,0,100,0,0
16371,-100,4,2,0,31,0,0
17048,-100,4,2,0,100,0,0
17726,-100,4,2,0,31,0,0
18210,-100,4,2,0,52,0,0
18403,-100,4,2,0,70,0,0
18597,-100,4,2,0,100,0,0
19081,-100,4,1,0,70,0,0
19468,-100,4,1,0,100,0,0
20048,-100,4,1,0,70,0,0
20726,-100,4,1,0,100,0,0
21016,-100,4,1,0,70,0,0
21500,-100,4,1,0,100,0,0
21790,-100,4,1,0,70,0,0
22081,-100,4,1,0,100,0,0
22371,-100,4,1,0,70,0,0
23048,-100,4,1,0,100,0,0
23339,-100,4,1,0,70,0,0
24016,-100,4,1,0,100,0,0
24306,-100,4,1,0,70,0,0
25371,-100,4,1,0,100,0,0
25661,-100,4,2,0,100,0,0
28468,-100,4,1,0,70,0,0
28758,-100,4,1,0,100,0,0
29823,-50,4,1,0,100,0,0
30306,-100,4,1,0,100,0,0
32145,-50,4,1,0,100,0,0
32629,-100,4,1,0,100,0,0
35242,-100,4,2,0,100,0,0
37758,-100,4,1,0,100,0,0
38145,-100,4,2,2,100,0,0
47339,-100,4,1,0,100,0,0
47919,-100,4,1,0,70,0,0
48597,-100,4,1,0,100,0,0
48887,-100,4,1,0,70,0,0
49371,-100,4,1,0,100,0,0
50242,-100,4,1,0,70,0,0
51597,-50,4,1,0,100,0,0
52177,-100,4,2,2,100,0,0
60887,-100,4,1,0,100,0,0
61468,-100,4,2,0,100,0,0
72306,-100,4,1,0,70,0,0
79855,-100,4,2,0,100,0,0
81790,-100,4,1,0,70,0,0
82177,-100,4,2,0,100,0,0
84113,-100,4,1,0,70,0,0
88758,-100,4,1,0,100,0,0
99984,-100,4,2,0,100,0,0
102790,-100,4,1,0,100,0,0
103274,-100,4,2,0,100,0,0
103855,-100,4,1,0,100,0,0
104435,-100,4,2,0,100,0,0
105016,-100,4,1,0,100,0,0
105597,-100,4,2,0,100,0,0
106177,-100,4,1,0,100,0,0
106758,-100,4,2,0,100,0,0
107339,-100,4,1,0,100,0,0
107919,-100,4,2,0,100,0,0
108500,-100,4,1,0,100,0,0
109081,-100,4,2,0,100,0,0
109758,-100,4,1,0,100,0,0
110242,-100,4,2,0,100,0,0
110823,-100,4,2,0,100,0,0
111210,-100,4,2,0,82,0,0
111597,-100,4,2,0,61,0,0
111984,-100,4,2,0,40,0,0
112564,-100,4,2,2,0,0,0

[Colours]
Combo1 : 225,228,116
Combo2 : 72,113,193
Combo3 : 255,255,255
Combo4 : 190,65,124

[HitObjects]
257,189,9963,1,2
352,61,10350,1,0
400,124,10543,1,2
288,240,10931,5,0
208,322,11124,1,0
127,241,11318,1,0
208,162,11511,1,2
408,192,11898,5,0
487,194,12092,1,0
408,192,12285,1,2
336,336,12672,1,2
333,254,12866,1,2
176,96,13253,5,0
336,96,13447,1,0
256,216,13640,1,0
176,96,13834,1,2
136,312,14221,5,0
105,237,14414,1,0
76,162,14608,1,0
45,86,14802,1,2
136,312,15189,1,2
369,310,15576,5,0
296,168,15769,1,0
448,168,15963,1,0
368,32,16156,1,2
257,318,16543,5,0
297,248,16737,1,0
217,249,16931,1,0
258,180,17124,1,2
257,180,17511,1,2
394,97,17898,5,0
326,53,18092,1,0
258,97,18285,1,2
188,56,18479,1,0
120,98,18672,1,2
176,328,19253,5,0
336,328,19640,1,4
256,328,19834,1,4
256,40,20221,5,0
373,132,20414,1,0
256,226,20608,1,0
138,131,20802,1,4
376,224,21189,6,0,B|405:181|388:157|370:126,1,100
312,176,21576,1,4
152,216,21963,1,0
152,136,22156,1,4
376,320,22543,5,0
296,320,22737,1,0
216,320,22931,1,0
136,320,23124,1,4
184,80,23511,5,0
168,160,23705,1,0
152,240,23898,1,0
136,320,24092,1,4
424,80,24479,1,0
424,80,24866,5,0
427,242,25060,1,0
424,80,25253,1,0
427,242,25447,1,4
258,39,25834,6,0,B|186:115,1,100
265,116,26221,2,0,B|351:197,2,100,0|0|2
262,193,26802,2,0,B|185:274,2,100,2|0|0
267,273,27382,2,0,B|343:356,2,100,0|0|2
343,274,27963,2,2,B|424:197,2,100,2|0|2
465,162,28543,5,4
464,162,28931,1,0
465,162,29124,1,4
331,73,29511,6,0,B|223:74,1,100
280,144,29898,2,0,B|280:352,1,200,0|4
104,216,30479,5,0
64,288,30672,1,0
144,288,30866,1,4
256,344,31253,1,0
256,344,31447,1,4
384,248,31834,2,0,B|383:126,1,100
311,196,32221,2,0,B|95:196,1,200,0|4
74,95,32802,5,0
144,64,32995,1,0
218,26,33189,1,0
144,64,33382,1,4
472,176,33769,5,4
360,256,34156,1,0
297,295,34350,1,0
226,333,34543,1,0
296,296,34737,1,4
87,253,35124,5,0
31,194,35318,2,0,B|72:148|124:192,1,100,0|2
79,118,35705,2,0,B|121:154|171:112,3,100,0|0|0|2
167,193,36479,2,0,B|208:147|260:191,1,100,0|2
223,113,36866,2,2,B|265:149|315:107,2,100,2|0|2
261,42,37447,5,0
261,42,37543,1,0
261,42,37640,1,0
261,42,37834,1,4
261,42,38027,1,4
259,122,38221,5,0
259,122,38414,1,0
184,272,38802,1,0
328,272,38995,1,0
256,344,39189,1,2
256,208,39382,1,2
256,208,39769,1,2
199,140,39963,5,0
176,216,40156,1,2
102,185,40350,1,0
102,185,40543,1,0
176,216,40737,1,2
146,290,40931,1,0
146,290,41124,1,0
176,216,41318,1,2
248,240,41511,1,0
328,240,41705,5,2
351,239,41802,1,0
376,240,41898,1,2
400,240,41995,1,0
424,240,42092,1,2
448,240,42189,1,0
472,240,42285,1,0
416,176,42479,5,0
112,176,43060,1,0
256,368,43640,1,0
288,256,44027,1,0
232,144,44414,1,0
286,28,44802,1,2
304,32,44898,1,0
320,40,44995,2,0,B|376:64|412:96|445:159|465:221|450:315|418:358|374:376|332:388|251:386|186:378|156:346|152:328|140:298|118:267|110:224|110:208|114:181|126:149|129:103|206:44|265:56|292:92|337:103|340:165|340:214|320:249|305:256|278:266|246:268|223:261|209:244|209:218|213:197,1,1100,2|0
213,200,47511,1,4
213,200,47705,1,4
87,49,48092,5,0
168,184,48285,1,0
246,49,48479,1,0
168,184,48673,1,4
456,184,49060,5,0
296,184,49253,1,0
376,336,49447,1,4
376,336,49834,1,4
376,336,50027,1,4
64,328,50414,5,0
144,328,50608,1,0
192,264,50802,2,0,B|82:264,3,100,0|0|0|0
56,110,51769,6,4,B|155:39|254:123,1,200
383,111,52350,2,0,B|380:164|320:190|267:177|256:145|239:108,1,200,0|0
192,176,52931,1,0
256,224,53124,1,0
320,264,53318,1,2
492,230,53705,5,0
492,228,54092,1,2
490,211,54189,1,0
487,190,54285,2,0,B|473:94|418:29|403:34|433:309|311:340|271:313|208:235|353:44|271:9|229:-3|187:19|101:50|248:232|182:314|120:326|50:300|74:42|2:54|7:285,1,900,2|0
70,315,56221,1,2
86,325,56318,1,0
104,330,56414,1,2
256,208,56608,12,0,58350
406,82,58543,5,2
390,64,58640,1,0
365,56,58737,1,2
256,208,58931,12,0,60673
344,192,61060,5,4
168,192,61253,1,4
24,112,61640,5,0
96,72,61834,1,0
168,112,62027,1,0
240,80,62221,1,2
312,120,62414,1,0
328,136,62511,1,0
344,152,62608,1,2
360,168,62705,1,0
376,184,62802,1,0
392,200,62898,1,0
408,216,62995,1,2
424,296,63189,5,0
360,344,63382,1,2
296,296,63576,1,0
280,280,63673,1,0
264,264,63769,1,2
200,312,63963,1,0
136,264,64156,1,0
192,208,64350,5,0
208,192,64447,1,0
224,176,64543,1,2
192,96,64737,1,0
176,112,64834,1,0
160,128,64931,1,2
144,144,65027,1,2
128,160,65124,1,0
112,176,65221,1,0
96,192,65318,1,2
80,112,65511,1,0
96,96,65608,1,0
112,80,65705,1,6
128,88,72673,5,4
384,88,74995,1,4
384,304,77318,1,4
128,304,79640,1,4
256,208,80027,5,0
176,64,80414,1,0
336,64,80802,1,0
176,336,81189,1,0
336,336,81576,1,0
176,64,81963,1,4
104,200,82350,5,0
408,200,82737,1,0
104,200,83124,1,0
408,200,83511,1,0
104,200,83898,1,0
256,64,84285,5,0
256,304,84866,1,0
256,64,85447,1,4
256,64,85834,1,4
384,272,86608,1,0
136,272,87189,1,0
384,272,87769,1,4
384,272,88156,1,4
456,56,88931,5,0
456,56,89124,1,0
256,192,89511,1,4
256,192,89898,5,0
128,96,90092,1,0
0,200,90285,1,0
128,312,90479,1,4
280,320,90866,6,0,B|360:240,1,100
320,168,91253,2,0,B|400:88,1,100,4|0
390,97,91834,1,4
233,74,92221,5,0
56,104,92414,1,0
232,168,92608,1,0
58,195,92802,1,4
363,288,93576,5,4
440,136,93963,1,0
440,136,94156,1,4
262,87,94543,1,0
240,164,94737,1,0
271,237,94931,1,0
248,314,95124,1,4
249,313,95511,2,0,B|133:314,2,100,0|0|4
249,313,96285,5,0
408,313,96479,1,4
402,153,96866,5,0
346,95,97060,1,0
266,95,97253,1,0
209,152,97447,1,4
313,273,97834,1,0
313,273,98027,1,0
313,273,98221,1,0
313,273,98414,1,4
313,273,98802,1,4
352,118,99189,5,0
164,118,99382,1,4
352,118,99576,1,0
166,118,99769,1,4
258,248,100156,5,0
300,316,100350,1,0
372,282,100543,1,2
431,227,100737,1,0
450,149,100931,1,0
443,69,101124,1,0
256,65,101318,6,0,B|246:122|286:147|251:175,1,100,0|0
259,246,101705,5,2
220,316,101898,1,0
148,281,102092,1,0
90,225,102285,1,0
65,149,102479,1,0
80,70,102673,1,0
159,70,102866,5,4
159,150,103060,1,4
438,116,103447,1,2
211,194,104027,1,4
211,274,104221,1,4
505,235,104608,1,2
340,60,105189,5,4
340,140,105382,1,4
78,97,105769,1,2
285,216,106350,1,4
286,296,106543,1,4
26,253,106931,1,2
160,56,107511,5,4
360,55,107705,1,4
258,329,108092,1,2
160,104,108673,1,4
360,104,108866,1,4
258,376,109253,1,2
400,304,109640,5,0
400,208,109834,1,4
400,112,110027,1,4
112,208,110414,1,2
284,34,110995,5,0
232,136,111382,1,0
288,240,111769,1,0
232,344,112156,1,4
256,208,112543,12,0,117576
