osu file format v6

[General]
AudioFilename: Kajiura Yuki - Break the sword of justice.mp3
AudioLeadIn: 0
PreviewTime: 18866
Countdown: 0
SampleSet: Soft
StackLeniency: 0.7
Mode: 0
LetterboxInBreaks: 1

[Editor]
Bookmarks: 10012,47142,56044,61076,75016
DistanceSpacing: 0.800000011920929
BeatDivisor: 4
GridSize: 8

[Metadata]
Title:Break the Sword of Justice
Artist:Kajiura Yuki
Creator:Lissette
Version:Easy
Source:Tsubasa Chronicle
Tags:Future Soundscape Lizbeth

[Difficulty]
HPDrainRate:3
CircleSize:3
OverallDifficulty:3
SliderMultiplier:1
SliderTickRate:1

[Events]
//Background and Video events
0,0,"syaoran tsubasa2.jpg"
//Break Periods
2,38034,41039
2,65905,73555
//Storyboard Layer 0 (Background)
//Storyboard Layer 1 (Fail)
//Storyboard Layer 2 (Pass)
//Storyboard Layer 3 (Foreground)
//Storyboard Sound Samples
//Background Colour Transformations
3,100,163,162,255

[TimingPoints]
673,387.096774193548,3,2,0,70,1,0
19081,-100,4,1,0,70,0,0
20242,-100,4,2,0,71,0,0
21403,-100,4,1,0,70,0,0
22564,-100,4,2,0,70,0,0
23726,-100,4,1,0,70,0,0
25468,-100,4,2,0,70,0,0
26242,-100,4,1,0,70,0,0
26435,-100,4,2,0,70,0,0
28371,-100,4,1,0,72,0,0
30306,-100,4,2,0,100,0,0
30693,-100,4,1,0,70,0,0
31855,-100,4,2,0,70,0,0
37661,-100,4,1,0,70,0,0
42306,-100,4,2,0,70,0,0
47145,-100,4,1,0,70,0,0
52371,-100,4,2,0,70,0,0
56242,-100,4,1,0,70,0,0
61468,-100,4,2,0,70,0,0
64758,-100,4,1,0,70,0,0
65145,-100,4,1,0,85,0,0
65532,-100,4,1,0,100,0,0
74629,-100,4,2,0,100,0,0
84113,-100,4,1,0,70,0,0
100371,-100,4,2,0,70,0,0
102693,-100,4,1,0,70,0,0
110823,-100,4,2,0,70,0,0
111210,-100,4,2,0,82,0,0
111597,-100,4,2,0,91,0,0
111984,-100,4,2,0,100,0,0
112571,-100,4,2,0,0,0,0

[Colours]
Combo1 : 225,228,116
Combo2 : 72,113,193
Combo3 : 255,255,255
Combo4 : 190,65,124

[HitObjects]
256,48,9963,1,2
168,184,10737,1,0
88,320,11511,1,0
248,320,12285,5,2
352,192,13060,1,0
456,72,13834,1,0
376,72,14221,5,0
296,72,14608,1,2
296,72,15189,1,2
256,184,15769,5,0
256,344,16543,1,0
256,344,17511,1,2
256,176,18092,5,2
256,96,18479,1,2
256,16,18866,1,2
256,16,19253,1,4
368,64,19834,5,4
368,184,20414,1,0
288,184,20802,1,0
288,264,21189,1,2
208,264,21576,1,4
88,264,22156,1,4
88,144,22737,5,0
168,144,23124,1,0
168,64,23511,1,2
248,64,23898,1,4
248,64,24479,1,4
440,120,25834,6,0,B|357:179,1,100,0|4
289,137,26608,2,0,B|289:249,1,100,0|2
218,198,27382,2,0,B|138:263,1,100,0|2
79,313,28156,2,0,B|79:209,1,100,0|4
80,136,28931,6,4,B|80:80,1,50
160,88,29511,2,0,B|160:144,3,50,0|0|0|4
120,208,30479,1,0
120,208,30866,5,4
184,312,31447,1,4
304,312,32027,2,0,B|360:224,1,100,0|2
416,88,33189,5,4
256,88,33963,1,2
96,88,34737,1,2
184,216,35511,5,4
344,216,36285,1,2
256,352,37060,1,0
184,216,37834,1,4
112,232,42479,5,0
256,168,43253,1,0
400,232,44027,1,0
400,232,44414,1,0
400,232,44802,2,0,B|400:328|256:376|136:376|40:288|16:200|32:104|120:104,1,600,2|0
256,96,47705,5,0
256,96,48285,1,0
256,280,49447,1,4
256,280,50027,1,4
256,80,50995,1,0
256,200,51576,2,8,B|256:256,2,50,8|8|12
336,288,52543,5,0
176,288,53318,1,2
72,168,54092,1,0
200,72,54866,1,2
360,72,55640,1,0
464,192,56414,1,4
256,208,56608,12,4,61060
86,260,62608,5,0
113,184,62995,1,0
144,113,63382,1,8
224,113,63769,5,0
256,186,64156,1,0
296,256,64543,1,8
376,257,64931,5,4
404,182,65318,1,4
432,105,65705,1,4
96,192,74995,5,2
96,192,75576,1,0
408,200,77318,5,2
408,200,77898,1,0
317,278,78479,5,0
197,278,79060,1,0
256,176,79640,6,0,B|256:72,4,100,2|0|2|0|2
256,256,81576,2,0,B|256:368,6,100,0|2|0|2|0|2|0
256,192,84285,5,0
256,192,84866,1,0
256,192,85447,1,0
256,192,85834,1,4
256,352,86608,5,0
376,352,87189,1,0
376,352,87769,1,0
376,352,88156,1,4
376,192,88931,5,4
256,192,89511,1,4
136,192,90092,2,4,B|80:192,2,50
256,104,91253,5,4
256,224,91834,1,4
256,344,92414,1,0
304,128,93576,5,12
280,208,93963,2,4,B|336:208,1,50
336,288,94543,2,0,B|392:288,3,50,8|0|8|4
224,288,95898,5,8
248,208,96285,2,4,B|192:208,1,50
192,128,96866,2,0,B|136:128,3,50,8|0|8|4
256,240,98221,5,0
256,240,98802,1,0
256,240,99382,1,4
408,136,100543,5,2
352,72,100931,1,0
304,136,101318,1,0
256,72,101705,1,2
208,136,102092,1,0
152,72,102479,1,2
96,136,102866,6,8,B|96:192,1,50
96,264,103447,1,4
200,320,104027,2,8,B|200:264,1,50
200,192,104608,1,4
304,128,105189,6,8,B|304:184,1,50
304,256,105769,1,4
408,304,106350,2,8,B|408:248,1,50
408,176,106931,1,4
312,104,107511,6,8,B|256:104,1,50
184,104,108092,1,4
112,200,108673,2,8,B|168:200,1,50
240,200,109253,1,4
296,304,109834,2,8,B|240:304,1,50
160,304,110414,1,4
96,200,110995,5,0
176,200,111382,1,0
256,200,111769,1,0
336,200,112156,1,4
256,208,112543,12,0,117576
