osu file format v7

[General]
AudioFilename: 18 - a song of storm and fire.mp3
AudioLeadIn: 0
PreviewTime: 114172
Countdown: 2
SampleSet: Soft
StackLeniency: 0.7
Mode: 0
LetterboxInBreaks: 1

[Editor]
Bookmarks: 18452,22236,28685,36096,40803,42406,56727,69847,100493,127344,145183,155078,175905,227907
DistanceSpacing: 1
BeatDivisor: 3
GridSize: 32

[Metadata]
Title:A Song Of Storm And Fire
Artist:Kajiura Yuki
Creator:romariobr
Version:Normal
Source:Tsubasa Chronicle
Tags:Tsubasa Chronicle a song of storm and fire anime Clamp

[Difficulty]
HPDrainRate:3
CircleSize:5
OverallDifficulty:8
SliderMultiplier:1.6
SliderTickRate:1

[Events]
//Background and Video events
0,0,"Tsubasa Chronicles.jpg"
//Break Periods
2,22050,28001
2,55994,69471
2,86263,99933
2,106514,114138
2,121102,127785
2,152793,175902
2,219291,226111
//Storyboard Layer 0 (Background)
//Storyboard Layer 1 (Fail)
//Storyboard Layer 2 (Pass)
//Storyboard Layer 3 (Foreground)
//Storyboard Sound Samples
//Background Colour Transformations
3,100,163,162,255

[TimingPoints]
18052,428.510212826739,4,2,0,100,1,1
18359,428.510212826739,4,2,0,100,1,0
49136,-100,4,2,0,100,0,0
86532,383.926286153059,4,2,0,100,1,0
114359,-100,4,2,0,100,0,1
127788,448.296473401076,4,2,0,100,1,0

[Colours]
Combo1 : 250,67,254
Combo2 : 1,5,190
Combo3 : 0,255,0
Combo4 : 255,128,0

[HitObjects]
256,192,18907,12,0,20315
256,192,20954,5,8
256,192,21210,1,8
256,192,21594,1,8
256,192,21850,1,8
32,352,28751,5,0
96,288,29126,1,2
160,352,29555,1,0
224,288,29931,1,2
288,352,30306,1,0
352,288,30682,1,4
416,352,31057,1,0
448,288,31433,1,10
448,288,31862,5,0
416,352,32238,1,0
352,288,32613,1,2
288,352,32989,1,0
224,288,33364,1,4
160,352,33740,1,0
96,288,34115,1,0
32,352,34545,1,8
160,160,36047,6,2,C|160:64,4,53.3333333333333
160,160,36690,6,2,C|256:160,4,53.3333333333333
160,160,37334,6,2,C|64:160,4,53.3333333333333
160,160,37978,6,2,C|160:256,4,53.3333333333333
256,192,38729,5,8
256,192,38997,12,4,40277
32,352,42592,5,0
96,288,42967,1,2
160,352,43343,1,0
224,288,43718,1,2
288,352,44148,1,0
352,288,44523,1,4
416,352,44899,1,0
448,288,45274,1,8
448,288,45650,5,0
416,352,46025,1,0
352,288,46454,1,2
288,352,46830,1,0
224,288,47205,1,4
160,352,47581,1,0
96,288,47957,1,8
32,352,48332,1,4
64,32,49512,5,0
96,64,49620,5,0
64,96,49781,5,0
32,64,49888,5,0
160,64,50263,6,2,C|352:64,1,146.666666666667
416,32,50800,5,0
448,64,50907,5,0
416,96,51068,5,0
384,64,51175,5,0
416,192,51551,6,4,C|352:288|256:320|160:288|96:160,1,440
256,192,52946,12,0,53970
256,192,54394,5,2
256,192,54770,12,0,55794
32,32,70221,5,0
96,32,70650,1,0
160,32,71025,1,0
224,32,71401,1,0
288,32,71776,1,0
288,96,72045,6,4,C|128:96,3,160
96,160,73761,5,0
160,160,74190,1,0
224,160,74620,1,0
288,160,75049,1,0
224,160,75478,1,0
256,32,76015,6,0,B|384:64|384:192|224:224,1,293.333333333333
288,128,77034,1,0
224,128,77463,5,0
256,32,77678,2,0,B|128:64|128:192|288:224,1,293.333333333333
128,128,78912,2,0,C|160:32|224:0|288:0|416:96|352:160,1,480
256,192,80896,12,0,86063
64,32,100683,5,0
64,256,101067,1,4
256,160,101451,1,0
160,32,101835,1,4
416,64,102219,1,0
288,256,102603,1,4
256,96,103040,6,0,L|32:96|32:224,2,320
256,192,104778,12,2,106314
32,32,114888,6,0,L|32:160,1,106.666666666667
96,160,115272,2,0,L|96:32,1,106.666666666667
160,32,115656,2,0,L|160:160,1,106.666666666667
224,160,116040,2,0,L|224:32,1,106.666666666667
288,32,116424,2,0,B|288:192,1,106.666666666667
352,160,116808,2,0,B|352:0,1,106.666666666667
416,128,117320,2,0,B|234:128,3,146.666666666667
160,32,118728,6,0,L|32:32,1,106.666666666667
32,96,119112,2,0,L|160:96,1,106.666666666667
160,160,119496,2,0,L|32:160,1,106.666666666667
32,224,119879,2,0,L|160:224,1,106.666666666667
160,288,120263,2,0,B|0:288,1,106.666666666667
32,352,120647,2,0,B|160:352,1,106.666666666667
257,22,128535,5,2
480,192,130328,1,2
254,354,132121,1,2
22,204,133914,1,6
251,15,135558,5,2
480,192,137202,1,2
259,356,138995,1,6
12,201,142432,5,2
256,192,144076,1,2
483,194,145719,1,2
256,32,146765,1,10
256,352,147662,1,2
262,20,148708,5,2
256,192,149754,1,2
480,192,150800,1,6
18,201,151697,1,2
256,352,152593,1,6
128,64,176652,5,0
128,288,177100,1,4
352,288,177548,1,8
352,64,177997,1,2
128,128,178445,1,8
192,224,178893,1,8
256,288,179342,1,4
32,288,179790,1,0
224,160,180238,1,4
384,288,180686,2,2,B|384:64,3,220
448,32,183227,5,0
352,128,183675,1,0
192,256,184123,1,0
448,256,184572,1,0
320,64,185020,1,0
192,224,185468,1,0
256,192,185917,12,0,188756
256,192,189204,5,8
256,192,189652,1,8
384,64,190250,5,0
416,64,190698,5,0
384,96,191147,5,0
352,64,191595,5,0
384,32,192043,5,0
192,128,192492,1,8
224,0,192940,1,8
256,224,193388,1,0
384,32,193837,1,0
256,224,194285,1,4
64,288,197124,5,0
224,288,197572,1,0
64,128,198021,1,0
288,128,198469,1,0
448,288,198917,1,0
128,288,199366,1,0
297,148,199814,1,0
464,6,200262,1,0
462,142,200710,2,0,C|462:334,3,146.666666666667
320,96,202354,5,0
192,256,202802,1,8
288,96,203251,1,4
96,192,203998,2,0,C|128:288|192:320|256:320|320:320|384:224|384:192,2,440
256,192,206837,1,0
256,192,207285,1,0
448,32,207734,6,0,L|448:192|224:192|224:32|512:32,1,806.666666666667
32,352,210722,5,0
96,288,211106,1,2
160,352,211490,1,0
224,288,211874,1,2
288,352,212258,1,0
352,288,212642,1,4
416,352,213026,1,8
448,288,213410,1,8
32,32,214458,6,0,L|192:32,1,146.666666666667
178,32,214906,2,0,L|320:96,1,146.666666666667
312,92,215355,2,0,L|448:192,1,146.666666666667
430,179,215803,2,0,L|352:320,1,146.666666666667
288,320,216401,2,0,L|288:224,6,53.3333333333333,0|0|0|0|0|0|0
224,160,217746,1,8
448,160,218194,1,8
288,320,218642,1,8
64,224,219091,1,4
256,192,226861,12,4,228355
