osu file format v7

[General]
AudioFilename: 18 - a song of storm and fire.mp3
AudioLeadIn: 0
PreviewTime: 114172
Countdown: 2
SampleSet: Soft
StackLeniency: 0.7
Mode: 0
LetterboxInBreaks: 1

[Editor]
Bookmarks: 18452,22236,28685,36096,40803,42406,56727,69847,100493,121597,127344,145183,155078,175905,180836,183077,200710,214458,227907
DistanceSpacing: 1
BeatDivisor: 3
GridSize: 32

[Metadata]
Title:A Song Of Storm And Fire
Artist:Kajiura Yuki
Creator:romariobr
Version:Easy
Source:Tsubasa Chronicle
Tags:Tsubasa Chronicle a song of storm and fire anime Clamp

[Difficulty]
HPDrainRate:3
CircleSize:4
OverallDifficulty:2
SliderMultiplier:1.6
SliderTickRate:1

[Events]
//Background and Video events
0,0,"Tsubasa Chronicles.jpg"
//Break Periods
2,20987,27368
2,56267,68791
2,85692,99305
2,110022,113382
2,120900,127124
2,153540,175241
2,183128,188541
2,221382,226646
//Storyboard Layer 0 (Background)
//Storyboard Layer 1 (Fail)
//Storyboard Layer 2 (Pass)
//Storyboard Layer 3 (Foreground)
//Storyboard Sound Samples
//Background Colour Transformations
3,100,163,162,255

[TimingPoints]
18052,428.510212826739,4,2,0,100,1,1
18359,428.510212826739,4,2,0,100,1,0
49136,-100,4,2,0,100,0,0
86532,383.926286153059,4,2,0,100,1,0
114359,-100,4,2,0,100,0,1
127788,448.296473401076,4,2,0,100,1,0

[Colours]
Combo1 : 250,67,254
Combo2 : 1,5,190
Combo3 : 0,255,0
Combo4 : 255,128,0

[HitObjects]
256,192,19073,12,0,20787
32,320,28928,5,0
192,320,29357,1,0
352,320,29785,1,0
352,160,30214,1,0
192,160,30642,1,0
32,160,31071,1,0
192,160,31499,1,0
352,160,31928,1,0
480,32,32642,5,0
480,192,33071,1,0
480,352,33499,1,0
320,352,33928,1,0
160,352,34356,1,0
32,256,34785,1,0
160,160,35213,1,0
384,224,35785,2,0,C|320:96|224:96|192:224,5,373.333333333333
32,224,42498,6,0,C|128:160|224:224|96:320,3,373.333333333333
320,256,46069,1,0
480,256,46497,1,0
480,96,46926,1,0
320,96,47354,1,0
320,96,47783,1,0
320,96,48211,1,0
320,96,48640,1,0
320,96,49068,1,0
128,192,49640,2,0,C|128:256|64:352|160:320|256:288|256:160|352:160|384:320|448:224|448:64,1,1066.66666666667
256,192,53211,12,0,56067
64,32,70351,5,0
192,96,70780,1,0
64,192,71208,1,0
192,256,71637,1,0
64,352,72065,1,0
224,352,72494,1,0
384,352,72922,1,0
384,32,73779,5,0
288,160,74208,1,0
448,160,74636,1,0
384,288,75065,1,0
224,320,75493,1,0
64,352,75922,1,0
352,32,77207,2,0,C|512:32,5,160
352,352,80350,2,0,C|224:256|96:352|0:224|96:128|256:160|384:64,2,960
480,32,100865,5,0
320,32,101249,1,0
160,32,101633,1,0
160,192,102017,1,0
160,352,102400,1,0
320,352,102784,1,0
480,352,103168,1,0
352,256,103552,1,0
224,160,103936,1,0
128,32,104320,1,0
128,32,104704,1,0
256,192,105216,12,0,107008
480,32,107775,6,0,C|416:96|384:32|320:128|256:32|192:160|96:32|32:160,1,853.333333333333
32,32,114942,6,0,L|32:352|512:352|512:224|96:224|96:128|480:128|480:0|32:0,1,2400
32,192,128684,5,0
256,192,130477,1,0
480,192,132121,1,0
256,32,133765,1,0
32,192,135558,1,0
256,352,137202,1,0
256,192,138995,1,0
480,192,142581,5,0
256,32,144374,1,0
32,192,146018,1,0
256,192,147811,1,0
256,352,149306,1,0
480,192,151248,1,0
256,0,153340,1,0
32,352,176801,5,0
128,224,177250,1,0
224,352,177698,1,0
320,224,178146,1,0
416,352,178594,1,0
480,192,179043,1,0
352,96,179491,1,0
192,96,179939,1,0
96,224,180388,1,0
192,352,180836,2,0,B|480:352|416:96,2,373.333333333333
32,32,190101,5,0
160,128,190549,1,0
288,32,190997,1,0
384,160,191446,1,0
384,320,191894,1,0
224,352,192342,1,0
128,224,192790,1,0
160,64,193239,2,0,B|384:64|352:256|128:160,1,373.333333333333
256,192,194883,12,0,196079
256,192,200710,5,4
288,192,203998,1,0
320,160,204446,1,0
352,128,204894,1,0
384,96,205343,1,0
416,96,205791,1,0
416,96,206239,1,0
480,32,207584,2,0,B|416:192|256:32|256:32|96:160|96:160|256:320|448:224,1,853.333333333333
416,288,210872,5,0
384,288,211320,1,0
352,288,211768,1,0
320,288,212217,1,0
288,288,212665,1,0
32,0,214309,6,0,L|32:384|512:384|512:384|512:0,2,1226.66666666667
256,192,228206,12,0,231792
