osu file format v6

[General]
AudioFilename: video.mp3
AudioLeadIn: 0
PreviewTime: -1
Countdown: 1
SampleSet: Soft
StackLeniency: 0.7
Mode: 0
LetterboxInBreaks: 1

[Editor]
DistanceSpacing: 0.800000011920929
BeatDivisor: 4
GridSize: 32

[Metadata]
Title:The Pylons are TRAP BALLS
Artist:Kajetokun
Creator:ShadowFox04
Version:Normal
Source:http://www.youtube.com/watch?v=LzSWdj4izHM
Tags:Ball DBZ Pylons MEME

[Difficulty]
HPDrainRate:5
CircleSize:5
OverallDifficulty:5
SliderMultiplier:1.4
SliderTickRate:1

[Events]
//Background and Video events
Video,0,"video.flv"
0,0,"aditionalpylons.jpg"
//Break Periods
//Storyboard Layer 0 (Background)
//Storyboard Layer 1 (Fail)
//Storyboard Layer 2 (Pass)
//Storyboard Layer 3 (Foreground)
//Storyboard Sound Samples
//Background Colour Transformations
3,100,163,162,255

[TimingPoints]
5744.22788925828,434.908669179472,4,2,0,100,1,0

[HitObjects]
128,288,5744,1,0
128,224,6614,1,0
128,160,7483,1,0
128,96,8353,1,0
384,256,9223,5,0
384,192,10093,1,0
384,128,10528,1,0
384,64,10963,1,0
384,64,12267,2,0,B|384:128,4,35
256,128,13572,1,0
256,224,14442,1,0
256,288,14877,1,0
256,352,15312,1,0
416,64,15747,5,2
96,192,16182,5,0
160,192,17051,1,0
224,192,17921,1,0
288,192,18791,1,0
352,192,19661,1,0
256,32,20096,5,2
416,192,20531,5,0
320,32,20966,5,2
480,192,21400,5,0
384,32,21835,5,2
416,32,22053,6,0,B|448:64|416:128,2,70
448,32,22705,5,2
416,256,23140,5,0
352,128,23575,1,2
288,256,24010,5,0
224,128,24445,1,2
160,256,24880,5,0
96,128,25315,1,2
32,256,25750,5,0
96,128,26184,1,2
160,256,26619,5,0
224,128,27054,1,2
288,256,27489,5,0
352,128,27924,2,2,B|448:192|448:256,3,140
448,224,29664,1,8
384,64,30099,5,0
384,128,30534,1,2
256,64,30968,1,0
256,128,31403,1,2
128,64,31838,1,0
128,128,32273,1,2
128,160,32491,2,0,B|128:256,1,70
128,288,33143,5,2
192,288,33578,2,0,B|256:256,1,70
288,256,34013,1,2
320,256,34448,2,0,B|384:288,1,70
416,288,34883,1,2
448,288,35318,2,0,B|384:128|256:32|128:32,1,420
96,64,37057,6,0,B|96:128|128:128,1,70
160,128,37492,1,2
192,160,37927,2,0,B|224:224,1,70
224,256,38362,1,2
256,288,38797,2,0,B|352:352|448:288|416:160|416:160|288:256,1,420
256,192,40536,6,2,B|416:192,6,140
256,192,43581,1,8
96,96,44016,6,0,B|96:192,1,70
96,192,44451,1,2
256,96,44886,2,0,B|256:192,1,70
256,192,45320,1,2
416,96,45755,2,0,B|416:192,1,70
416,192,46190,1,2
416,256,46625,2,0,B|256:288,1,140
256,288,47495,6,0,B|160:288,1,70
160,288,47930,2,0,B|160:192,1,70
160,192,48365,2,0,B|256:192,1,70
256,192,48800,2,0,B|256:96,1,70
256,64,49235,2,0,B|128:96|96:224|160:320|288:320|352:288,1,420
256,208,50974,12,4,54019
32,224,54453,5,2
96,224,54671,1,2
160,160,54888,1,2
224,160,55106,1,2
288,224,55323,1,2
352,224,55541,1,2
416,160,55758,1,2
480,160,55976,1,2
480,160,56193,1,2
416,160,56411,1,2
352,224,56628,1,2
288,224,56845,1,2
256,192,57063,1,2
256,192,57498,1,8
96,64,57933,5,0
96,192,58368,1,2
128,160,58585,2,0,B|192:96,1,70
256,224,59237,1,2
288,192,59455,2,0,B|352:128,1,70
352,128,60107,1,2
384,128,60325,1,0
448,128,60542,2,0,B|448:288,1,140
448,64,61412,5,0
512,96,61847,1,2
416,160,62064,2,0,B|352:96,1,70
256,224,62716,1,2
288,192,62934,2,0,B|352:128,1,70
352,256,63586,1,2
384,256,63804,1,0
288,128,64021,2,0,B|384:256,1,140
256,64,64891,6,0,B|64:64|64:64|64:352|64:352|288:352,1,700
288,288,67501,2,0,B|288:128,1,140
256,96,68371,5,2
256,288,68805,1,2
192,128,69240,1,2
320,256,69675,1,2
160,192,70110,1,2
352,192,70545,1,2
192,256,70980,1,2
320,128,71415,1,10
256,192,71850,5,0
416,192,72285,1,2
352,192,72502,2,0,B|256:192,2,70
160,192,73372,2,0,B|256:192,4,70
192,128,74459,2,0,B|192:288,1,140
288,192,75112,6,0,B|384:192,2,70
288,192,75764,1,2
288,192,75981,2,0,B|384:192,2,70
288,192,76634,1,2
288,192,76851,2,0,B|384:192,4,70
288,192,77939,2,0,B|448:192,1,140
128,256,78808,5,0
192,160,79243,1,2
256,256,79678,1,0
320,160,80113,1,2
384,256,80548,1,0
448,160,80983,1,2
384,160,81200,2,0,B|320:160,1,35
349,160,81418,1,0
352,256,81853,1,0
160,32,82288,2,2,B|320:32|320:32|320:160|320:160|160:160|160:160|160:288|160:288|320:288|320:288|480:96,1,980
