osu file format v5

[General]
AudioFilename: Kaiser Chiefs - Ruby.mp3
AudioLeadIn: 0
PreviewTime: -1
Countdown: 1
SampleSet: Normal
StackLeniency: 0.7
Mode: 0
LetterboxInBreaks: 1
EditorBookmarks: 31089

[Metadata]
Title:Ruby
Artist:Kaiser Chiefs
Creator:Larto
Version:Normal
Source:
Tags:

[Difficulty]
HPDrainRate:5
CircleSize:4
OverallDifficulty:4
SliderMultiplier:1.6
SliderTickRate:1

[Events]
//Background and Video events
1,0,"Ruby.wmv"
//Break Periods
2,71483,78625
2,137781,146526
//Storyboard Layer 0 (Background)
//Storyboard Layer 1 (Failing)
//Storyboard Layer 2 (Passing)
//Storyboard Layer 3 (Foreground)
//Storyboard Sound Samples
//Background Colour Transformations
3,100,163,162,255
3,100,163,162,255
3,100,163,162,255
3,100,163,162,255

[TimingPoints]
1230,638.297872340426,4,1,0,100,1
29315,645.161290322581,4,1,0,100,1
52540,639.045691766961,4,1,0,100,1
72985,645.161290322581,4,1,0,100,1
96196,639.113762249681,4,2,0,100,1
116653,652.173913043478,4,1,0,100,1
137375,637.958532695375,4,1,0,100,1

[Colours]
Combo1 : 170,247,175
Combo2 : 255,128,64
Combo3 : 0,128,64
Combo4 : 0,128,255

[HitObjects]
151,194,6336,2,0,C|257:84|365:204,2,320
151,198,9368,1,2
350,201,10166,1,0
350,201,10644,1,2
256,92,11442,6,0,B|256:277,3,160
83,192,13995,5,0
259,192,14634,1,2
425,193,15272,1,0
258,191,15910,1,2
151,190,16549,6,0,C|257:300|363:174,2,320
151,190,19581,1,2
371,188,20378,1,0
371,188,20857,1,2
256,79,21655,6,0,B|256:247,3,160
256,192,23889,12,0,28676
224,301,29315,2,0,B|317:301,2,80
176,256,30282,1,2
96,136,31250,1,4
256,64,31895,6,0,B|160:64,2,80
318,108,32863,1,2
320,331,33831,5,4
274,286,34153,1,4
229,239,34476,2,0,B|156:168,3,80
82,7,36411,5,4
126,53,36734,1,4
173,96,37056,2,0,B|237:160,3,80
41,191,38992,6,0,B|147:191,1,80
185,191,39637,1,2
185,255,39960,2,0,B|88:255,1,80
40,256,40605,1,4
232,255,41573,6,0,B|334:255,1,80
376,255,42218,1,2
376,190,42540,2,0,B|285:190,1,80
231,192,43185,1,4
35,193,44153,5,0
72,141,44476,1,2
110,191,44798,1,0
150,141,45121,1,2
189,191,45444,1,0
229,141,45766,1,4
429,190,46734,5,0
392,242,47056,1,2
354,192,47379,1,0
314,242,47702,1,2
275,192,48024,1,0
235,242,48347,1,4
256,192,48669,12,0,51250
222,164,51573,6,0,B|288:230,3,80
143,84,53498,2,2,B|201:144,1,80
241,188,54137,2,2,B|299:248,1,80
339,293,54776,2,4,B|397:353,1,80
284,226,56693,6,0,B|218:160,3,80
364,305,58610,2,2,B|304:247,1,80
260,207,59249,2,2,B|200:149,1,80
155,109,59889,2,4,B|95:51,1,80
215,192,61646,5,0
215,192,61806,2,0,B|304:192|304:191,3,80
454,84,63723,2,2,B|325:262|261:259|435:-24|184:225,1,400
257,192,66918,5,0
257,192,67238,1,2
257,192,67557,1,0
257,192,67877,1,4
86,280,68835,6,2,B|92:187|166:187|177:203|274:237|297:227|376:188|371:117|312:53,1,400
167,189,80081,5,0
229,191,80404,1,2
285,191,80726,1,0
341,188,81049,1,2
297,223,81372,2,4,B|206:223,1,80
283,42,82662,5,0
251,97,82985,1,2
216,150,83307,1,0
152,153,83630,2,2,B|230:222|310:182,1,160
107,172,85243,5,0
150,219,85565,1,2
190,268,85888,1,0
216,209,86210,2,2,B|149:130,2,80
63,92,87823,5,0
98,145,88146,1,2
160,131,88468,1,0
166,67,88791,1,2
109,37,89114,1,0
116,94,89436,1,4
256,192,90081,12,0,94920
290,220,95243,6,0,B|224:154,3,80
369,300,97154,2,2,B|311:240,1,80
271,196,97793,2,2,B|213:136,1,80
173,91,98432,2,4,B|115:31,1,80
228,158,100350,6,0,B|294:224,3,80
148,79,102267,2,2,B|208:137,1,80
252,177,102906,2,2,B|312:235,1,80
357,275,103545,2,4,B|417:333,1,80
297,192,105303,5,0
297,192,105463,2,0,B|208:192|208:193,3,80
58,300,107380,2,2,B|187:122|251:125|77:408|328:159,1,400
255,192,110576,5,0
255,192,110895,1,2
255,192,111215,1,0
255,192,111534,1,4
426,104,112493,6,2,B|420:197|346:197|335:181|238:147|215:157|136:196|141:267|200:331,1,400
202,265,115369,6,0,B|28:323,1,160
65,188,116653,1,0
116,149,116979,5,0
179,150,117305,1,2
242,150,117631,1,0
306,151,117957,1,2
256,288,118609,2,2,B|348:301,5,80
256,59,121218,6,2,B|168:46,5,80,2|2|2|2|2|2
304,240,123500,6,0,B|218:240,4,80
256,164,125131,1,2
256,298,126435,1,2
144,113,127413,6,0,B|278:189|388:102,1,240
226,123,129044,5,0
269,170,129370,1,2
333,170,129696,1,0
366,115,130022,1,2
323,66,130348,1,2
259,67,130674,1,4
259,67,131653,5,0
194,65,131979,1,2
158,118,132305,1,0
199,166,132631,1,2
263,168,132957,1,2
304,118,133283,1,4
256,192,133935,12,0,137375
136,108,147901,6,0,B|265:231,2,160
195,82,149496,1,0
257,93,149815,1,0
257,157,150134,1,2
139,207,150772,1,2
105,152,151091,1,4
212,310,152048,5,0
150,294,152367,1,0
167,232,152686,1,2
280,172,153323,1,2
311,228,153642,1,4
256,192,154280,12,0,157789
192,224,158427,1,0
192,96,159065,1,2
319,96,159703,1,0
320,223,160341,1,2
255,96,160979,1,2
254,223,161617,1,4
256,225,161936,6,4,B|256:120,3,80
147,256,163850,2,2,B|247:116,1,160
380,92,164807,2,2,B|290:239,1,160
256,159,167040,6,4,B|256:264,3,80
365,128,168953,2,2,B|265:268,1,160
132,292,169910,2,2,B|222:145,1,160
184,138,171984,5,0
184,139,172143,1,2
217,191,172462,1,0
254,139,172781,1,2
286,190,173100,1,4
256,312,174376,5,0
256,192,175014,1,2
256,88,175652,1,4
209,145,177247,6,2,B|128:309|401:311|289:132,1,320
256,192,178842,12,0,182032
135,159,182351,1,2
175,208,182670,1,2
215,158,182989,1,2
254,208,183308,1,4
256,192,183945,12,0,186497
260,136,187135,6,2,B|260:233,3,80
258,280,188411,1,2
256,311,188571,1,4
256,192,189049,12,0,192240
257,192,193515,5,4
