osu file format v5

[General]
AudioFilename: Kaiser Chiefs - Ruby.mp3
AudioLeadIn: 0
PreviewTime: -1
Countdown: 1
SampleSet: Normal
StackLeniency: 0.7
Mode: 0
LetterboxInBreaks: 1

[Metadata]
Title:Ruby
Artist:Kaiser Chiefs
Creator:Larto
Version:Easy
Source:
Tags:

[Difficulty]
HPDrainRate:4
CircleSize:3
OverallDifficulty:3
SliderMultiplier:1.6
SliderTickRate:1

[Events]
//Background and Video events
1,0,"Ruby.wmv"
//Break Periods
2,70633,78842
2,137575,146478
//Storyboard Layer 0 (Background)
//Storyboard Layer 1 (Failing)
//Storyboard Layer 2 (Passing)
//Storyboard Layer 3 (Foreground)
//Storyboard Sound Samples
//Background Colour Transformations
3,100,163,162,255
3,100,163,162,255
3,100,163,162,255
3,100,163,162,255
3,100,163,162,255

[TimingPoints]
1230,638.297872340426,4,1,0,100,1
29315,645.161290322581,4,1,0,100,1
52540,639.045691766961,4,1,0,100,1
72985,645.161290322581,4,1,0,100,1
96196,639.113762249681,4,1,0,100,1
116653,652.173913043478,4,2,0,100,1
137375,637.958532695375,4,1,0,100,1

[Colours]
Combo1 : 170,247,175
Combo2 : 255,128,64
Combo3 : 0,128,64
Combo4 : 0,128,255

[HitObjects]
89,190,6336,2,0,L|253:115|254:247|429:188|429:188,1,480
262,145,8889,2,0,L|198:70|134:113|134:177|134:241|199:284|264:200,1,480
257,47,11442,6,0,B|257:395,2,320
176,185,14634,1,0
337,185,15272,1,0
257,43,15910,1,0
423,194,16549,6,0,L|259:269|259:137|79:202|79:202,1,480
250,239,19102,2,0,L|314:314|378:271|378:207|378:143|313:100|249:184,1,480
255,337,21655,6,0,B|255:0,2,320
256,338,24847,1,2
111,269,25485,1,0
256,203,26123,1,2
400,272,26761,1,0
256,339,27400,1,2
256,160,28038,1,6
419,94,28676,6,0,B|353:126|261:364|160:126|94:90,1,400
361,266,31895,6,0,B|354:258|256:93|150:287|150:287,1,240
261,279,33831,2,0,B|316:224|321:202|321:190|313:164|301:154|272:136|249:136|226:147|205:163|204:176|203:191|201:204|199:211|202:219|209:227|220:238|229:244|242:255|264:272,1,320
248,328,35444,1,0
212,192,36411,6,0,B|308:192,5,80
157,224,38992,6,0,B|191:159|224:224|256:159|287:224|321:161|351:225|381:160,1,240
296,178,40282,2,0,B|198:211,1,80
355,160,41573,6,0,B|321:225|288:160|256:225|225:160|191:223|161:159|131:224,1,240
216,206,42863,2,0,B|314:173,1,80
96,192,44153,6,0,B|224:64,1,160
288,96,45121,2,0,B|160:224,1,160
416,192,46734,6,0,B|288:64,1,160
302,78,47702,1,0
302,78,48024,1,0
256,192,48347,12,0,51250
96,224,51573,6,2,C|160:160|192:224|276:142|276:142|276:142,1,280
208,320,53498,2,0,C|288:320,5,80
416,160,56693,6,2,C|352:224|321:169|232:246|232:246|232:246,1,280
296,56,58610,2,0,C|208:56,5,80
256,96,61806,6,0,B|169:159|256:224|291:187|226:177|137:281|255:300|239:272|196:291|256:307,1,240
253,42,63723,6,0,B|172:94|253:198|321:130|317:74|285:42,2,240
224,192,66918,6,0,B|320:192,3,80
157,93,68516,6,0,B|229:116|192:196|331:178|252:288|228:268|278:119|361:92,1,320
256,256,70433,5,0
320,96,80081,6,0,B|160:288,1,240
96,256,81372,6,0,B|128:352|224:320,1,160
256,224,82662,6,0,B|160:64,2,160
256,160,84275,1,0
448,320,85243,5,0
384,256,85565,1,0
320,192,85888,1,0
256,128,86210,1,0
192,64,86533,1,0
128,128,86855,1,0
390,159,87823,6,0,B|335:231,1,80
253,228,88468,2,0,B|194:167,1,80
261,109,89114,2,0,B|353:110,1,80
256,192,90404,12,0,94920
287,32,95243,6,2,C|223:96|287:128|207:213|207:213|207:213,1,280
386,149,97154,2,0,C|386:230,5,80
224,352,100350,6,2,C|288:288|224:256|305:174|305:174|305:174,1,280
125,233,102267,2,0,C|125:145,5,80
256,64,105463,6,0,B|204:154|299:229|261:329|227:346,1,280
256,192,107700,5,0
256,192,108339,1,0
256,192,108978,1,0
256,160,110576,6,0,B|256:256,3,80
384,96,112173,6,0,B|262:167|260:128|242:267|352:188|332:164|183:214|156:294,1,320
196,135,114091,6,0,B|96:192|256:352|384:192|281:129,2,320
256,288,117305,5,0
256,288,117957,1,0
152,149,118609,2,2,B|257:27|256:188|344:36,2,240
325,150,121218,2,2,B|217:29|218:190|130:38,2,240
255,55,123500,5,2
326,107,123826,2,2,B|258:545|161:99,1,480
129,112,127413,6,0,B|265:211|385:107,1,240
256,64,129044,2,2,B|192:128,1,80
128,160,129696,2,4,B|229:195,1,80
192,288,130348,2,2,B|169:197,1,80
440,90,131653,6,2,L|363:65|378:154|305:122|308:201|226:173,1,400
256,192,133935,12,0,137375
288,96,147901,6,0,B|192:192|252:239|313:192|176:78,1,240
262,236,149496,2,0,B|168:297|80:234,2,160
262,236,151091,1,0
258,107,152048,2,0,B|373:42|424:133,2,160
258,107,153642,1,0
256,192,154280,12,0,156513
256,192,157789,6,0,B|199:239|303:279|355:268|354:179|333:152|298:140|249:133|229:137|219:142|186:149|189:166|167:179|166:189|162:220|173:256|192:275|221:302|266:322|303:329|326:331|350:324|373:307|386:277|393:262|399:224|404:207|406:191|389:161|376:141|364:123|346:107|321:90|301:87|270:82|246:80|226:79|207:82|187:84|183:104|177:112|167:119|156:124|149:133|151:132|149:137|136:151|134:166|135:187|137:201|152:228,1,960
145,214,161936,5,0
145,214,162255,5,0
145,214,162574,5,0
145,214,162893,5,0
416,224,163850,2,0,B|255:63|52:228,1,400
311,224,167040,6,0,L|221:224|221:159|288:160|312:160,1,240
436,68,168953,2,0,L|337:53|374:122|292:100|323:168|241:151|241:151,1,400
198,124,171824,6,0,L|312:256,2,160
256,128,174057,2,0,L|255:241,5,80
256,192,177247,5,0
256,192,177566,1,0
256,192,177885,1,0
256,192,178204,1,0
256,192,178842,12,0,182033
288,128,182351,5,0
224,128,182670,1,0
224,192,182989,1,0
288,192,183308,1,0
256,192,183945,12,0,186178
288,128,187135,6,0,L|192:160|288:256|288:162,1,320
256,192,189368,12,0,193515
