osu file format v8

[General]
AudioFilename: 02 I Predict A Riot.mp3
AudioLeadIn: 0
PreviewTime: 64908
Countdown: 1
SampleSet: Normal
StackLeniency: 0.7
Mode: 0
LetterboxInBreaks: 1
SkinPreference:EliteBeatOsu

[Editor]
Bookmarks: 27360,51511,65096,77172,84530,101323,111889,114908,131511,136983,161700,173776,184342,196417,208493,213021
DistanceSpacing: 0.82
BeatDivisor: 2
GridSize: 8

[Metadata]
Title:I Predict A Riot
Artist:Kaiser Chiefs
Creator:RandomJibberish
Version:Hard ROCK!
Source:
Tags:DiamondCrash EBA Authentic iNiS

[Difficulty]
HPDrainRate:8
CircleSize:4
OverallDifficulty:7
ApproachRate:8
SliderMultiplier:2
SliderTickRate:2

[Events]
//Background and Video events
0,0,"totally cool bg.png"
//Break Periods
2,51511,64346
2,77172,83780
2,137549,160950
//Storyboard Layer 0 (Background)
//Storyboard Layer 1 (Fail)
//Storyboard Layer 2 (Pass)
//Storyboard Layer 3 (Foreground)
//Storyboard Sound Samples
//Background Colour Transformations
3,100,163,162,255

[TimingPoints]
3210,377.358490566038,4,1,1,70,1,0
65002,-100,4,1,2,70,0,0
65096,-100,4,1,2,70,0,1
65191,-100,4,1,1,70,0,1
67077,-133.333333333333,4,1,1,70,0,1
67172,-133.333333333333,4,1,2,70,0,1
67266,-100,4,1,1,70,0,1
71040,-100,4,1,2,70,0,1
71228,-100,4,1,1,70,0,1
73115,-133.333333333333,4,1,2,70,0,1
73304,-100,4,1,1,70,0,1
77172,-100,4,1,1,70,0,0
114813,-100,4,1,2,70,0,0
114908,-100,4,1,2,70,0,1
115002,-100,4,1,1,70,0,1
116889,-133.333333333333,4,1,2,70,0,1
117077,-100,4,1,1,70,0,1
120851,-100,4,1,2,70,0,1
121040,-100,4,1,1,70,0,1
122926,-133.333333333333,4,1,2,70,0,1
123115,-100,4,1,1,70,0,1
131511,-100,4,1,1,70,0,0
161606,-100,4,2,1,70,0,0
173304,-100,4,1,1,70,0,0
184342,-113.636363636364,4,1,1,70,0,0
190379,-100,4,1,1,70,0,0
196323,-100,4,1,2,70,0,1
196511,-100,4,1,1,70,0,1
198398,-133.333333333333,4,1,2,70,0,1
198587,-100,4,1,1,70,0,1
202360,-100,4,1,2,70,0,1
202549,-100,4,1,1,70,0,1
204436,-133.333333333333,4,1,2,70,0,1
204625,-100,4,1,1,70,0,1
208493,-100,4,1,1,70,0,0

[HitObjects]
464,176,27360,2,0,B|456:24|256:-92|56:24|48:177,1,600,4|8
96,328,28870,5,2
160,272,29059,1,0
224,216,29247,1,8
288,160,29436,1,0
128,112,29813,1,2
128,112,30002,1,0
256,8,30379,2,0,B|368:8|472:40|512:144|512:256,1,400,4|8
480,384,31700,5,0
416,328,31889,1,2
352,272,32077,1,0
288,216,32266,1,8
224,160,32455,1,0
384,112,32832,1,2
384,112,33021,1,0
256,8,33398,2,0,B|144:8|40:40|0:144|0:256,1,400,4|8
416,328,34908,5,2
352,272,35096,1,0
288,216,35285,1,8
224,160,35474,1,0
96,56,35851,1,2
96,56,36040,1,0
256,8,36417,2,0,B|368:8|472:40|512:144|512:256,1,400,4|8
32,384,37738,5,0
96,328,37926,1,2
160,272,38115,1,0
224,216,38304,1,8
288,160,38493,1,0
416,56,38870,1,2
416,56,39059,1,0
256,8,39436,2,0,B|144:8|40:40|0:144|0:256,1,400,4|8
192,104,40757,5,0
256,152,40945,1,2
320,104,41134,1,0
384,152,41323,1,8
448,104,41511,1,0
320,208,41889,1,0
320,208,42077,1,0
256,352,42455,2,0,B|144:352|40:320|0:216|0:104,1,400,4|8
320,104,43776,5,0
256,152,43964,1,2
192,104,44153,1,0
128,152,44342,1,8
64,104,44530,1,0
192,208,44908,1,0
256,256,45096,1,8
192,304,45285,1,0
256,352,45474,2,0,B|368:352|472:320|512:216|512:104,1,400,4|8
192,104,46794,5,0
256,152,46983,1,2
320,104,47172,1,0
384,152,47360,1,8
448,104,47549,1,0
320,208,47926,1,0
320,208,48115,1,0
256,352,48493,2,0,B|144:352|40:320|0:216|0:104,1,400,4|8
320,104,49813,5,0
256,152,50002,1,2
192,104,50191,1,0
128,152,50379,1,8
64,104,50568,1,0
192,208,50945,1,0
192,208,51134,1,0
72,336,65096,5,12
32,264,65285,1,0
72,192,65474,1,8
32,120,65662,1,0
72,48,65851,1,4
152,48,66040,1,0
256,192,66417,1,8
360,48,66794,1,0
192,336,67172,6,0,B|208:368|256:378|307:368|322:332,1,149.999995529652,6|0
256,288,67738,1,8
184,248,67927,1,0
256,208,68115,1,4
328,248,68304,1,0
376,56,68870,6,0,B|352:8|296:-16|240:8|216:56,1,200,4|0
296,96,69436,2,0,B|272:144|216:168|160:144|136:96,2,200,4|0|2
256,256,70568,1,0
256,256,70757,1,8
440,336,71134,5,12
480,264,71323,1,0
440,192,71511,1,8
480,120,71700,1,0
440,48,71889,1,4
360,48,72077,1,0
256,192,72455,1,8
152,48,72831,1,0
320,336,73210,6,0,B|304:368|256:378|205:368|190:332,1,149.999995529652,6|0
256,288,73776,1,8
328,248,73965,1,0
256,208,74153,1,4
184,248,74342,1,0
136,56,74908,6,0,B|160:8|216:-16|272:8|296:56,1,200,4|0
216,96,75474,2,0,B|240:144|296:168|352:144|376:96,2,200,4|0|2
256,256,76606,1,0
256,256,76795,1,8
256,328,84530,5,0
320,280,84719,1,2
256,232,84908,1,0
192,280,85096,1,8
128,232,85285,2,0,B|304:96,1,200,0|0
368,112,85851,1,8
440,256,86228,2,0,B|496:184|489:53|380:-16|252:26,1,400,4|0
256,328,87549,5,0
192,280,87738,1,2
256,232,87926,1,0
320,280,88115,1,8
384,232,88304,2,0,B|208:96,1,200,0|0
144,112,88870,1,8
72,256,89247,2,0,B|16:184|23:53|132:-16|260:26,1,400,4|0
352,384,90568,5,0
416,328,90757,1,2
352,272,90945,1,0
288,216,91134,1,8
224,160,91323,2,0,B|16:160,1,200
24,80,91889,1,8
224,80,92266,2,0,B|292:-8|457:4|510:116|487:214,1,400,4|0
160,384,93587,5,0
96,328,93776,1,2
160,272,93964,1,0
224,216,94153,1,8
288,160,94342,2,0,B|496:160,1,200
488,80,94908,1,8
288,80,95285,2,0,B|220:-8|55:4|2:116|25:214,1,400,4|0
224,384,96606,5,0
288,328,96794,1,2
352,272,96983,1,0
288,216,97172,1,8
224,160,97360,2,0,B|60:308,1,200
16,352,97926,1,8
56,200,98304,2,0,B|18:108|64:-7|202:-37|297:40,1,400,4|0
288,384,99625,5,0
224,328,99813,1,2
160,272,100002,1,0
224,216,100191,1,8
288,160,100379,2,0,B|452:308,1,200
496,352,100945,1,8
512,128,101323,6,0,B|456:16|256:-64|56:16|-1:129,1,600,4|0
0,256,102832,2,0,B|56:368|256:448|456:368|513:255,1,600,4|0
328,80,104530,5,0
328,0,104719,1,2
256,40,104908,1,0
256,120,105096,1,8
184,80,105285,1,0
184,160,105474,1,8
24,232,105851,1,0
256,384,106228,1,8
488,232,106606,1,0
256,200,106983,1,0
512,128,107360,6,0,B|456:16|256:-64|56:16|-1:129,1,600,4|0
0,256,108870,2,0,B|56:368|256:448|456:368|513:255,1,600,4|0
184,80,110568,5,0
184,0,110757,1,2
256,40,110945,1,0
256,120,111134,1,8
328,80,111323,1,0
328,160,111511,1,8
256,192,111889,12,0,114530
440,336,114908,5,12
480,264,115096,1,0
440,192,115285,1,8
480,120,115474,1,0
440,48,115662,1,4
360,48,115851,1,0
256,192,116228,1,8
152,48,116605,1,0
320,336,116983,6,0,B|304:368|256:378|205:368|190:332,1,149.999995529652,6|0
256,288,117549,1,8
328,248,117738,1,0
256,208,117926,1,4
184,248,118115,1,0
136,56,118681,6,0,B|160:8|216:-16|272:8|296:56,1,200,4|0
216,96,119247,2,0,B|240:144|296:168|352:144|376:96,2,200,4|0|2
256,256,120379,1,0
256,256,120568,1,8
72,336,120945,5,12
32,264,121134,1,0
72,192,121323,1,8
32,120,121511,1,0
72,48,121700,1,4
152,48,121889,1,0
256,192,122266,1,8
360,48,122643,1,0
192,336,123021,6,0,B|208:368|256:378|307:368|322:332,1,149.999995529652,6|0
256,288,123587,1,8
184,248,123776,1,0
256,208,123964,1,4
328,248,124153,1,0
376,56,124719,6,0,B|352:8|296:-16|240:8|216:56,1,200,4|0
296,96,125285,2,0,B|272:144|216:168|160:144|136:96,2,200,4|0|2
296,256,126417,5,0
376,272,126606,1,8
456,288,126794,1,0
472,208,126983,1,4
488,128,127172,1,0
408,112,127360,1,8
328,96,127549,1,0
312,176,127738,1,2
152,184,128115,1,0
232,32,128493,2,0,B|128:8|32:41|-32:117|-57:255|32:360,1,500,4|0
104,336,129625,1,0
216,256,130002,5,4
200,176,130191,1,2
184,96,130379,1,8
104,112,130568,1,8
24,128,130757,1,0
56,288,131134,1,0
256,192,131511,12,4,136983
48,176,161700,6,0,B|56:24|256:-92|456:24|464:177,1,600,4|2
416,328,163209,5,2
352,272,163398,1,0
288,216,163587,1,8
224,160,163776,1,0
384,112,164153,1,0
384,112,164342,1,8
256,8,164719,2,0,B|144:8|40:40|0:144|0:256,1,400,4|8
32,384,166040,5,0
96,328,166228,1,2
160,272,166417,1,0
224,216,166606,1,8
288,160,166794,1,0
128,112,167172,1,8
128,112,167360,1,0
256,8,167738,2,0,B|368:8|472:40|512:144|512:256,1,400,4|8
105,257,169247,5,2
181,284,169436,1,0
256,311,169625,1,8
331,339,169813,1,0
256,192,170191,1,0
256,192,170379,1,8
256,8,170757,2,0,B|144:8|40:40|0:144|0:256,1,400,4|8
408,257,172266,5,2
332,284,172455,1,0
257,311,172643,1,8
182,339,172832,1,0
256,192,173209,1,0
256,192,173398,1,4
0,128,173776,6,0,B|56:16|256:-64|456:16|513:129,1,600,4|0
512,256,175285,2,0,B|456:368|256:448|56:368|-1:255,1,600,4|0
184,80,176983,5,0
184,0,177172,1,2
256,40,177360,1,0
256,120,177549,1,8
328,80,177738,1,0
328,160,177926,1,8
488,232,178304,1,0
256,384,178681,1,8
24,232,179059,1,0
256,200,179436,1,0
0,128,179813,6,0,B|56:16|256:-64|456:16|513:129,1,600,4|0
512,256,181323,2,0,B|456:368|256:448|56:368|-1:255,1,600,4|0
432,88,183021,5,0
376,32,183209,1,2
296,8,183398,1,0
216,8,183587,1,8
136,32,183776,1,0
80,88,183964,1,8
256,192,184342,5,4
256,368,184908,1,0
176,368,185096,2,0,B|-8:368,1,176.000001678467,4|0
0,288,185662,2,8,B|176:288,2,176.000001678467,8|8|4
88,176,186794,1,0
88,176,186983,1,8
256,192,187360,5,4
256,16,187926,1,0
336,16,188114,2,0,B|520:16,1,176.000001678467,4|0
512,96,188680,2,8,B|336:96,2,176.000001678467,8|8|4
424,208,189812,1,0
424,208,190001,1,8
256,192,190379,12,2,196040
112,272,196417,5,12
184,232,196606,1,0
256,272,196794,1,8
328,232,196983,1,0
400,272,197172,1,4
472,312,197360,1,0
256,96,197738,1,8
40,312,198115,1,0
328,0,198493,6,0,B|256:37|184:0,1,149.999995529652,6|0
136,72,199059,1,8
216,96,199247,1,0
296,96,199436,1,4
376,72,199625,1,0
488,360,200191,6,0,B|536:336|560:280|536:224|488:200,1,200,4|0
448,280,200757,2,0,B|400:256|376:200|400:144|448:120,2,200,4|0|2
488,24,201889,1,0
488,24,202078,1,8
400,272,202455,5,12
328,232,202644,1,0
256,272,202832,1,8
184,232,203021,1,0
112,272,203210,1,4
40,312,203398,1,0
256,96,203776,1,8
472,312,204153,1,0
184,0,204531,6,0,B|256:37|328:0,1,149.999995529652,6|0
376,72,205097,1,8
296,96,205285,1,0
216,96,205474,1,4
136,72,205663,1,0
24,360,206229,6,0,B|-24:336|-48:280|-24:224|24:200,1,200,4|0
64,280,206795,2,0,B|112:256|136:200|112:144|64:120,2,200,4|0|2
24,24,207927,1,0
24,24,208116,1,8
256,192,208493,12,4,213021
