osu file format v14

[General]
AudioFilename: Tentang Diriku.mp3
AudioLeadIn: 2000
PreviewTime: 35675
Countdown: 0
SampleSet: Normal
StackLeniency: 0.7
Mode: 0
LetterboxInBreaks: 0
WidescreenStoryboard: 0

[Editor]
Bookmarks: 17589,36741,53765,70790,87814,102710
DistanceSpacing: 1
BeatDivisor: 4
GridSize: 4
TimelineZoom: 1

[Metadata]
Title:Tentang Diriku
TitleUnicode:Tentang Diriku
Artist:Kahitna
ArtistUnicode:Kahitna
Creator:Mako Sakata
Version:Hard
Source:
Tags:Galau Bahasa Indonesia Indonesian Love Song Fantastica Blizs
BeatmapID:746840
BeatmapSetID:337573

[Difficulty]
HPDrainRate:6
CircleSize:4
OverallDifficulty:6
ApproachRate:7
SliderMultiplier:2
SliderTickRate:1

[Events]
//Background and Video events
0,0,"a8e3ffc844.jpg",0,0
//Break Periods
//Storyboard Layer 0 (Background)
//Storyboard Layer 1 (Fail)
//Storyboard Layer 2 (Pass)
//Storyboard Layer 3 (Foreground)
//Storyboard Sound Samples

[TimingPoints]
-1565,532.009221493173,4,1,1,30,1,0
297,-100,4,1,1,30,0,0
696,-100,4,1,1,40,0,0
829,-100,4,1,1,40,0,0
2691,-100,4,1,1,40,0,0
4553,-100,4,1,1,30,0,0
4819,-100,4,1,1,40,0,0
6681,-100,4,1,1,30,0,0
6947,-100,4,1,1,40,0,0
10937,-100,4,1,1,30,0,0
11203,-100,4,1,1,45,0,0
14661,-100,4,1,1,35,0,0
14927,-100,4,1,1,45,0,0
15193,-100,4,1,1,35,0,0
15459,-100,4,1,1,45,0,0
17587,-200,4,1,1,40,0,0
18119,-200,4,2,1,40,0,0
19715,-166.666666666667,4,2,2,40,0,0
27695,-166.666666666667,4,2,1,40,0,0
27961,-166.666666666667,4,2,2,40,0,0
28759,-166.666666666667,4,2,1,40,0,0
29291,-166.666666666667,4,2,2,40,0,0
29823,-166.666666666667,4,2,1,40,0,0
30089,-166.666666666667,4,2,2,40,0,0
31951,-166.666666666667,4,2,1,40,0,0
32217,-166.666666666667,4,2,2,40,0,0
33015,-166.666666666667,4,2,1,40,0,0
33281,-166.666666666667,4,2,2,40,0,0
34079,-166.666666666667,4,2,1,40,0,0
34345,-166.666666666667,4,2,2,40,0,0
35941,-166.666666666667,4,1,1,40,0,0
36207,-166.666666666667,4,1,1,45,0,0
36473,-166.666666666667,4,1,1,50,0,0
36739,-125,4,1,1,55,0,0
53763,-100,4,1,1,55,0,0
68660,-200,4,1,1,50,0,0
69192,-200,4,2,1,40,0,0
69990,-200,4,1,1,40,0,0
70256,-200,4,1,1,45,0,0
70522,-200,4,1,1,50,0,0
70788,-100,4,1,1,55,0,0
87812,-100,4,1,1,47,0,0
88078,-100,4,1,1,48,0,0
88344,-100,4,1,1,49,0,0
88610,-100,4,1,1,50,0,0
88876,-100,4,1,1,51,0,0
89142,-100,4,1,1,52,0,0
89408,-100,4,1,1,53,0,0
89674,-100,4,1,1,54,0,0
89940,-100,4,1,1,55,0,1
98452,-117.647058823529,4,1,1,55,0,1
101644,-117.647058823529,4,1,1,35,0,1
102176,-117.647058823529,4,1,1,55,0,1
102708,-100,4,2,1,50,0,0
102974,-100,4,2,1,45,0,0
103240,-100,4,2,1,40,0,0
103506,-100,4,2,1,35,0,0
103772,-100,4,2,1,30,0,0
104038,-100,4,2,1,25,0,0
104304,-100,4,2,1,20,0,0
104570,-100,4,2,1,15,0,0
104836,-100,4,2,1,10,0,0

[Colours]
Combo1 : 192,192,192
Combo2 : 255,0,0
Combo3 : 255,128,255
Combo4 : 255,0,128
Combo5 : 255,128,0

[HitObjects]
60,240,297,22,0,L|48:192,2,50,0|0|8,0:0|0:0|0:0,0:0:0:0:
76,288,697,6,0,B|136:280|136:280|160:288|160:288|192:276|224:280,1,150,6|0,0:2|0:0,0:0:0:0:
308,332,1362,1,8,0:0:0:0:
308,332,1495,2,0,B|336:280|308:228|308:228|324:190,1,150
296,92,2160,2,0,L|247:85,3,50,8|8|8|8,0:0|0:0|0:0|0:0,0:0:0:0:
200,104,2692,6,0,B|152:120|152:120|104:104,1,100,4|0,0:0|0:0,0:0:0:0:
24,164,3224,2,0,L|36:264,1,100,8|0,0:0|0:0,0:0:0:0:
79,291,3623,1,0,0:0:0:0:
128,276,3756,2,0,P|177:271|222:291,1,100
300,228,4288,2,0,P|288:180|300:132,1,100,8|6,0:0|0:2,0:0:0:0:
388,84,4820,6,0,P|400:132|388:180,1,100
300,131,5352,2,0,P|248:127|204:147,1,100,8|0,0:0|0:0,0:0:0:0:
164,174,5751,1,0,0:0:0:0:
144,220,5884,2,0,P|140:272|160:316,1,100
260,328,6416,2,0,P|264:276|244:232,1,100,8|6,0:0|0:2,0:0:0:0:
292,144,6948,22,0,L|392:152,1,100
344,241,7480,2,0,L|244:233,1,100,8|0,0:0|0:0,0:0:0:0:
196,228,7879,1,0,0:0:0:0:
144,220,8012,2,0,P|152:164|132:116,1,100
84,40,8544,2,0,P|128:24|180:36,1,100,8|0,0:0|0:0,0:0:0:0:
137,124,9076,6,0,P|93:140|41:128,1,100
16,224,9608,2,0,L|28:324,1,100,8|0,0:0|0:0,0:0:0:0:
72,348,10007,1,0,0:0:0:0:
120,332,10140,2,0,P|169:327|214:347,1,100
300,296,10672,2,0,L|292:196,1,100,8|6,0:0|0:2,0:0:0:0:
384,156,11204,6,0,L|392:256,1,100
214,347,11736,2,0,L|206:247,1,100,8|0,0:0|0:0,0:0:0:0:
212,196,12135,1,0,0:0:0:0:
216,148,12268,2,0,P|265:153|310:133,1,100
248,56,12800,2,0,P|199:51|154:71,1,100,8|0,0:0|0:0,0:0:0:0:
60,39,13332,6,0,P|54:89|77:133,1,100
36,224,13864,2,0,P|84:231|132:215,1,100,8|0,0:0|0:0,0:0:0:0:
176,192,14263,1,0,0:0:0:0:
224,176,14396,2,0,P|272:168|320:184,1,100,0|6,0:0|0:2,0:0:0:0:
400,124,14928,2,0,L|392:24,1,100,8|6,0:0|0:2,0:0:0:0:
484,64,15460,22,0,L|492:164,1,100
448,252,15992,2,0,B|400:236|400:236|352:252,1,100,8|0,0:0|0:0,0:0:0:0:
308,272,16391,1,0,0:0:0:0:
260,256,16524,2,0,L|268:156,1,100
188,96,17056,1,8,0:0:0:0:
188,96,17189,1,8,0:0:0:0:
188,96,17322,1,8,0:0:0:0:
152,188,17588,54,0,L|144:287,1,100,4|0,0:0|2:0,0:0:0:0:
143,287,19716,21,0,0:0:0:0:
143,287,19982,2,0,B|175:295|199:287|199:287|227:279|263:287,1,119.999996337891,2|0,0:0|0:0,0:0:0:0:
348,312,20780,1,0,0:0:0:0:
428,272,21046,2,0,L|420:152,1,119.999996337891,2|0,0:0|0:0,0:0:0:0:
388,68,21844,5,0,0:0:0:0:
304,100,22110,2,0,P|245:107|189:87,1,119.999996337891,2|0,0:0|0:0,0:0:0:0:
100,80,22908,1,0,0:0:0:0:
40,148,23174,2,0,L|54:267,1,119.999996337891,2|0,0:0|0:0,0:0:0:0:
136,308,23972,5,0,0:0:0:0:
220,276,24238,2,0,P|279:270|333:293,1,119.999996337891,2|0,0:0|0:0,0:0:0:0:
416,332,25036,1,0,0:0:0:0:
492,284,25302,2,0,L|480:164,1,119.999996337891,2|0,0:0|0:0,0:0:0:0:
416,100,26100,21,0,0:0:0:0:
335,140,26366,2,0,P|278:156|224:133,1,119.999996337891,2|0,0:0|0:0,0:0:0:0:
196,48,27164,1,0,0:0:0:0:
284,64,27430,1,2,0:0:0:0:
224,133,27696,1,0,2:0:0:0:
136,112,27962,1,0,0:0:0:0:
112,200,28228,6,0,L|124:320,2,119.999996337891,2|2|2,0:0|0:0|0:0,0:0:0:0:
196,48,29824,1,2,0:0:0:0:
284,64,30090,1,0,0:0:0:0:
260,152,30356,5,2,0:0:0:0:
260,152,30622,2,0,P|243:208|266:262,1,119.999996337891
352,291,31420,1,0,0:0:0:0:
336,203,31686,1,0,0:0:0:0:
267,263,31952,1,2,0:0:0:0:
288,351,32218,1,0,0:0:0:0:
352,291,32484,6,0,P|408:274|462:297,1,119.999996337891,2|2,0:0|0:0,0:0:0:0:
403,367,33282,1,0,0:0:0:0:
352,291,33548,2,0,L|364:171,1,119.999996337891,2|2,0:0|0:0,0:0:0:0:
304,104,34346,1,0,0:0:0:0:
220,136,34612,21,2,0:0:0:0:
220,136,34878,2,0,L|208:256,1,119.999996337891
268,324,35676,1,0,0:0:0:0:
352,291,35942,5,0,0:0:0:0:
364,291,36208,1,0,0:0:0:0:
376,291,36474,1,0,0:0:0:0:
392,291,36740,6,0,L|408:132,1,160,0|8,0:0|0:0,0:0:0:0:
340,64,37538,1,0,0:0:0:0:
340,64,37804,1,0,0:0:0:0:
248,92,38070,1,0,0:0:0:0:
320,156,38336,1,8,0:0:0:0:
340,64,38602,1,0,0:0:0:0:
248,92,38868,6,0,P|177:124|104:91,1,160,0|8,0:0|0:0,0:0:0:0:
176,28,39666,1,0,0:0:0:0:
176,28,39932,1,0,0:0:0:0:
248,92,40198,2,0,L|240:172,1,80,0|8,0:0|0:0,0:0:0:0:
228,268,40730,1,0,0:0:0:0:
324,268,40996,6,0,B|393:303|393:303|424:276|469:279,1,160,0|8,0:0|0:0,0:0:0:0:
456,376,41794,1,0,0:0:0:0:
456,376,42060,1,0,0:0:0:0:
360,376,42326,2,0,L|286:338,1,80,0|8,0:0|0:0,0:0:0:0:
228,268,42858,1,0,0:0:0:0:
140,304,43124,22,0,L|64:332,1,80
164,216,43656,2,0,L|96:168,1,80,8|0,0:0|0:0,0:0:0:0:
244,180,44188,2,0,L|248:100,1,80
412,40,44720,2,0,L|408:120,1,80,8|0,0:0|0:0,0:0:0:0:
475,196,45252,6,0,P|403:224|333:190,1,160,0|8,0:0|0:0,0:0:0:0:
248,140,46050,1,0,0:0:0:0:
248,140,46316,1,0,0:0:0:0:
164,184,46582,1,0,0:0:0:0:
168,88,46848,1,8,0:0:0:0:
248,140,47114,1,0,0:0:0:0:
163,184,47380,6,0,P|93:151|71:77,1,160,0|8,0:0|0:0,0:0:0:0:
168,88,48178,1,0,0:0:0:0:
168,88,48444,1,0,0:0:0:0:
164,184,48710,2,0,L|140:260,1,80,0|8,0:0|0:0,0:0:0:0:
212,324,49242,1,0,0:0:0:0:
304,296,49508,6,0,P|380:287|440:340,1,160,0|8,0:0|0:0,0:0:0:0:
352,380,50306,1,0,0:0:0:0:
352,380,50572,1,0,0:0:0:0:
304,296,50838,2,0,L|312:216,1,80,0|8,0:0|0:0,0:0:0:0:
364,136,51370,1,0,0:0:0:0:
308,56,51636,22,0,L|228:48,1,80
364,136,52168,2,0,L|443:143,1,80,8|0,0:0|0:0,0:0:0:0:
311,216,52700,1,0,0:0:0:0:
311,216,52833,1,8,0:0:0:0:
311,216,52966,1,0,0:0:0:0:
332,308,53232,1,8,0:0:0:0:
248,356,53498,1,0,0:0:0:0:
159,275,53764,6,0,P|135:183|200:113,1,200,4|8,0:0|0:0,0:0:0:0:
300,132,54562,1,0,0:0:0:0:
300,132,54695,1,8,0:0:0:0:
300,132,54828,2,0,P|348:140|393:121,1,100
436,32,55360,1,8,0:0:0:0:
336,40,55626,1,0,0:0:0:0:
393,120,55892,6,0,B|408:192|408:192|384:232|384:232|404:264|388:309,1,200,0|8,0:0|0:0,0:0:0:0:
308,368,56690,2,0,L|256:368,1,50,0|8,0:0|0:0,0:0:0:0:
216,340,56956,2,0,L|164:340,1,50,0|8,0:0|0:0,0:0:0:0:
120,320,57222,1,0,0:0:0:0:
120,320,57488,2,0,L|127:220,1,100,8|0,0:0|0:0,0:0:0:0:
64,144,58020,6,0,P|158:126|223:196,1,200,0|8,0:0|0:0,0:0:0:0:
204,292,58819,1,0,0:0:0:0:
204,292,58952,1,8,0:0:0:0:
204,292,59085,2,0,P|252:293|293:266,1,100
320,168,59617,1,8,0:0:0:0:
223,196,59883,1,0,0:0:0:0:
294,265,60149,22,0,P|387:242|420:152,1,200,0|8,0:0|0:0,0:0:0:0:
384,60,60947,2,0,L|332:60,1,50,0|8,0:0|0:0,0:0:0:0:
288,80,61213,2,0,L|236:80,1,50,0|8,0:0|0:0,0:0:0:0:
192,60,61479,1,0,0:0:0:0:
192,60,61745,2,0,L|92:60,1,100,8|0,0:0|0:0,0:0:0:0:
68,104,62144,1,8,0:0:0:0:
92,148,62277,6,0,P|104:242|24:298,1,200,4|8,0:2|0:0,0:0:0:0:
12,202,63075,1,0,0:0:0:0:
12,202,63208,1,8,0:0:0:0:
12,202,63341,1,0,0:0:0:0:
92,148,63607,1,0,0:0:0:0:
164,216,63873,2,0,L|171:316,1,100,8|0,0:0|0:0,0:0:0:0:
80,348,64405,6,0,B|172:316|172:316|276:332,1,200,0|8,0:0|0:0,0:0:0:0:
372,316,65203,2,0,L|372:264,1,50,0|8,0:0|0:0,0:0:0:0:
400,224,65469,2,0,L|400:172,1,50,0|8,0:0|0:0,0:0:0:0:
372,132,65735,1,0,0:0:0:0:
372,132,66001,2,0,L|272:132,1,100,8|0,0:0|0:0,0:0:0:0:
192,192,66533,6,0,P|174:284|255:332,1,200,0|8,0:0|0:0,0:0:0:0:
348,292,67331,1,0,0:0:0:0:
348,292,67464,1,8,0:0:0:0:
348,292,67597,1,0,0:0:0:0:
256,248,67863,1,0,0:0:0:0:
168,292,68129,2,0,P|154:245|170:199,1,100,8|0,0:0|0:0,0:0:0:0:
259,155,68661,6,0,P|272:201|256:247,1,100,4|0,0:0|0:0,0:0:0:0:
396,304,69991,5,0,0:0:0:0:
384,304,70257,1,0,0:0:0:0:
372,304,70523,1,0,0:0:0:0:
356,304,70789,6,0,B|376:228|376:228|356:192|356:192|376:152|357:114,1,200,4|8,0:0|0:0,0:0:0:0:
272,64,71587,1,0,0:0:0:0:
272,64,71720,1,8,0:0:0:0:
272,64,71853,1,0,0:0:0:0:
184,112,72119,2,0,P|132:120|84:104,1,100,0|8,0:0|0:0,0:0:0:0:
140,20,72651,1,0,0:0:0:0:
184,112,72917,6,0,B|192:160|168:192|168:192|184:228|184:228|160:260|171:300,1,200,0|8,0:0|0:0,0:0:0:0:
268,280,73715,1,0,0:0:0:0:
268,280,73848,1,8,0:0:0:0:
268,280,73981,2,0,P|320:288|368:272,1,100
408,184,74513,2,0,P|359:175|311:189,1,100,8|0,0:0|0:0,0:0:0:0:
452,268,75045,6,0,P|492:183|442:99,1,200,0|8,0:0|0:0,0:0:0:0:
352,60,75843,1,0,0:0:0:0:
352,60,75976,1,8,0:0:0:0:
352,60,76109,1,0,0:0:0:0:
264,108,76375,2,0,P|212:116|168:96,1,100,0|8,0:0|0:0,0:0:0:0:
228,16,76907,1,0,0:0:0:0:
169,97,77173,6,0,L|73:69,1,100
193,185,77705,2,0,L|109:245,1,100,8|0,0:0|0:0,0:0:0:0:
273,221,78237,2,0,L|277:321,1,100
441,361,78769,2,0,L|437:261,1,100,8|0,0:0|0:0,0:0:0:0:
484,172,79301,22,0,B|408:144|360:200|360:200|348:164|320:152,1,200,4|8,0:0|0:0,0:0:0:0:
240,96,80099,1,0,0:0:0:0:
240,96,80232,1,8,0:0:0:0:
240,96,80365,1,0,0:0:0:0:
159,155,80631,2,0,P|148:204|159:251,1,100,0|8,0:0|0:0,0:0:0:0:
248,204,81163,1,0,0:0:0:0:
240,96,81429,6,0,P|155:56|71:106,1,200,0|8,0:0|0:0,0:0:0:0:
72,208,82227,1,0,0:0:0:0:
72,208,82360,1,8,0:0:0:0:
72,208,82493,2,0,L|84:308,1,100
171,255,83025,2,0,L|159:155,1,100,8|0,0:0|0:0,0:0:0:0:
136,60,83557,6,0,B|184:52|216:76|216:76|252:60|252:60|284:84|324:73,1,200,0|8,0:0|0:0,0:0:0:0:
392,148,84355,1,0,0:0:0:0:
392,148,84488,1,8,0:0:0:0:
392,148,84621,1,0,0:0:0:0:
344,236,84887,2,0,P|336:288|356:332,1,100,0|8,0:0|0:0,0:0:0:0:
436,272,85419,1,0,0:0:0:0:
344,236,85685,6,0,L|244:252,1,100
392,148,86217,2,0,L|492:132,1,100,8|0,0:0|0:0,0:0:0:0:
324,72,86749,2,0,L|224:88,1,100
156,160,87281,1,8,0:0:0:0:
156,160,87414,1,0,0:0:0:0:
156,160,87547,1,0,0:0:0:0:
244,204,87813,21,4,0:0:0:0:
160,289,88079,1,0,0:0:0:0:
274,327,88345,1,0,0:0:0:0:
252,181,88611,1,0,0:0:0:0:
176,292,88877,1,0,0:0:0:0:
309,310,89143,1,0,0:0:0:0:
254,157,89409,1,0,0:0:0:0:
194,293,89675,1,8,0:0:0:0:
376,360,89941,5,4,0:0:0:0:
376,360,90207,2,0,P|395:314|383:267,1,100,0|8,0:0|0:0,0:0:0:0:
424,176,90739,1,0,0:0:0:0:
424,176,90872,1,8,0:0:0:0:
424,176,91005,2,0,P|376:168|327:183,1,100
236,228,91537,2,0,P|187:235|141:217,1,100,8|0,0:0|0:0,0:0:0:0:
48,256,92069,6,0,L|40:355,2,100,0|0|8,0:0|0:0|0:0,0:0:0:0:
141,217,92867,1,0,0:0:0:0:
141,217,93000,1,8,0:0:0:0:
141,217,93133,2,0,P|187:235|236:228,1,100
328,272,93665,2,0,P|338:223|323:176,1,100,8|0,0:0|0:0,0:0:0:0:
296,80,94197,5,0,0:0:0:0:
196,96,94463,2,0,P|147:103|100:88,1,100,0|8,0:0|0:0,0:0:0:0:
4,120,94995,1,0,0:0:0:0:
4,120,95128,1,8,0:0:0:0:
4,120,95261,2,0,L|11:219,1,100
108,244,95793,2,0,L|100:343,1,100,8|0,0:0|0:0,0:0:0:0:
200,364,96325,21,4,0:0:0:0:
296,332,96591,2,0,P|345:326|391:344,1,100,0|8,0:0|0:0,0:0:0:0:
452,267,97123,1,0,0:0:0:0:
452,267,97256,1,8,0:0:0:0:
452,267,97389,2,0,P|460:218|449:169,1,100
408,76,97921,2,0,L|308:83,1,100,8|0,0:0|0:0,0:0:0:0:
244,136,98453,6,0,B|174:89|109:173|158:238|158:238|224:321|224:321|320:297|320:297|398:278|406:174|325:167,1,595.000011348725,0|0,0:0|2:0,0:0:0:0:
260,220,100581,5,0,0:0:0:0:
309,83,100847,1,0,0:0:0:0:
257,231,101113,1,0,0:0:0:0:
312,72,101379,1,0,0:0:0:0:
304,296,101645,2,0,P|224:304|176:238,1,170.000003242493,4|4,0:2|0:0,0:0:0:0:
256,192,102709,12,0,104837,0:0:0:0:
