osu file format v5

[General]
AudioFilename: Ore Wa Tokoton Tomaranai.mp3
AudioLeadIn: 0
PreviewTime: -1
Countdown: 1
SampleSet: Normal
StackLeniency: 0.7
Mode: 0
LetterboxInBreaks: 1
EditorBookmarks: 20845,30679,82989,97901,154806,175278,214854

[Metadata]
Title:Ore wa Tokoton Tomaranai
Artist:Kageyama Hironobu
Creator:minyeob
Version:Easy
Source:
Tags:

[Difficulty]
HPDrainRate:5
CircleSize:4
OverallDifficulty:4
SliderMultiplier:0.9
SliderTickRate:1

[Events]
//Background and Video events
0,0,"%B5%E5%B7%A1%B0%EF%BA%BCZ3_OP_021-kuruming.jpg"
//Break Periods
2,20944,30069
2,82706,97265
2,154492,174263
//Storyboard Layer 0 (Background)
//Storyboard Layer 1 (Failing)
//Storyboard Layer 2 (Passing)
//Storyboard Layer 3 (Foreground)
//Storyboard Sound Samples
//Background Colour Transformations
3,100,163,162,255

[TimingPoints]
2680,322.58064516129,4,1,0,100,1
175578,-100,4,2,0,100,0
185094,-100,4,1,0,100,0

[HitObjects]
256,320,2680,1,0
320,256,3163,2,0,B|352:224|352:192|320:160|352:128,1,135
384,64,3970,2,0,B|384:32|311:24|320:77,2,90
448,192,5583,5,0
416,128,5905,1,0
384,192,6228,1,0
352,128,6550,2,0,B|352:32,4,90
256,320,8809,5,0
256,256,9131,1,0
256,192,9454,2,0,B|256:128,1,45
32,64,10421,5,4
73,122,10744,1,4
122,173,11067,1,4
178,218,11389,1,4
241,258,11712,1,4
256,320,13002,5,0
192,256,13486,2,0,B|160:224|160:192|192:160|160:128,1,135
128,64,14292,2,0,B|128:32|201:24|192:77,2,90
480,224,15905,6,0,B|480:329,2,90
480,160,16873,2,0,B|-32:160,1,495
64,64,19131,5,0
128,64,19454,1,4
192,64,19776,1,4
256,64,20099,1,4
320,64,20421,1,4
384,64,20744,1,4
384,96,31389,5,0
320,128,31712,1,0
384,160,32034,1,0
320,192,32357,2,0,B|256:192|256:128,3,90
257,76,33647,2,0,B|193:76|193:140,2,90
352,96,34776,1,0
96,160,36550,5,0
160,192,36873,1,0
96,224,37196,1,0
160,256,37518,2,0,B|224:256|224:192,3,90
279,163,38809,2,0,B|343:163|375:195,2,90
192,128,39938,1,0
384,192,41712,5,0
384,128,42034,1,0
384,64,42357,1,0
320,64,42680,2,0,B|288:64|256:96|224:96,3,90
171,122,43970,2,0,B|139:186|203:186,1,90,2|8
265,162,44615,2,2,B|329:162|329:226,2,90,0|8|2
96,128,45905,5,2
96,192,46228,1,2
96,192,46389,1,2
448,192,46873,5,0
384,224,47196,1,0
320,256,47518,1,0
256,288,47841,1,0
192,256,48163,1,0
128,224,48486,1,0
64,192,48809,1,0
256,192,49131,12,0,50260
96,96,51228,5,2
96,96,51389,1,2
96,160,51712,1,0
96,224,52034,1,0
160,224,52357,1,0
224,224,52680,1,0
288,224,53002,1,0
480,64,54292,5,8
439,122,54615,1,2
390,173,54938,1,8
334,218,55260,1,2
271,258,55583,1,8
192,256,56873,5,4
256,256,57196,1,4
320,256,57518,1,4
320,192,57841,1,4
320,128,58163,1,4
256,128,58486,1,4
192,128,58809,1,4
192,192,59131,1,4
256,192,59615,12,0,60583
213,153,62034,6,0,B|256:113|309:164,3,90
308,221,63325,2,0,B|375:176|328:58|198:59|128:143|175:229,1,360
64,192,64938,5,2
64,128,65260,1,2
128,128,65583,1,8
192,128,65905,2,2,B|192:224,4,90,2|2|10|10|10
256,320,68163,5,0
256,256,68486,1,0
256,192,68809,1,0
256,192,68970,1,0
96,224,69776,5,8
96,160,70099,1,8
96,96,70421,1,8
160,96,70744,1,8
224,96,71067,2,4,B|288:96,3,45
256,192,72357,12,0,74292
303,295,75260,6,0,B|239:295|239:263|111:263,1,180
64,224,76228,2,0,B|32:192|64:128,2,90
96,288,77196,1,0
160,256,77518,1,0
448,192,78486,5,0
387,192,78809,2,0,B|-103:222|179:381|-22:383|352:34,1,720
389,79,81712,1,0
440,121,82034,1,0
490,165,82357,1,0
490,165,82518,1,4
96,192,98486,5,2
128,256,98809,1,2
160,320,99131,1,2
192,256,99454,1,8
224,192,99776,1,8
256,256,100099,1,8
288,320,100421,1,8
320,256,100744,2,0,B|384:256|448:160|448:96|320:32,1,315
448,64,103647,5,0
448,128,103970,1,0
448,192,104292,1,0
448,256,104615,2,0,B|352:256,3,90
256,192,105905,12,0,107034
64,160,108809,5,0
64,224,109131,1,0
64,288,109454,1,0
64,352,109776,2,0,B|352:352,1,270
256,192,111067,12,0,112196
256,128,113002,5,2
256,192,113325,1,2
256,192,113486,1,2
416,96,113970,6,0,B|416:288,1,180
353,278,114938,2,0,B|257:278,3,90
203,278,116228,2,0,B|203:182,4,90
63,237,118325,6,0,B|63:173,3,45
128,192,119131,1,0
128,256,119454,1,0
192,256,119776,1,0
192,192,120099,2,2,B|192:82,3,90,2|8|2|8
192,32,121389,5,2
256,32,121712,1,0
320,32,122034,1,2
384,32,122357,1,2
448,32,122679,2,2,B|448:223,1,180
406,237,123486,5,0
374,205,123647,1,2
332,140,123970,2,0,B|236:140,1,90
217,195,124615,2,0,B|313:195,1,90
265,246,125260,2,0,B|169:246,1,90
135,299,125905,2,0,B|231:299,1,90
256,192,126712,12,2,127679
96,128,129131,5,0
96,192,129454,1,0
160,192,129776,1,0
320,192,130421,5,0
320,256,130744,1,0
320,256,130905,1,0
320,256,131067,1,0
467,161,132034,5,0
403,129,132357,1,0
339,97,132679,1,0
275,65,133002,1,0
211,97,133325,1,0
147,129,133647,1,0
83,161,133970,1,0
19,129,134292,1,0
256,128,135260,5,0
256,192,135583,1,0
256,256,135905,1,0
256,256,136067,1,0
416,320,136873,5,0
384,255,137196,1,0
341,199,137518,1,0
294,151,137841,1,0
233,125,138163,2,4,B|169:125,3,45
256,288,139454,5,2
320,256,139776,1,8
384,224,140099,5,2
320,192,140421,1,8
256,160,140744,5,2
192,192,141067,1,8
128,224,141389,5,2
192,256,141712,1,8
224,128,142357,5,0
192,192,142679,1,0
224,256,143002,1,0
256,192,143325,1,0
288,256,143647,1,0
320,192,143970,1,0
288,128,144292,1,0
256,192,144615,1,0
256,192,145905,12,4,149776
256,320,150421,5,0
256,192,151067,1,2
256,128,151389,2,2,B|256:64,2,45
256,192,152034,1,8
352,256,152357,5,2
320,192,152680,1,8
288,128,153002,1,2
256,64,153325,1,8
224,128,153647,1,2
192,192,153970,1,2
160,256,154292,1,6
128,64,175583,5,2
96,128,175905,1,0
160,128,176228,1,2
384,64,176873,5,0
416,128,177196,1,2
352,128,177518,1,0
320,320,178486,5,0
256,320,178809,1,0
192,320,179131,1,0
256,256,179454,5,0
192,224,179776,5,0
224,160,180099,5,0
288,160,180421,5,0
320,224,180744,5,2
256,64,181712,5,0
288,128,182034,2,0,B|192:128,1,90,2|0
224,192,182680,2,2,B|128:192,1,90
160,256,183325,6,0,B|256:256,3,90,2|0|0|2
320,256,184615,1,0
320,192,184938,1,0
320,192,185099,1,4
256,256,185905,5,0
256,256,186228,1,0
256,256,186550,1,0
256,128,187196,5,0
256,128,187518,1,0
256,128,187841,1,0
96,224,188809,6,0,B|192:224,2,90
96,288,189776,2,0,B|480:288,1,360
480,96,192034,5,0
416,96,192357,1,0
352,96,192680,2,0,B|352:160,1,45
352,198,193163,1,0
288,320,193647,5,0
224,288,193970,1,0
160,256,194292,2,0,B|95:257,2,45
224,224,194938,2,0,B|282:224,2,45
160,192,195583,1,0
448,128,196550,5,0
448,192,196873,1,0
448,256,197196,1,0
384,256,197518,2,0,B|288:256,2,90
384,192,198486,5,0
384,192,198809,2,0,B|384:96,2,90
384,256,199776,5,0
320,256,200099,1,0
256,256,200421,2,0,B|256:192,1,45
384,192,201389,5,0
320,224,201712,1,0
256,256,202034,1,0
192,224,202357,1,0
128,192,202680,1,4
160,96,203970,5,2
160,96,204131,1,0
160,96,204292,1,8
160,192,204615,5,2
160,192,204776,1,0
160,192,204938,1,8
256,192,205260,6,0,B|320:192,4,45
320,320,206873,5,0
256,320,207196,1,0
192,320,207518,1,0
128,320,207841,1,0
128,256,208163,2,0,B|128:192,1,45
128,160,208647,1,0
128,96,208970,1,0
256,320,210099,5,0
256,256,210421,1,4
256,192,210744,1,4
256,128,211067,1,4
256,64,211389,1,4
256,192,211712,12,4,214292
