osu file format v7

[General]
AudioFilename: 09 - God knows.mp3
AudioLeadIn: 3000
PreviewTime: 66300
Countdown: 0
SampleSet: Normal
StackLeniency: 0.5
Mode: 0
LetterboxInBreaks: 0
StoryFireInFront: 0
EpilepsyWarning: 1

[Editor]
DistanceSpacing: 1
BeatDivisor: 4
GridSize: 16

[Metadata]
Title:God Knows...
Artist:Kageyama Hironobu
Creator:vincerio
Version:Normal
Source:The Melancholy of Suzumiya Haruhi
Tags:ENSON2 COVER JAM Project termerys

[Difficulty]
HPDrainRate:3
CircleSize:4
OverallDifficulty:3
SliderMultiplier:1
SliderTickRate:1

[Events]
//Background and Video events
0,0,"Konachan.com - 56546 headphones laptop nagato_yuki seifuku suzumiya_haruhi_no_yuutsu white.jpg"
//Break Periods
2,96696,107856
2,176696,187856
//Storyboard Layer 0 (Background)
//Storyboard Layer 1 (Fail)
//Storyboard Layer 2 (Pass)
//Storyboard Layer 3 (Foreground)
//Storyboard Sound Samples
//Background Colour Transformations
3,100,255,255,255

[TimingPoints]
3696,400,4,1,0,70,1,0
67496,-100,4,1,0,70,0,1
90096,-200,4,1,0,70,0,1
91696,-100,4,1,0,70,0,1
96496,-100,4,1,0,70,0,0
147496,-100,4,1,0,70,0,1
170096,-200,4,1,0,70,0,1
171696,-100,4,1,0,70,0,1
176500,-100,4,1,0,70,0,0
205096,-100,4,1,0,70,0,1
227696,-200,4,1,0,70,0,1
229296,-100,4,1,0,70,0,1
234096,-100,4,1,0,70,0,0

[HitObjects]
96,80,3696,1,0
192,80,4096,2,0,C|192:144,1,50,0|0
288,80,4696,2,0,C|288:144,1,50,0|0
288,176,5096,2,0,C|288:240,1,50,0|0
288,272,5496,2,0,C|224:272,1,50
192,272,5896,1,0
96,272,6296,6,0,C|96:208,1,50
96,176,6696,1,0
96,128,6896,1,0
96,80,7096,2,0,C|208:80,1,100,0|0
240,80,7696,2,0,C|240:192,1,100
240,224,8296,5,0
288,224,8496,1,0
336,224,8696,2,0,C|336:160,2,50,0|0|0
432,224,9496,1,0
432,224,9696,1,0
432,320,10096,6,0,C|432:208,1,100,0|0
432,176,10696,2,0,C|432:112,1,50
432,32,11296,1,0
384,32,11496,2,0,C|320:32,1,50
288,32,11896,2,0,C|288:96,1,50
288,128,12296,2,0,C|224:128,1,50,0|0
256,192,12896,12,0,14896
256,80,15296,5,0
256,176,15696,2,0,C|320:176,2,50,0|0|4
256,272,16496,1,0
208,272,16696,2,0,C|96:272,1,100
64,272,17296,1,0
64,176,17696,1,0
64,128,17896,1,0
64,80,18096,2,0,C|176:80,1,100
208,80,18696,1,0
256,80,18896,1,0
256,176,19296,6,0,C|368:176,1,100,0|0
400,176,19896,1,0
400,224,20096,2,0,C|464:224,2,50
400,272,20696,1,0
400,320,20896,2,0,C|288:320,1,100
224,320,21596,1,0
224,240,21896,2,0,C|224:160,1,75,0|0
144,176,22496,5,0
112,128,22696,1,0
80,80,22896,2,0,C|192:80,2,100,0|0|0
96,176,24096,1,0
112,224,24296,1,0
128,272,24496,2,0,C|240:272,2,100,0|0|0
112,176,25696,5,0
112,128,25896,1,0
112,80,26096,1,4
208,80,26496,1,0
208,32,26696,1,4
304,80,27096,1,0
304,128,27296,1,0
304,176,27496,1,0
304,224,27696,2,0,C|464:224,2,150,0|0|4
208,224,29296,5,0
112,224,29696,2,0,C|112:288,2,50,8|0|0
112,128,30496,1,8
112,32,30896,1,0
208,32,31296,1,8
304,32,31696,2,0,C|368:32,2,50,0|0|8
304,128,32496,1,0
304,224,32896,5,8
352,224,33096,1,0
400,224,33296,1,0
400,128,33696,2,0,C|288:128,1,100,8|0
208,128,34496,2,0,C|96:128,1,100,8|0
48,208,35296,1,8
96,304,35696,5,0
192,304,36096,2,0,C|256:304,2,50,8|0|0
192,208,36896,1,8
288,208,37296,1,0
384,208,37696,1,8
384,304,38096,1,0
288,304,38496,1,8
256,192,38896,12,0,40896
256,48,41296,5,4
256,128,41596,1,0
256,208,41896,1,0
256,208,42096,6,0,C|368:208,1,100,0|8
368,112,42896,2,0,C|480:112,2,100,0|8|0
288,48,44096,1,8
192,48,44496,6,0,C|128:48,2,50,0|0|8
96,48,45296,2,0,C|32:48,2,50,0|0|8
192,48,46096,2,0,C|256:48,2,50,0|0|8
192,144,46896,2,0,C|192:208,2,50,0|0|8
144,144,47496,1,0
96,144,47696,2,0,C|96:256,2,100,0|8|0
192,144,48896,5,8
288,144,49296,2,0,C|400:144,1,100,0|8
384,240,50096,2,0,C|272:240,1,100,0|8
192,240,50896,5,0
144,240,51096,1,0
96,240,51296,2,0,C|96:128,1,100,8|0
192,128,52096,2,0,C|304:80,1,100,8|0
272,192,52896,2,0,C|384:144,1,100,8|0
352,256,53696,2,0,C|448:208,1,100,8|0
448,160,54296,1,0
400,128,54496,1,4
304,160,54896,6,0,C|192:160,1,100,0|8
128,64,55696,2,0,C|128:176,1,100,0|8
80,192,56296,1,0
48,224,56496,1,0
80,256,56696,1,0
128,272,56896,2,0,C|240:272,1,100,8|0
320,272,57696,2,0,C|432:272,1,100,8|0
421,272,58296,5,0
421,273,58496,1,8
448,224,58696,1,0
416,176,58896,1,0
448,144,59096,1,0
416,96,59296,2,0,C|304:96,2,100,8|0|8
416,192,60496,5,0
320,192,60896,1,8
224,192,61296,2,0,C|224:80,2,100,0|8|0
224,192,62296,1,0
224,192,62496,1,8
128,192,62896,6,0,C|128:128,2,50,0|0|8
128,240,63496,2,0,C|64:240,2,50
176,240,64096,2,0,C|240:240,2,50,8|0|0
176,288,64696,2,0,C|176:352,2,50,0|8|0
224,288,65296,5,0
272,288,65496,1,0
320,288,65696,1,4
368,288,65896,1,4
416,288,66096,1,4
416,192,66496,5,0
320,192,66896,2,0,C|256:192,1,50,0|0
176,192,67496,2,0,C|176:256,2,50,0|0|0
128,192,68096,2,0,C|128:304,1,100,0|0
224,288,68896,1,0
272,288,69096,1,0
320,288,69296,2,0,C|320:176,1,100,0|0
320,144,69896,1,0
320,32,70296,1,0
224,32,70696,5,0
128,32,71096,1,0
96,80,71296,1,0
128,128,71496,1,0
128,208,71896,1,0
96,256,72096,2,0,C|256:256,1,150,0|0
352,256,73096,1,0
272,320,73496,5,0
224,320,73696,1,0
176,320,73896,1,0
128,320,74096,2,0,C|128:112,1,200
128,64,75096,1,0
176,64,75296,1,0
224,64,75496,1,0
272,64,75696,2,0,C|384:64,2,100,0|0|0
272,160,76896,1,0
176,160,77296,6,0,C|384:160,1,200
432,160,78296,2,0,C|432:96,2,50,0|0|4
432,304,79296,5,0
336,304,79696,2,0,C|336:240,1,50,0|0
336,160,80296,2,0,C|400:160,2,50,0|0|0
288,160,80896,1,0
240,160,81096,2,0,C|128:160,1,100,0|0
128,256,81896,6,0,C|192:256,1,50,0|0
224,256,82296,2,0,C|288:256,1,50,0|0
320,256,82696,2,0,C|384:256,1,50,0|0
416,256,83096,1,0
416,160,83496,1,0
352,80,83896,5,0
304,64,84096,1,0
256,80,84296,1,0
192,160,84696,1,0
160,192,84896,1,0
128,224,85096,2,0,B|48:320,2,100,0|0|0
160,320,86296,5,0
208,320,86496,2,0,C|320:320,1,100,0|0
400,320,87296,2,0,C|400:208,1,100,0|0
400,128,88096,2,0,C|464:128,2,50,0|0|0
320,64,88896,6,0,C|208:64,1,100,0|0
176,64,89496,1,0
144,96,89696,1,0
112,128,89896,1,0
80,160,90096,2,0,C|304:160,1,200,0|4
384,160,92096,5,0
384,256,92496,1,0
336,256,92696,1,0
240,256,93096,1,0
256,192,93296,12,4,96496
400,64,109296,5,0
304,64,109696,2,0,C|304:128,2,50,8|0|0
208,64,110496,2,0,C|208:176,1,100,8|0
112,160,111296,2,0,C|112:272,1,100,8|0
176,336,112096,5,8
272,336,112496,1,0
368,336,112896,2,0,C|368:272,2,50,8|0|0
448,272,113696,2,0,C|448:160,1,100,8|0
368,128,114496,2,0,C|368:16,1,100,8|0
272,32,115296,1,0
176,32,115696,6,0,C|176:144,2,100,0|8|0
80,32,116896,1,8
64,128,117296,1,0
80,224,117696,1,8
160,288,118096,1,0
208,256,118296,1,0
256,288,118496,1,8
304,256,118696,1,0
256,192,118896,12,4,121296
256,48,121596,5,4
256,128,121896,1,4
256,176,122096,2,0,C|368:176,1,100,0|8
400,176,122696,1,0
448,176,122896,2,0,C|448:288,1,100,0|8
352,320,123696,1,0
256,320,124096,6,0,C|192:320,1,50,8|0
160,320,124496,2,0,C|160:256,2,50,0|0|8
64,320,125296,2,0,C|64:208,2,100,0|8|0
160,320,126496,1,8
160,224,126896,2,0,C|160:160,2,50,0|0|8
208,224,127496,2,0,C|272:224,2,50
208,272,128096,6,0,C|320:272,1,100,8|0
384,208,128896,1,8
384,160,129096,1,0
384,112,129296,2,0,C|496:112,1,100,0|8
416,32,130096,1,0
320,64,130496,1,8
224,32,130896,6,0,C|224:144,1,100,0|8
144,80,131696,2,0,C|144:192,1,100,0|8
64,128,132496,2,0,C|64:240,1,100,0|8
144,272,133296,2,0,C|256:272,2,100,0|8|0
144,224,134296,1,0
144,176,134496,1,4
144,80,134896,6,0,C|256:80,1,100,0|8
336,80,135696,2,0,C|448:80,2,100,0|8|0
336,128,136696,1,0
336,176,136896,1,8
336,272,137296,1,0
336,320,137496,1,0
288,320,137696,2,0,C|176:320,1,100,8|0
96,320,138496,2,0,C|96:208,1,100,8|0
96,128,139296,2,0,C|208:128,2,100,8|0|8
96,224,140496,5,0
192,224,140896,1,8
288,224,141296,2,0,C|400:224,1,100
400,176,141896,2,0,C|464:176,1,50
448,128,142296,1,0
448,80,142496,1,8
352,80,142896,6,0,C|352:16,2,50,0|0|8
304,80,143496,2,0,C|240:80,2,50
304,128,144096,2,0,C|368:128,2,50,8|0|0
256,128,144696,2,0,C|256:192,2,50,0|0|0
208,128,145296,5,0
176,160,145496,1,0
144,192,145696,1,4
112,224,145896,1,4
80,256,146096,1,4
80,160,146496,5,0
80,256,146896,2,0,C|144:256,1,50
224,256,147496,2,0,C|224:192,2,50,0|0|0
272,256,148096,2,0,C|272:144,1,100,0|0
272,64,148896,1,0
320,64,149096,1,0
368,64,149296,2,0,C|368:176,1,100,0|0
416,192,149896,1,0
368,272,150296,1,0
272,272,150696,5,0
176,320,151096,1,0
176,272,151296,1,0
176,224,151496,1,0
96,160,151896,1,0
144,160,152096,2,0,C|304:160,1,150,0|0
368,96,153096,1,0
464,96,153496,1,0
464,144,153696,1,0
464,192,153896,1,0
464,240,154096,2,0,C|240:240,1,200
208,240,155096,5,0
176,208,155296,1,0
144,176,155496,1,0
112,208,155696,2,0,C|112:320,2,100,0|0|0
48,128,156896,1,0
112,48,157296,6,0,C|336:48,1,200
368,48,158296,2,0,C|368:112,2,50,0|0|4
464,160,159296,5,0
464,256,159696,2,0,C|464:320,1,50,0|0
368,304,160296,2,0,C|304:304,2,50,0|0|0
368,256,160896,1,0
368,208,161096,2,0,C|256:208,1,100,0|0
336,128,161896,6,0,C|272:128,1,50,0|0
240,128,162296,2,0,C|176:128,1,50,0|0
144,128,162696,2,0,C|80:128,1,50,0|0
48,128,163096,1,0
48,224,163496,5,0
144,224,163896,1,0
144,272,164096,1,0
192,272,164296,1,0
288,272,164696,1,0
336,272,164896,1,0
384,272,165096,1,0
432,272,165296,2,0,C|464:208|424:120,1,150
384,48,166296,5,0
336,48,166496,2,0,C|224:48,1,100,0|0
144,64,167296,2,0,C|144:176,1,100,0|0
144,256,168096,2,0,C|80:256,2,50,0|0|0
240,256,168896,6,0,C|352:256,1,100,0|0
352,208,169496,1,0
368,160,169696,1,0
384,112,169896,1,0
432,112,170096,2,0,B|480:208|432:320,1,200,0|4
320,304,172096,5,0
224,304,172496,1,0
176,304,172696,1,0
80,304,173096,1,0
256,192,173296,12,4,176496
256,64,189296,5,0
256,256,190096,1,0
448,256,190896,1,0
448,160,191296,1,0
448,64,191696,1,0
352,64,192096,2,0,C|352:176,1,100
352,256,192896,5,0
160,256,193696,1,0
80,192,194096,1,0
160,144,194496,1,0
80,80,194896,1,0
160,144,195296,1,0
240,80,195696,1,0
320,144,196096,1,0
400,80,196496,1,0
400,128,196696,5,0
400,176,196896,1,0
352,272,197296,1,0
304,272,197496,1,0
256,272,197696,1,0
160,272,198096,1,0
112,272,198296,1,0
64,272,198496,2,0,C|64:160,4,100
160,272,200496,5,0
160,176,200896,1,0
160,128,201096,1,0
256,176,201496,2,0,C|320:176,3,50,0|0|0|4
400,176,202496,5,0
400,80,202896,1,0
352,80,203096,1,0
256,80,203496,1,0
208,80,203696,1,4
112,48,204096,5,0
48,128,204496,2,2,C|48:192,1,50,0|0
144,176,205096,2,0,C|144:112,2,50,0|0|0
144,224,205696,2,0,C|256:224,1,100,0|0
336,224,206496,1,0
336,176,206696,1,0
336,128,206896,2,0,C|384:112|448:128,1,100,0|0
480,192,207596,1,0
464,272,207896,1,0
368,320,208296,5,0
272,320,208696,2,0,B|208:320,2,50,0|0|0
272,224,209496,1,0
224,224,209696,2,0,C|64:224,1,150,0|0
80,320,210696,1,0
80,224,211096,5,0
128,192,211296,1,0
176,160,211496,1,0
224,128,211696,2,0,B|256:224|224:336,1,200
272,352,212696,1,0
304,304,212896,1,0
352,288,213096,1,0
400,320,213296,2,0,C|416:272|400:208,2,100,0|0|0
464,240,214496,1,0
400,160,214896,6,0,C|192:160,1,200
144,160,215896,2,0,C|144:224,2,50,0|0|4
272,80,216896,5,0
368,80,217296,2,0,C|368:144,1,50,0|0
272,160,217896,2,0,C|208:160,2,50,0|0|0
272,112,218496,1,0
272,64,218696,2,0,C|160:64,1,100,0|4
80,32,219496,6,0,C|80:96,1,50,0|0
80,128,219896,2,0,C|80:192,1,50,0|0
80,224,220296,2,0,C|80:288,1,50,0|0
80,320,220696,1,0
176,320,221096,5,0
176,224,221496,1,0
176,176,221696,1,0
176,128,221896,1,0
272,128,222296,1,0
320,128,222496,1,0
368,128,222696,1,0
416,128,222896,2,0,C|416:288,1,150
320,320,223896,5,0
272,320,224096,2,0,C|160:320,1,100,0|0
96,256,224896,2,0,C|208:256,1,100,0|0
288,256,225696,2,0,C|352:256,2,50,0|0|0
208,192,226496,6,0,C|320:192,1,100,0|0
352,192,227096,1,0
368,240,227296,1,0
384,288,227496,1,0
400,336,227696,2,0,C|176:336,1,200,0|4
112,288,229696,5,0
112,192,230096,1,0
160,192,230296,1,0
256,192,230696,1,0
256,192,230896,12,4,234096
