osu file format v7

[General]
AudioFilename: 09 - God knows.mp3
AudioLeadIn: 3000
PreviewTime: 66300
Countdown: 0
SampleSet: Normal
StackLeniency: 0.5
Mode: 0
LetterboxInBreaks: 0
StoryFireInFront: 0
EpilepsyWarning: 1

[Editor]
DistanceSpacing: 1
BeatDivisor: 4
GridSize: 32

[Metadata]
Title:God Knows...
Artist:Kageyama Hironobu
Creator:vincerio
Version:Hard
Source:The Melancholy of Suzumiya Haruhi
Tags:ENSON2 COVER JAM Project termerys

[Difficulty]
HPDrainRate:7
CircleSize:4
OverallDifficulty:7
SliderMultiplier:1.4
SliderTickRate:1

[Events]
//Background and Video events
0,0,"Konachan.com - 56546 headphones laptop nagato_yuki seifuku suzumiya_haruhi_no_yuutsu white.jpg"
//Break Periods
2,96696,108396
2,176696,188196
//Storyboard Layer 0 (Background)
//Storyboard Layer 1 (Fail)
//Storyboard Layer 2 (Pass)
//Storyboard Layer 3 (Foreground)
//Storyboard Sound Samples
//Background Colour Transformations
3,100,255,255,255

[TimingPoints]
3696,400,4,1,0,70,1,0
67496,-100,4,1,0,70,0,1
96496,-100,4,1,0,70,0,0
147496,-100,4,1,0,70,0,1
176496,-100,4,1,0,70,0,0
188896,-100,4,1,0,56,0,0
198996,-100,4,1,0,60,0,0
199596,-100,4,1,0,65,0,0
200196,-100,4,1,0,70,0,0
202296,-100,4,1,0,66,0,0
205096,-100,4,1,0,70,0,1
234096,-100,4,1,0,70,0,0

[HitObjects]
256,64,3696,1,0
256,128,3896,1,0
256,192,4096,2,0,B|336:192,1,70,0|0
384,192,4496,2,0,B|384:288,1,70,0|0
384,320,4896,1,0
320,320,5096,2,0,B|224:320,1,70,0|0
192,320,5496,2,0,B|112:320,1,70,0|0
64,320,5896,2,0,B|64:240,1,70,0|0
64,192,6296,5,0
128,192,6496,1,0
192,192,6696,1,0
192,128,6896,1,0
192,64,7096,1,0
192,64,7196,1,0
256,64,7396,1,0
256,64,7496,1,0
320,64,7696,2,0,B|384:16|480:80,1,140,0|0
452,63,8296,5,0
448,128,8496,1,0
448,192,8696,1,0
448,192,8796,1,0
448,192,8896,1,0
448,192,8996,1,0
448,192,9096,1,0
384,320,9496,5,0
320,320,9696,1,0
256,320,9896,1,0
224,320,9996,1,0
192,320,10096,1,0
128,320,10296,2,0,B|128:224,1,70,0|0
128,192,10696,2,0,B|128:96,1,70,0|0
128,64,11096,1,0
192,32,11296,5,0
256,32,11496,1,0
288,32,11596,1,0
320,32,11696,1,0
384,32,11896,1,0
384,64,11996,1,0
384,96,12096,1,0
384,160,12296,1,0
416,160,12396,1,0
448,160,12496,1,0
448,224,12696,1,0
384,256,12896,1,0
320,224,13096,1,0
256,192,13296,12,0,14696
256,64,14896,5,4
256,192,15296,1,4
256,320,15696,1,0
224,288,15796,1,0
192,320,15896,1,0
160,288,15996,1,0
128,320,16096,1,0
64,192,16496,5,0
64,128,16696,1,0
64,64,16896,2,0,B|144:64,1,70,0|0
192,64,17296,2,0,B|192:160,1,70,0|0
192,192,17696,1,0
192,256,17896,2,0,B|288:256,1,70,0|0
192,256,18296,2,0,B|192:336,1,70,0|0
192,256,18696,6,0,B|112:256,1,70,0|0
128,192,19096,1,0
192,160,19296,1,0
256,128,19496,1,0
320,96,19696,1,0
384,64,19896,1,0
384,64,19996,1,0
448,64,20196,1,0
448,64,20296,1,0
448,128,20496,2,0,B|496:192|448:272,1,140,0|0
384,288,21096,5,0
320,288,21296,1,0
256,288,21496,1,0
256,288,21596,1,0
256,288,21696,1,0
256,288,21796,1,0
256,288,21896,1,0
192,288,22096,2,0,B|192:128,2,140,0|0|0
192,288,22996,5,0
192,288,23096,1,0
128,288,23296,1,0
64,288,23496,1,0
64,224,23696,1,0
64,160,23896,1,0
128,160,24096,2,0,B|128:80,1,70,0|0
128,96,24496,2,0,B|224:96,1,70,0|0
224,96,24796,1,0
256,96,24896,1,0
320,96,25096,1,0
384,96,25296,1,0
480,192,25696,5,0
480,128,25896,1,0
480,64,26096,1,4
352,64,26496,1,0
288,64,26696,1,0
224,64,26896,1,0
96,64,27296,1,0
96,128,27496,1,0
256,192,27696,12,4,28896
416,64,29296,5,0
416,128,29496,1,0
416,192,29696,2,0,B|256:192,2,140,8|0|8
320,288,30896,1,0
192,256,31296,5,8
128,224,31496,1,0
96,160,31696,1,0
160,128,31896,1,0
192,64,32096,1,8
256,96,32296,1,0
320,128,32496,1,0
384,100,32696,1,0
448,128,32896,2,8,L|448:208,2,70,8|0|0
448,256,33696,5,8
320,256,34096,2,0,B|320:112,1,140,0|8
192,128,34896,2,0,B|192:272,1,140,0|8
64,224,35696,5,0
192,288,36096,2,0,C|352:288,2,140,8|0|8
192,160,37296,1,0
320,160,37696,1,8
384,160,37896,1,0
448,160,38096,1,0
448,96,38296,1,0
448,160,38496,2,0,B|448:320,2,140,8|0|8
377,158,39496,5,0
348,137,39596,1,0
321,159,39696,2,0,B|321:239,1,70
320,160,40096,2,0,B|320:64,1,70,8|0
320,160,40496,6,0,B|240:160,1,70
320,160,40896,6,0,B|400:160,1,70,8|0
320,160,41296,5,0
224,160,41596,1,4
128,160,41896,1,4
128,224,42096,2,0,B|288:224,2,140,0|8|0
64,192,43096,1,0
32,128,43296,1,8
64,64,43496,1,0
128,32,43696,2,0,B|288:32,1,140,0|8
338,30,44296,5,0
407,41,44496,1,0
448,96,44696,1,0
448,160,44896,1,8
448,224,45096,1,0
384,256,45296,1,0
256,256,45696,2,0,B|256:176,2,70,8|0|0
128,320,46496,6,0,B|192:384|272:304,1,140,8|0
256,192,47296,2,0,B|320:128|400:208,1,140,8|0
448,64,48096,1,8
320,64,48496,5,0
256,64,48696,1,0
192,64,48896,1,8
128,64,49096,1,0
64,64,49296,1,0
64,192,49696,2,0,B|224:192,1,140,8|0
352,192,50496,5,8
416,192,50696,1,0
480,192,50896,2,0,B|480:352,2,140,0|8|0
352,192,52096,2,0,B|208:128|64:192,1,280,8|8
160,256,53296,5,0
224,256,53496,1,0
288,256,53696,1,8
352,256,53896,1,4
352,224,53996,1,0
352,192,54096,1,0
352,128,54296,1,4
352,64,54496,1,4
224,64,54896,6,0,B|224:224,1,140,0|8
96,288,55696,2,0,B|256:288,2,140,0|8|0
96,288,56696,1,0
96,288,56896,1,8
96,160,57296,5,0
96,96,57496,1,0
96,96,57696,2,0,B|256:96,1,140,8|0
288,96,58296,1,0
288,96,58496,1,8
416,96,58896,5,0
416,160,59096,1,0
416,160,59296,2,0,B|240:160,2,140,8|0|8
416,288,60496,1,0
320,192,60896,5,8
224,288,61296,2,0,B|224:128,2,140,0|8|0
224,288,62296,1,0
224,288,62496,1,8
96,288,62896,5,0
96,224,63096,1,0
96,160,63296,1,8
96,96,63496,1,0
160,96,63696,1,0
224,96,63896,1,0
288,96,64096,1,8
352,96,64296,1,0
352,96,64496,5,4
352,96,64696,1,0
352,96,64896,1,4
352,96,65096,1,0
352,96,65296,1,4
352,96,65496,1,0
352,96,65696,1,4
352,96,65896,1,4
352,96,66096,1,4
224,128,66496,5,0
96,128,66896,1,0
96,160,66996,1,0
96,192,67096,1,0
224,256,67496,1,0
224,256,67596,1,0
224,256,67696,1,0
288,256,67896,1,0
288,256,68096,5,8
352,256,68296,1,0
351,326,68496,1,0
376,301,68596,1,0
402,277,68696,1,0
448,224,68896,5,8
416,160,69096,2,0,B|416:64,2,70,0|0|0
352,192,69696,5,8
352,192,69896,1,0
352,128,70096,1,0
352,128,70296,5,0
288,128,70496,1,8
288,128,70696,1,0
288,128,70896,1,0
224,128,71096,5,0
192,128,71196,1,0
160,128,71296,1,8
96,128,71496,1,0
96,192,71696,1,0
96,224,71796,1,0
96,256,71896,1,0
32,256,72096,1,8
32,320,72296,1,0
96,320,72496,6,0,B|256:320,1,140,0|8
306,319,73096,2,0,B|353:257,1,70,0|0
413,289,73496,1,0
444,273,73596,1,0
475,259,73696,1,8
480,192,73896,1,0
480,128,74096,2,0,B|320:128,1,140,0|8
269,127,74696,1,0
204,98,74896,1,0
142,65,75096,5,0
128,128,75296,1,8
128,160,75396,1,0
128,192,75496,1,0
128,256,75696,2,0,B|192:304|272:256,1,140,0|8
256,192,76296,1,0
256,128,76496,1,0
320,160,76696,1,0
352,224,76896,6,0,B|352:64,2,140,8|0|8
416,256,77896,1,0
448,320,78096,1,0
416,320,78196,1,0
384,320,78296,1,0
352,320,78396,1,0
320,320,78496,1,0
256,320,78696,1,4
64,256,79296,5,0
64,128,79696,1,0
96,128,79796,1,0
128,128,79896,1,0
256,128,80296,1,0
256,128,80396,1,0
256,128,80496,1,0
256,192,80696,1,0
256,192,80896,5,8
320,192,81096,1,0
320,192,81196,1,0
320,192,81296,1,0
384,192,81496,1,0
384,192,81696,5,8
448,192,81896,2,0,B|448:96,2,70,0|0|0
448,256,82496,5,8
448,256,82696,1,0
384,256,82896,1,0
384,256,83096,5,0
320,256,83296,1,8
256,256,83496,1,0
256,224,83596,1,0
256,192,83696,1,0
320,192,83896,5,0
320,128,84096,1,8
384,128,84296,1,0
384,64,84496,1,0
320,64,84696,1,0
288,64,84796,1,0
256,64,84896,1,8
192,64,85096,1,0
128,64,85296,6,0,B|128:352,1,280,0|0
101,320,86196,1,0
75,297,86296,1,0
31,243,86496,1,8
97,220,86696,1,0
64,160,86896,2,0,B|192:64,1,140,0|8
224,32,87496,2,0,B|256:96,1,70
320,96,87896,5,0
384,96,88096,1,8
448,96,88296,1,0
448,160,88496,2,0,B|432:240|320:256,1,140,0|8
288,256,89096,1,0
224,256,89296,1,0
160,288,89496,1,0
96,256,89696,1,8
64,192,89896,1,0
96,128,90096,6,0,B|384:128,1,280,0|0
448,128,91096,1,0
448,192,91296,1,8
448,224,91396,1,0
448,256,91496,1,0
448,320,91696,1,4
320,320,92096,5,0
192,320,92496,1,0
192,224,92796,1,0
192,128,93096,1,0
256,192,93296,12,4,96496
256,64,109296,5,0
256,192,109696,1,8
192,192,109896,1,0
128,192,110096,1,0
64,96,110496,2,0,B|224:96,2,140,8|0|8
64,224,111696,5,0
128,224,111896,1,0
192,224,112096,1,8
256,224,112296,1,0
320,224,112496,2,0,B|480:224,2,140,0|8|0
256,224,113496,5,0
192,224,113696,2,0,B|192:64,2,140,8|0|8
96,288,114896,1,0
96,224,115096,1,0
96,160,115296,1,4
192,64,115696,6,0,B|352:64,1,140,0|8
384,64,116296,1,0
448,64,116496,1,0
448,192,116896,2,0,B|448:336,1,140,8|0
320,320,117696,5,8
256,288,117896,1,0
192,256,118096,1,0
128,224,118296,1,0
64,192,118496,2,0,B|16:128|64:48,2,140,8|0|8
128,192,119496,5,0
128,192,119596,1,0
128,192,119696,2,0,B|224:192,1,70
224,256,120096,2,0,B|320:256,1,70,8|0
288,192,120496,2,0,B|384:192,1,70
352,128,120896,2,0,B|448:128,1,70,8|0
448,64,121296,5,0
352,96,121596,1,4
256,128,121896,1,4
192,128,122096,2,0,B|192:288,1,140,0|8
128,288,122696,1,0
64,256,122896,1,0
64,128,123296,5,8
160,64,123696,1,0
224,64,123896,1,0
288,64,124096,1,8
288,192,124496,2,0,B|448:192,2,140,0|8|0
224,192,125496,5,0
160,192,125696,1,8
96,192,125896,1,0
32,192,126096,1,0
32,320,126496,1,8
96,224,126896,5,0
160,192,127096,1,0
224,224,127296,1,8
288,256,127496,1,0
352,224,127696,1,0
416,192,127896,1,0
480,224,128096,1,8
352,224,128496,6,0,L|352:64,1,140,0|8
288,64,129096,1,0
224,64,129296,2,0,L|224:224,1,140,0|8
128,288,130096,1,4
64,192,130496,5,8
64,128,130696,1,0
64,64,130896,2,0,L|224:64,2,140,0|8|0
160,160,132096,2,0,L|320:160,4,140,8|0|8|0|8
160,288,134096,1,0
224,288,134296,1,0
288,288,134496,1,4
416,320,134896,6,0,L|416:160,1,140,0|8
320,256,135696,2,0,L|160:256,1,140,0|8
64,256,136496,1,0
64,192,136696,1,0
64,128,136896,1,8
160,192,137296,6,0,L|320:192,1,140,0|8
416,192,138096,1,0
416,256,138296,1,0
416,320,138496,1,8
352,320,138696,1,0
320,320,138796,1,0
288,320,138896,1,0
224,320,139096,1,0
160,320,139296,2,0,L|160:160,3,140,8|0|8|0
160,128,140696,5,0
160,128,140896,1,4
288,128,141296,1,0
416,128,141696,1,8
416,192,141896,1,0
416,256,142096,1,0
352,256,142296,1,4
288,256,142496,1,8
160,256,142896,6,0,L|160:96,1,140,0|8
160,64,143496,2,0,L|320:64,1,140,0|0
352,64,144096,1,8
224,128,144496,5,4
224,128,144696,1,0
224,128,144896,1,4
224,128,145096,1,4
224,128,145296,1,4
224,128,145496,1,0
224,128,145696,1,4
224,128,145896,1,4
224,128,146096,1,4
288,256,146496,5,0
416,256,146896,1,0
416,224,146996,1,0
416,192,147096,1,0
416,64,147496,1,0
384,64,147596,1,0
352,64,147696,1,0
288,64,147896,1,0
224,64,148096,5,8
160,64,148296,1,0
160,96,148396,1,0
160,128,148496,1,0
160,192,148696,1,0
224,192,148896,5,8
288,192,149096,2,0,B|288:288,2,70,0|0|0
224,192,149696,5,8
160,192,149896,1,0
160,256,150096,1,0
160,256,150296,5,0
224,256,150496,1,8
224,256,150696,1,0
224,256,150896,1,0
288,256,151096,5,0
320,256,151196,1,0
352,256,151296,1,8
416,256,151496,1,0
416,192,151696,1,0
416,128,151896,1,0
416,96,151996,1,0
416,64,152096,1,8
352,32,152296,1,0
288,64,152496,2,0,B|128:64,1,140,0|8
96,32,153096,2,0,B|32:96,1,70
32,128,153496,1,0
64,160,153596,1,0
96,192,153696,1,8
96,256,153896,1,0
96,320,154096,2,0,B|224:384|384:320,1,280,0|0
437,323,155096,5,0
448,256,155296,1,8
448,224,155396,1,0
448,192,155496,1,0
448,128,155696,2,0,B|384:80|304:128,1,140,0|8
256,96,156296,1,0
192,64,156496,1,0
128,64,156696,1,0
64,96,156896,6,0,B|64:256,2,140,8|0|8
128,96,157896,1,0
192,96,158096,1,0
192,128,158196,1,0
192,160,158296,1,0
192,192,158396,1,0
192,224,158496,1,0
192,288,158696,1,0
352,160,159296,5,0
480,160,159696,1,0
480,192,159796,1,0
480,224,159896,1,0
384,320,160296,1,0
352,320,160396,1,0
320,320,160496,1,0
256,320,160696,1,0
256,320,160896,5,8
256,256,161096,1,0
256,256,161196,1,0
256,256,161296,1,0
320,256,161496,1,0
320,192,161696,5,8
320,192,161896,2,0,B|224:192,2,70,0|0|0
384,192,162496,5,8
384,192,162596,1,0
384,192,162696,1,0
384,128,162896,1,0
384,128,163096,5,0
320,128,163296,1,8
320,192,163496,1,0
320,224,163596,1,0
320,256,163696,1,0
256,256,163896,5,0
192,256,164096,1,8
128,256,164296,1,0
128,320,164496,1,0
192,320,164696,1,0
224,320,164796,1,0
256,320,164896,1,8
320,320,165096,1,0
384,320,165296,2,0,B|384:160,1,140,0|8
448,160,165896,2,0,B|416:96,1,70
384,96,166196,1,0
352,96,166296,1,0
301,144,166496,1,8
352,192,166696,1,0
416,224,166896,2,0,B|384:384|192:336,1,280,0|0
160,288,167896,5,0
96,256,168096,1,8
32,224,168296,1,0
64,160,168496,2,0,B|80:80|192:64,1,140,0|8
224,96,169096,1,0
288,128,169296,1,0
352,96,169496,1,0
416,128,169696,1,8
480,160,169896,1,0
448,224,170096,6,0,B|320:288|160:216,1,280,0|0
115,257,171096,1,0
96,192,171296,1,8
96,160,171396,1,0
96,128,171496,1,0
96,96,171596,1,0
96,64,171696,1,0
224,64,172096,5,0
352,64,172496,1,0
448,64,172796,1,0
448,160,173096,1,0
256,192,173296,12,4,176496
128,64,189096,5,0
128,128,189296,1,0
128,256,189696,2,0,L|416:256,1,280,8|8
480,160,190896,1,0
416,64,191296,1,8
288,64,191696,5,0
160,64,192096,2,0,L|160:352,1,280,8|8
64,256,193296,1,0
64,128,193696,2,0,L|224:128,1,140,8|0
288,224,194496,2,0,L|448:224,1,140,8|0
288,224,195296,6,0,B|288:64,2,140,8|0|8
288,288,196296,1,0
352,288,196496,1,0
448,192,196896,1,8
448,128,197096,1,0
448,64,197296,1,0
320,96,197696,5,8
256,96,197896,1,0
192,96,198096,1,0
128,96,198296,1,0
64,96,198496,1,8
64,160,198696,1,0
64,224,198896,1,4
64,224,199096,5,0
64,224,199296,1,4
64,224,199496,1,4
64,224,199696,1,4
64,224,199896,1,4
64,224,200096,1,4
192,224,200496,5,0
320,224,200896,1,0
384,224,201096,1,4
288,320,201496,1,0
288,320,201596,1,0
288,320,201696,1,0
288,320,201796,1,0
288,320,201896,1,0
224,320,202096,1,4
96,320,202496,5,0
96,192,202896,1,0
160,192,203096,1,4
192,64,203496,1,0
192,64,203696,1,4
64,64,204096,5,0
64,192,204496,1,0
96,224,204596,1,0
128,256,204696,1,0
256,256,205096,1,0
288,224,205196,1,0
320,192,205296,1,0
384,192,205496,1,0
384,192,205696,5,8
384,256,205896,1,0
384,256,205996,1,0
384,256,206096,1,0
448,256,206296,1,0
448,256,206496,5,8
448,192,206696,2,0,B|448:96,2,70,0|0|0
384,192,207296,5,8
384,192,207496,1,0
384,128,207696,1,0
384,128,207896,5,0
320,128,208096,1,8
256,128,208296,1,0
256,128,208496,1,0
192,128,208696,5,0
160,128,208796,1,0
128,128,208896,1,8
64,128,209096,1,0
64,192,209296,1,0
64,192,209396,1,0
64,192,209496,1,0
64,256,209696,1,8
64,320,209896,1,0
128,320,210096,2,0,B|288:320,1,140,0|8
337,317,210696,2,0,B|433:317,1,70
464,277,211096,1,0
439,251,211196,1,0
416,224,211296,1,8
367,173,211496,1,0
320,224,211696,2,0,B|160:224,1,140,0|8
110,227,212296,1,0
40,228,212496,1,0
32,160,212696,5,0
64,96,212896,1,8
96,96,212996,1,0
128,96,213096,1,0
160,160,213296,2,0,B|224:208|304:160,1,140,0|0
352,128,213896,1,0
416,96,214096,1,8
480,128,214296,1,0
480,192,214496,6,0,B|320:192,2,140,8|0|8
480,256,215496,1,0
416,256,215696,1,0
384,256,215796,1,0
352,256,215896,1,0
320,256,215996,1,0
288,256,216096,1,8
224,256,216296,1,4
96,96,216896,5,0
96,224,217296,1,0
96,224,217396,1,0
96,224,217496,1,0
160,224,217696,1,0
224,224,217896,1,0
224,224,217996,1,0
224,224,218096,1,0
288,224,218296,1,0
288,224,218496,5,8
352,224,218696,1,0
352,224,218796,1,0
352,224,218896,1,0
416,224,219096,1,0
416,224,219296,5,8
416,160,219496,2,0,B|416:64,2,70,0|0|0
352,160,220096,5,8
352,160,220196,1,0
352,160,220296,1,0
288,160,220496,1,0
288,160,220696,5,0
224,160,220896,1,8
160,160,221096,1,0
160,192,221196,1,0
160,224,221296,1,0
160,288,221496,5,0
96,288,221696,1,8
32,288,221896,1,0
32,224,222096,1,0
32,160,222296,1,0
64,128,222396,1,0
96,96,222496,1,8
160,64,222696,1,0
224,64,222896,2,0,B|320:192,1,140,0|8
256,224,223496,2,0,B|256:320,1,70
288,320,223796,1,0
320,352,223896,1,0
384,320,224096,1,8
352,256,224296,1,0
416,224,224496,2,0,B|416:64,1,140,0|8
352,128,225096,2,0,B|288:64,1,70
256,32,225496,5,0
192,64,225696,1,8
128,64,225896,1,0
160,128,226096,2,0,B|144:208|32:224,1,140,0|8
64,288,226696,1,0
128,320,226896,1,0
192,288,227096,1,0
160,224,227296,1,8
96,192,227496,1,0
96,128,227696,6,0,B|384:128,1,280
448,128,228696,1,0
448,192,228896,1,8
448,224,228996,1,0
448,256,229096,1,0
448,320,229296,1,4
320,320,229696,5,0
192,320,230096,1,0
192,224,230396,1,0
192,128,230696,1,0
256,192,230896,12,4,234096
