osu file format v14

[General]
AudioFilename: GET THE WORLD.mp3
AudioLeadIn: 0
PreviewTime: 65172
Countdown: 0
SampleSet: Soft
StackLeniency: 0.7
Mode: 0
LetterboxInBreaks: 0
WidescreenStoryboard: 0

[Editor]
Bookmarks: 21100,83858
DistanceSpacing: 1.3
BeatDivisor: 4
GridSize: 32
TimelineZoom: 1.1

[Metadata]
Title:GET THE WORLD
TitleUnicode:GET THE WORLD
Artist:Kageyama Hironobu
ArtistUnicode:影山ヒロノブ
Creator:smallboat
Version:Easy
Source:爆走兄弟レッツ&ゴー!!WGP
Tags:四驱兄弟 ばくそうきょうだいレッツ&ゴー!! コロコロコミック Koshita Tetsuhiro anime opening tv size game card XEBEC world grand prix Mini toy four wheel drive car machine track race hot blood
BeatmapID:690409
BeatmapSetID:308733

[Difficulty]
HPDrainRate:2
CircleSize:2
OverallDifficulty:2.2
ApproachRate:2.5
SliderMultiplier:0.7
SliderTickRate:1

[Events]
//Background and Video events
0,0,"bg.jpg",0,0
Video,-380,"video.avi"
//Break Periods
2,26652,30644
//Storyboard Layer 0 (Background)
//Storyboard Layer 1 (Fail)
//Storyboard Layer 2 (Pass)
//Storyboard Layer 3 (Foreground)
//Storyboard Sound Samples

[TimingPoints]
1100,344.94653328734,4,2,1,60,1,0
1100,-100,4,2,1,60,0,0
1789,344.94653328734,4,2,1,70,1,0
1789,-100,4,2,1,70,0,0
4548,-100,4,2,1,65,0,0
6963,-100,4,2,2,60,0,0
7308,-100,4,2,2,70,0,0
10067,-100,4,2,2,70,0,0
12827,-100,4,2,2,75,0,0
15587,-100,4,2,2,60,0,0
16966,-100,4,2,2,70,0,0
21106,-100,4,2,1,70,0,0
22140,-100,4,2,1,65,0,0
23175,-100,4,2,3,65,0,0
23520,-100,4,2,1,65,0,0
23865,-100,4,2,2,65,0,0
25417,-100,4,2,2,75,0,0
25935,-100,4,2,2,70,0,0
26452,-100,4,2,1,75,0,0
26970,-100,4,2,2,60,0,0
28694,-100,4,2,3,60,0,0
29039,-100,4,2,2,60,0,0
31454,-100,4,2,3,60,0,0
31626,-100,4,2,2,60,0,0
32144,-100,4,2,2,65,0,0
34903,-100,4,2,2,60,0,0
37663,-100,4,2,2,65,0,0
41630,-100,4,2,1,65,0,0
41975,-100,4,2,3,65,0,0
42147,-100,4,2,1,65,0,0
42492,-100,4,2,3,75,0,0
42837,-100,4,2,1,75,0,0
43182,-100,4,2,2,60,0,0
45424,-100,4,2,3,60,0,0
45597,-100,4,2,2,60,0,0
46632,-100,4,2,3,60,0,0
46976,-100,4,2,2,60,0,0
47321,-100,4,2,3,70,0,0
47494,-100,4,2,2,60,0,0
48184,-100,4,2,3,60,0,0
48356,-100,4,2,2,60,0,0
49391,-100,4,2,3,60,0,0
49736,-100,4,2,2,60,0,0
51461,-100,4,2,3,60,0,0
51806,-100,4,2,2,60,0,0
52151,-100,4,2,3,65,0,0
52496,-100,4,2,2,60,0,0
52668,-100,4,2,1,70,0,0
53186,-100,4,2,2,70,0,0
54910,-100,4,2,2,75,0,0
55773,-100,4,2,3,65,0,0
55945,-100,4,2,2,75,0,0
56290,-100,4,2,3,60,0,0
56635,-100,4,2,2,55,0,0
57670,-100,4,2,3,60,0,0
58015,-100,4,2,2,55,0,0
58187,-100,4,2,1,65,0,0
58532,-100,4,2,3,65,0,0
58705,-100,4,2,1,40,0,0
59050,-100,4,2,3,55,0,0
59395,-100,4,2,1,40,0,0
59740,-100,4,2,1,65,0,0
60084,-100,4,2,2,65,0,0
63706,-100,4,2,1,65,0,0
64224,-100,4,2,2,60,0,0
64569,-100,4,2,2,70,0,0
65259,-100,4,2,2,75,0,1
67501,-100,4,2,3,60,0,1
67673,-100,4,2,2,75,0,1
70260,-100,4,2,3,65,0,1
70433,-100,4,2,2,75,0,1
73020,-100,4,2,3,75,0,1
73192,-100,4,2,2,75,0,1
74917,-100,4,2,1,70,0,1
76297,-100,4,2,2,75,0,1
79746,-100,4,2,3,70,0,1
80091,-100,4,2,2,75,0,1
81816,-100,4,2,1,85,0,0
82678,-100,4,2,3,55,0,0
82851,-100,4,2,1,85,0,0
83368,-100,4,2,2,90,0,0
83886,-100,4,2,2,75,0,0
84576,346.820809248555,4,2,2,80,1,0
85963,-100,4,2,3,60,0,0
86136,-100,4,2,2,70,0,0
86656,-100,4,2,2,75,0,0
87350,-100,4,2,1,65,0,0
89258,-100,4,2,1,70,0,0

[Colours]
Combo1 : 0,168,0
Combo2 : 179,0,0
Combo3 : 0,108,240
Combo4 : 232,232,0

[HitObjects]
40,177,1100,6,0,B|93:170|93:170|135:128,1,105,0|4,0:0|0:0,0:0:0:0:
184,60,1961,2,0,L|253:48,1,70
341,70,2651,2,0,L|410:58,2,70
369,156,3686,2,0,L|472:140,1,105
500,226,4548,6,0,L|396:241,1,105,4|0,0:0|0:0,0:0:0:0:
319,291,5410,2,0,P|341:318|387:329,2,70
286,204,6445,2,0,B|235:199|235:199|186:218,1,105,0|12,0:0|0:0,0:0:0:0:
123,284,7308,6,0,L|53:291,1,70,0|14,0:0|0:0,0:0:0:0:
8,212,7998,1,0,0:0:0:0:
55,134,8342,1,14,0:0:0:0:
109,61,8687,2,0,P|57:42|-3:62,2,105,2|4|10,0:0|0:0|0:0,0:0:0:0:
160,135,10067,5,0,0:0:0:0:
144,224,10412,1,12,0:0:0:0:
147,314,10757,2,0,P|186:303|217:272,1,70,0|6,0:0|0:0,0:0:0:0:
294,256,11447,2,0,P|296:310|263:355,2,105,2|4|8,0:0|0:0|0:0,0:0:0:0:
243,180,12827,5,0,0:0:0:0:
264,91,13172,1,12,0:0:0:0:
328,27,13517,2,0,L|397:36,1,70,0|12,0:0|0:0,0:0:0:0:
447,112,14207,2,0,P|482:75|484:14,2,105,2|4|8,0:0|0:0|0:0,0:0:0:0:
372,163,15586,6,0,L|380:232,1,70,0|14,0:0|0:0,0:0:0:0:
295,266,16276,2,0,L|286:196,1,70,0|14,0:0|0:0,0:0:0:0:
199,226,16966,2,0,L|207:295,1,70,4|12,0:0|0:0,0:0:0:0:
134,349,17656,2,0,L|65:365,1,70,4|10,0:0|0:0,0:0:0:0:
25,283,18346,6,0,L|93:266,1,70,4|8,0:0|0:0,0:0:0:0:
175,228,19036,2,0,P|140:184|86:177,2,105,2|4|4,0:0|0:0|0:0,0:0:0:0:
220,306,20416,2,0,P|254:301|284:283,1,70,0|8,0:0|0:0,0:0:0:0:
343,214,21106,6,0,P|324:184|296:164,1,70,2|0,0:0|0:0,0:0:0:0:
258,80,21795,2,0,P|309:75|357:95,2,105,2|2|10,0:0|0:0|0:0,0:0:0:0:
195,147,23175,2,0,L|115:157,1,70,2|8,0:0|0:0,0:0:0:0:
51,208,23865,6,0,P|33:159|47:109,2,105,4|4|4,0:0|0:0|0:0,0:0:0:0:
298,322,25935,6,0,L|298:217,1,105,4|4,0:0|0:0,0:0:0:0:
98,91,32144,5,0,0:0:0:0:
171,144,32489,1,8,0:0:0:0:
258,120,32834,2,0,L|341:113,1,70,0|8,0:0|0:0,0:0:0:0:
418,118,33524,2,0,P|405:67|367:32,2,105,0|0|8,0:0|0:0|0:0,0:0:0:0:
406,208,34903,6,0,L|337:222,1,70,0|8,0:0|0:0,0:0:0:0:
288,298,35593,2,0,L|219:312,1,70,0|8,0:0|0:0,0:0:0:0:
128,312,36283,2,0,P|76:305|41:268,2,105,0|0|8,0:0|0:0|0:0,0:0:0:0:
174,234,37663,5,0,0:0:0:0:
128,155,38008,1,8,0:0:0:0:
159,69,38353,2,0,L|228:60,1,70,0|8,0:0|0:0,0:0:0:0:
313,26,39043,2,0,L|417:35,2,105,0|0|8,0:0|0:0|0:0,0:0:0:0:
320,116,40423,6,0,L|398:122,1,70,0|8,0:0|0:0,0:0:0:0:
446,192,41112,2,0,B|464:241|464:241|448:291,2,105,0|4|4,0:0|0:0|0:0,0:0:0:0:
368,243,42492,2,0,L|298:248,1,70,2|8,0:0|0:0,0:0:0:0:
215,285,43182,5,0,0:0:0:0:
127,311,43527,1,8,0:0:0:0:
38,290,43872,2,0,L|19:215,1,70,0|8,0:0|0:0,0:0:0:0:
18,130,44562,2,0,B|27:79|27:79|69:39,2,105,0|0|8,0:0|0:0|0:0,0:0:0:0:
98,173,45942,6,0,L|166:159,1,70,0|8,0:0|0:0,0:0:0:0:
242,210,46632,2,0,L|310:196,1,70,2|8,0:0|0:0,0:0:0:0:
398,218,47321,2,0,P|372:262|325:284,2,105,2|0|8,0:0|0:0|0:0,0:0:0:0:
415,128,48701,5,0,0:0:0:0:
381,43,49046,1,8,0:0:0:0:
291,59,49391,2,0,L|221:64,1,70,2|8,0:0|0:0,0:0:0:0:
138,102,50081,2,0,P|169:142|219:155,2,105,0|0|8,0:0|0:0|0:0,0:0:0:0:
107,16,51461,6,0,L|37:26,1,70,2|8,0:0|0:0,0:0:0:0:
21,116,52151,2,0,L|17:220,1,105,2|4,0:0|0:0,0:0:0:0:
65,348,53186,5,8,0:0:0:0:
152,372,53530,1,0,0:0:0:0:
237,341,53875,2,0,L|230:271,2,70,8|4|8,0:0|0:0|0:0,0:0:0:0:
328,345,54910,6,0,L|317:235,2,105,0|4|8,0:0|0:0|0:0,0:0:0:0:
416,364,56290,2,0,L|485:353,1,70,2|8,0:0|0:0,0:0:0:0:
493,262,56980,2,0,L|423:272,1,70,4|8,0:0|0:0,0:0:0:0:
393,187,57670,6,0,B|425:144|425:144|474:131,2,105,2|4|8,0:0|0:0|0:0,0:0:0:0:
306,214,59050,1,2,0:0:0:0:
231,161,59395,2,0,L|224:91,1,70,8|4,0:0|0:0,0:0:0:0:
165,21,60084,5,0,0:0:0:0:
76,41,60429,1,0,0:0:0:0:
21,113,60774,2,0,L|27:182,1,70,8|0,0:0|0:0,0:0:0:0:
82,255,61464,1,8,0:0:0:0:
69,345,61809,6,0,L|138:336,1,70,0|8,0:0|0:0,0:0:0:0:
216,288,62499,2,0,L|285:279,1,70,4|8,0:0|0:0,0:0:0:0:
373,302,63189,2,0,P|347:347|300:367,2,105,4|4|8,0:0|0:0|0:0,0:0:0:0:
397,214,64569,1,8,0:0:0:0:
378,124,64914,1,8,0:0:0:0:
344,39,65259,6,0,L|274:33,1,70,4|0,0:0|0:0,0:0:0:0:
210,98,65949,2,0,L|140:92,1,70,0|12,0:0|0:0,0:0:0:0:
48,100,66638,2,0,P|56:49|93:13,2,105,0|4|12,0:0|0:0|0:0,0:0:0:0:
68,188,68018,2,0,L|137:178,1,70,0|12,0:0|0:0,0:0:0:0:
211,231,68708,6,0,L|280:221,1,70,0|12,0:0|0:0,0:0:0:0:
356,271,69398,2,0,B|353:323|353:323|317:361,2,105,0|4|8,0:0|0:0|0:0,0:0:0:0:
394,188,70778,2,0,L|463:177,1,70,0|12,0:0|0:0,0:0:0:0:
469,86,71468,6,0,L|399:96,1,70,0|8,0:0|0:0,0:0:0:0:
309,83,72158,2,0,P|328:36|372:9,2,105,0|4|8,0:0|0:0|0:0,0:0:0:0:
304,172,73537,2,0,P|271:165|242:145,1,70,0|8,0:0|0:0,0:0:0:0:
206,61,74227,2,0,P|177:41|143:33,1,70,0|8,0:0|0:0,0:0:0:0:
55,56,74917,6,0,L|59:125,1,70,4|4,0:0|0:0,0:0:0:0:
29,211,75607,2,0,L|33:280,1,70,4|0,0:0|0:0,0:0:0:0:
82,358,76297,2,0,P|116:355|147:338,1,70,4|8,0:0|0:0,0:0:0:0:
207,268,76987,6,0,P|244:233|295:223,2,105,0|4|12,0:0|0:0|0:0,0:0:0:0:
286,313,78367,2,0,L|353:330,1,70,0|8,0:0|0:0,0:0:0:0:
400,251,79057,2,0,L|467:268,1,70,4|8,0:0|0:0,0:0:0:0:
490,180,79746,2,0,P|487:127|463:82,2,105,2|4|4,0:0|0:0|0:0,0:0:0:0:
402,151,81126,6,0,P|367:151|335:136,1,70,0|8,0:0|0:0,0:0:0:0:
279,64,81816,2,0,B|229:45|229:45|178:57,2,105,4|4|4,0:0|0:0|0:0,0:0:0:0:
256,336,83886,6,0,P|204:327|164:294,1,105,4|4,0:0|0:0,0:0:0:0:
115,166,84922,2,0,P|54:196|29:260,2,140,8|8|8,0:0|0:0|0:0,0:0:0:0:
204,184,86656,6,0,B|256:198|256:198|305:184,1,105,4|0,0:0|0:0,0:0:0:0:
256,192,87350,12,4,89431,0:0:0:0:
