osu file format v14

[General]
AudioFilename: Kage - OPunravelzenover.mp3
AudioLeadIn: 0
PreviewTime: 62855
Countdown: 0
SampleSet: None
StackLeniency: 0.3
Mode: 0
LetterboxInBreaks: 0
WidescreenStoryboard: 0

[Editor]
Bookmarks: 69355,76022,82244,83133
DistanceSpacing: 0.5
BeatDivisor: 6
GridSize: 4
TimelineZoom: 1.3

[Metadata]
Title:unravel
TitleUnicode:unravel
Artist:Kage
ArtistUnicode:Kage
Creator:GoldenWolf
Version:woof
Source:Tokyo Ghoul
Tags:東京喰種OP zenoアレンジver
BeatmapID:464704
BeatmapSetID:195925

[Difficulty]
HPDrainRate:6
CircleSize:4.2
OverallDifficulty:8.5
ApproachRate:9.3
SliderMultiplier:1.6
SliderTickRate:1

[Events]
//Background and Video events
0,0,"orz70.jpg",0,0
//Break Periods
2,89769,93460
//Storyboard Layer 0 (Background)
//Storyboard Layer 1 (Fail)
//Storyboard Layer 2 (Pass)
//Storyboard Layer 3 (Foreground)
//Storyboard Sound Samples

[TimingPoints]
7,444.444444444444,4,2,1,40,1,0
895,-200,4,2,1,40,0,0
2006,-200,4,2,1,15,0,0
2229,-200,4,2,1,40,0,0
2451,-200,4,2,1,15,0,0
2673,-200,4,2,1,40,0,0
3148,444.444444444444,4,2,1,40,1,0
3148,-200,4,2,1,40,0,0
3592,444.444444444444,4,2,1,15,1,0
3592,-200,4,2,1,15,0,0
3814,-200,4,2,1,40,0,0
4036,-200,4,2,1,15,0,0
4258,-200,4,2,1,40,0,0
4703,-200,4,2,1,15,0,0
5147,-200,4,2,1,40,0,0
5784,444.444444444444,4,2,1,40,1,0
5784,-200,4,2,1,40,0,0
7098,444.444444444444,4,2,1,35,1,0
8860,444.444444444444,4,3,7,60,1,0
8860,-125,4,3,7,60,0,0
9305,-125,4,2,5,50,0,0
12194,-125,4,3,7,60,0,0
12860,-125,4,2,5,50,0,0
15527,-125,4,3,4,70,0,0
15971,-125,4,3,1,40,0,0
16194,-125,4,3,4,70,0,0
16416,-125,4,2,5,50,0,0
19305,-125,4,3,7,60,0,0
19971,-125,4,2,5,50,0,0
21749,-125,4,3,4,40,0,0
22194,-125,4,3,4,50,0,0
22416,-125,4,3,4,60,0,0
22638,-125,4,3,4,75,0,0
23083,-125,4,3,7,60,0,0
23305,-125,4,3,3,60,0,0
23527,-125,4,2,5,50,0,0
26194,-125,4,3,4,60,0,0
26638,-125,4,3,1,60,0,0
26916,-125,4,3,7,60,0,0
28416,-125,4,3,3,60,0,0
28749,-125,4,3,7,60,0,0
30194,-83.3333333333333,4,2,4,80,0,0
30305,-83.3333333333333,4,2,1,60,0,0
31305,-83.3333333333333,4,2,1,30,0,0
31416,-83.3333333333333,4,2,1,45,0,0
31527,-83.3333333333333,4,2,1,60,0,0
31638,-83.3333333333333,4,3,7,60,0,0
31971,-83.3333333333333,4,3,1,60,0,0
32083,-83.3333333333333,4,3,7,60,0,0
32860,-83.3333333333333,4,3,1,60,0,0
32971,-83.3333333333333,4,3,7,60,0,0
33305,-83.3333333333333,4,3,3,60,0,0
33794,444.444444444444,4,3,4,65,1,0
33794,-71.4285714285714,4,3,4,65,0,0
38682,-71.4285714285714,4,3,4,35,0,0
38793,-71.4285714285714,4,3,4,45,0,0
38905,-71.4285714285714,4,3,4,55,0,0
39016,-71.4285714285714,4,3,4,65,0,0
39127,-71.4285714285714,4,3,7,65,0,0
42349,-71.4285714285714,4,2,1,20,0,0
42689,444.444444444444,4,3,6,100,1,0
42911,-100,4,3,6,40,0,0
44466,-100,4,3,6,80,0,0
44577,-100,4,3,6,40,0,0
46244,-100,4,3,6,80,0,0
46355,-100,4,3,6,40,0,0
47355,-100,4,3,6,60,0,0
47577,-100,4,3,6,40,0,0
48022,-100,4,3,6,70,0,0
48133,-100,4,3,6,40,0,0
53355,-100,4,3,6,80,0,0
53466,-100,4,3,6,40,0,0
54466,-100,4,3,6,70,0,0
54576,-100,4,3,6,40,0,0
56022,-100,4,3,4,60,0,0
56911,-83.3333333333333,4,3,1,65,0,0
57133,-83.3333333333333,4,3,4,65,0,0
59577,-83.3333333333333,4,3,3,65,0,0
60022,-83.3333333333333,4,3,0,65,0,0
60244,-83.3333333333333,4,3,4,80,0,0
60466,-83.3333333333333,4,3,4,65,0,0
61355,-83.3333333333333,4,3,1,75,0,0
61466,-83.3333333333333,4,3,4,35,0,0
61577,-83.3333333333333,4,3,4,45,0,0
61688,-83.3333333333333,4,3,4,65,0,0
61800,-83.3333333333333,4,3,0,65,0,0
61911,-83.3333333333333,4,3,4,65,0,0
62244,-83.3333333333333,4,3,3,65,0,0
63133,-83.3333333333333,4,3,2,65,0,0
64022,-71.4285714285714,4,3,1,90,0,1
64244,-71.4285714285714,4,3,4,65,0,1
71133,-71.4285714285714,4,3,3,85,0,1
71244,-71.4285714285714,4,3,4,65,0,1
78244,-71.4285714285714,4,3,1,85,0,1
78466,-71.4285714285714,4,3,4,65,0,1
80022,-71.4285714285714,4,3,2,65,0,1
80244,-71.4285714285714,4,3,4,65,0,1
81577,-71.4285714285714,4,3,2,65,0,1
81688,-71.4285714285714,4,3,4,65,0,1
83577,-71.4285714285714,4,3,1,75,0,1
84688,-71.4285714285714,4,3,1,55,0,1
85355,-71.4285714285714,4,3,1,85,0,1
85577,-71.4285714285714,4,3,4,65,0,1
87133,-71.4285714285714,4,3,1,75,0,1
87355,-71.4285714285714,4,3,4,65,0,1
88461,444.444444444444,4,3,4,65,1,1
88903,444.444444444444,4,3,1,70,1,0
88903,-71.4285714285714,4,3,1,70,0,0
93791,-200,4,2,1,40,0,0

[Colours]
Combo1 : 110,70,210
Combo2 : 210,70,110
Combo3 : 70,110,210
Combo4 : 210,110,70

[HitObjects]
128,152,1562,5,2,0:0:0:0:
192,92,1784,2,0,P|216:88|248:88,1,40,2|0,0:0|0:0,0:0:0:0:
284,168,2229,2,0,P|307:174|336:188,1,40,2|0,0:0|0:0,0:0:0:0:
335,275,2673,1,2,0:0:0:0:
340,280,2895,1,2,0:0:0:0:
156,280,3369,6,0,P|137:264|116:239,1,40,2|0,0:0|0:0,0:0:0:0:
155,160,3814,2,0,P|145:138|136:107,1,40,2|0,0:0|0:0,0:0:0:0:
256,116,4258,2,0,P|264:152|260:196,1,80,2|0,0:0|0:0,0:0:0:0:
68,200,5147,1,2,0:0:0:0:
64,196,5370,1,2,0:0:0:0:
208,280,6006,5,2,0:0:0:0:
284,324,6229,2,0,P|324:328|364:320,1,80,2|2,0:0|0:0,0:0:0:0:
428,260,6895,1,2,0:0:0:0:
428,260,8653,5,2,0:0:0:0:
464,96,8860,1,6,0:3:0:0:
468,100,9083,1,6,0:3:0:0:
428,260,9305,1,2,0:3:0:0:
348,324,9527,2,0,P|284:336|224:320,1,128,0|0,0:0|0:0,0:0:0:0:
284,140,10194,2,0,P|348:128|408:144,1,128,2|0,0:3|0:0,0:0:0:0:
292,248,11083,1,2,0:3:0:0:
200,124,11971,1,2,0:3:0:0:
328,36,12194,5,4,0:0:0:0:
292,248,12416,1,6,0:0:0:0:
296,252,12638,1,6,0:0:0:0:
136,188,12860,1,2,0:3:0:0:
80,116,13083,2,0,L|76:52,1,64
136,188,13527,1,0,0:0:0:0:
192,260,13750,2,0,L|196:324,1,64,2|0,0:3|0:0,0:0:0:0:
104,332,14638,5,2,0:3:0:0:
36,208,15083,1,2,2:3:0:0:
100,156,15305,1,2,2:3:0:0:
180,176,15527,1,2,2:3:0:0:
104,332,15749,2,0,P|72:320|48:300,1,64,4|2,2:3|2:3,0:0:0:0:
188,100,16194,2,0,P|220:112|244:132,1,64,4|2,2:3|0:3,0:0:0:0:
280,280,16860,1,0,0:0:0:0:
340,340,17083,2,0,L|404:348,1,64,0|2,0:0|0:3,0:0:0:0:
308,208,17527,6,0,P|276:204|244:212,1,64
380,232,17971,2,0,P|384:200|376:168,1,64,0|2,0:0|0:3,0:0:0:0:
176,184,18416,2,0,P|172:216|180:248,1,64,0|0,0:0|0:0,0:0:0:0:
340,340,18860,2,0,L|404:328,1,64,0|2,0:0|0:3,0:0:0:0:
452,196,19305,5,4,0:0:0:0:
360,36,19527,1,6,0:0:0:0:
364,40,19749,1,6,0:0:0:0:
364,40,20194,1,0,0:0:0:0:
312,104,20416,2,0,P|252:124|188:112,1,128,0|2,0:0|0:3,0:0:0:0:
364,40,21083,1,0,0:0:0:0:
452,196,21749,5,2,2:3:0:0:
340,340,22194,1,2,2:3:0:0:
244,276,22416,1,2,2:3:0:0:
260,136,22638,2,0,P|284:116|316:104,1,64,2|4,2:3|2:3,0:0:0:0:
340,340,23083,1,6,0:0:0:0:
136,364,23305,1,6,0:0:0:0:
40,184,23527,2,0,L|36:116,1,64,2|0,0:3|0:0,0:0:0:0:
384,36,24194,1,0,0:0:0:0:
468,108,24416,2,0,P|484:176|472:232,1,128,2|0,2:3|2:0,0:0:0:0:
384,344,25305,5,2,2:3:0:0:
380,348,25749,1,2,2:3:0:0:
376,352,26194,1,2,2:3:0:0:
212,328,26638,6,0,L|208:300,1,16,10|8,0:0|0:0,0:0:0:0:
340,224,26860,2,0,L|344:252,1,16,10|4,0:0|0:0,0:0:0:0:
296,304,27027,1,4,0:0:0:0:
152,184,27305,1,6,0:0:0:0:
148,172,27749,1,6,0:0:0:0:
144,160,28194,1,6,0:0:0:0:
208,88,28416,5,14,0:0:0:0:
304,224,28749,1,12,0:0:0:0:
212,312,28971,1,12,0:0:0:0:
212,312,29083,1,12,0:0:0:0:
208,88,29305,1,14,0:0:0:0:
208,88,29417,1,12,0:0:0:0:
316,308,29638,2,0,L|312:340,1,32,12|12,0:0|0:0,0:0:0:0:
140,276,29860,1,4,0:0:0:0:
140,276,29916,1,4,0:0:0:0:
140,276,29971,2,0,L|144:244,1,32,4|4,0:0|0:0,0:0:0:0:
328,128,30194,6,0,L|376:120,2,47.9999985351563,2|0|0,0:3|0:0|0:0,0:0:0:0:
144,152,30638,1,0,0:0:0:0:
132,116,30749,1,0,0:0:0:0:
252,264,30971,1,0,0:0:0:0:
240,300,31082,1,0,0:0:0:0:
52,248,31305,1,8,0:3:0:0:
48,240,31360,1,8,0:3:0:0:
44,232,31416,1,8,0:3:0:0:
40,224,31471,1,0,0:3:0:0:
36,216,31527,1,12,0:3:0:0:
140,276,31638,1,4,0:0:0:0:
136,284,31694,1,4,0:0:0:0:
132,292,31749,2,0,L|84:316,1,47.9999985351563,4|4,0:0|0:0,0:0:0:0:
56,140,31971,5,14,0:0:0:0:
56,140,32083,1,12,0:0:0:0:
320,216,32305,1,12,0:0:0:0:
4,312,32527,1,12,0:0:0:0:
4,312,32639,1,12,0:0:0:0:
252,188,32860,1,14,0:0:0:0:
252,188,32972,1,12,0:0:0:0:
0,68,33194,1,12,0:0:0:0:
0,68,33306,1,14,0:0:0:0:
0,68,33794,6,0,P|28:60|56:60,1,55.9999982910157,14|4,0:0|0:0,0:0:0:0:
96,144,34016,2,0,P|68:152|40:152,1,55.9999982910157,12|4,0:0|0:0,0:0:0:0:
136,76,34238,2,0,P|156:96|170:120,1,55.9999982910157,12|4,0:0|0:0,0:0:0:0:
168,200,34460,2,0,P|160:228|146:252,1,55.9999982910157,12|4,0:0|0:0,0:0:0:0:
76,296,34682,2,0,L|48:300,3,27.9999991455078,12|0|4|0,0:0|0:0|0:0|0:0,0:0:0:0:
148,348,34905,2,0,L|176:344,3,27.9999991455078,12|0|4|0,0:0|0:0|0:0|0:0,0:0:0:0:
252,260,35127,2,0,L|224:264,3,27.9999991455078,12|0|4|0,0:0|0:0|0:0|0:0,0:0:0:0:
324,312,35350,2,0,L|352:308,3,27.9999991455078,12|0|4|0,0:0|0:0|0:0|0:0,0:0:0:0:
412,216,35571,6,0,L|416:160,1,55.9999982910157,12|4,0:0|0:0,0:0:0:0:
476,268,35794,2,0,L|472:324,1,55.9999982910157,12|4,0:0|0:0,0:0:0:0:
316,192,36016,2,0,P|316:164|324:132,1,55.9999982910157,12|4,0:0|0:0,0:0:0:0:
400,292,36238,2,0,P|400:320|392:352,1,55.9999982910157,12|4,0:0|0:0,0:0:0:0:
248,348,36460,2,0,L|220:344,3,27.9999991455078,12|0|4|0,0:0|0:0|0:0|0:0,0:0:0:0:
252,260,36682,2,0,L|229:242,3,27.9999991455078,12|0|4|0,0:0|0:0|0:0|0:0,0:0:0:0:
156,280,36905,2,0,L|128:276,3,27.9999991455078,12|0|4|0,0:0|0:0|0:0|0:0,0:0:0:0:
160,192,37127,2,0,L|137:174,3,27.9999991455078,12|0|4|0,0:0|0:0|0:0|0:0,0:0:0:0:
236,148,37349,5,12,0:0:0:0:
236,148,37460,1,4,0:0:0:0:
48,268,37682,1,4,0:0:0:0:
48,268,37793,1,12,0:0:0:0:
248,348,38016,1,4,0:0:0:0:
248,348,38127,1,4,0:0:0:0:
300,104,38349,1,4,0:0:0:0:
300,104,38460,1,4,0:0:0:0:
244,268,38682,5,8,0:0:0:0:
236,272,38738,1,8,0:0:0:0:
228,276,38793,1,8,0:0:0:0:
220,280,38849,1,8,0:0:0:0:
212,284,38905,1,8,0:0:0:0:
204,288,38960,1,8,0:0:0:0:
196,292,39016,1,8,0:0:0:0:
188,296,39071,1,8,0:0:0:0:
156,304,39127,6,0,L|128:300,7,27.9999991455078,8|4|4|4|4|4|4|4,0:0|0:0|0:0|0:0|0:0|0:0|0:0|0:0,0:0:0:0:
120,224,39571,2,0,L|96:208,8,27.9999991455078,8|4|4|4|4|4|4|4|8,0:0|0:0|0:0|0:0|0:0|0:0|0:0|0:0|0:0,0:0:0:0:
16,300,40127,5,2,0:2:0:0:
24,317,40182,1,2,0:2:0:0:
35,333,40238,1,4,0:0:0:0:
48,348,40293,1,2,0:2:0:0:
63,360,40349,1,2,0:2:0:0:
80,370,40404,1,2,0:2:0:0:
112,360,40460,5,4,0:0:0:0:
130,353,40515,1,2,0:2:0:0:
149,349,40571,1,4,0:0:0:0:
169,348,40626,1,2,0:2:0:0:
188,351,40682,1,2,0:2:0:0:
207,356,40737,1,2,0:2:0:0:
224,368,40793,2,0,L|252:364,1,27.9999991455078,4|2,0:0|0:2,0:0:0:0:
224,368,42423,5,0,0:0:0:0:
328,312,42689,2,0,P|340:256|328:188,2,120,6|2|2,2:3|2:0|2:0,0:0:0:0:
88,320,44022,1,0,2:0:0:0:
40,236,44244,1,0,2:0:0:0:
88,152,44466,2,0,B|96:112|96:112|88:72|88:72|96:32,2,120,2|2|2,2:3|2:0|2:0,0:0:0:0:
184,356,45577,2,0,L|208:364,1,20,2|2,2:0|2:0,0:0:0:0:
388,232,46022,5,0,2:0:0:0:
336,116,46244,2,0,P|272:104|212:116,2,120,2|2|2,2:3|2:0|2:0,0:0:0:0:
388,232,47355,1,2,2:0:0:0:
300,320,47800,1,0,2:0:0:0:
216,256,48022,2,0,B|176:252|176:252|140:264|140:264|96:260,2,120,2|2|2,2:0|2:0|2:0,0:0:0:0:
380,312,49133,1,2,2:0:0:0:
272,192,49577,5,0,2:0:0:0:
260,88,49800,1,2,2:0:0:0:
348,32,50022,1,0,2:0:0:0:
348,32,50133,2,0,P|404:48|464:40,1,120,0|2,2:0|2:0,0:0:0:0:
272,192,50911,2,0,L|268:236,1,26.6666666666667,2|0,2:0|2:0,0:0:0:0:
428,160,51281,1,2,2:0:0:0:
204,120,51577,2,0,P|176:168|188:240,2,120,6|2|2,2:0|2:0|2:0,0:0:0:0:
428,160,52688,1,2,2:0:0:0:
212,300,53355,6,0,L|156:304,1,53.3333333333333,2|0,2:0|2:0,0:0:0:0:
92,224,53726,1,2,2:0:0:0:
120,124,53948,1,2,2:0:0:0:
212,300,54466,1,2,2:0:0:0:
312,248,54688,2,0,P|352:240|392:248,1,80,0|0,2:0|2:0,0:0:0:0:
120,124,55133,2,0,B|116:84|116:84|124:44|124:44|120:4,2,120,2|2|2,2:0|2:0|2:0,0:0:0:0:
212,300,56022,5,2,2:3:0:0:
388,188,56466,2,0,L|368:192,1,20,8|8,0:0|0:0,0:0:0:0:
208,100,56688,2,0,L|228:104,1,20,8|4,0:0|0:0,0:0:0:0:
356,264,56911,1,6,0:0:0:0:
136,320,57133,1,8,0:0:0:0:
136,320,57244,1,6,0:0:0:0:
296,152,57466,1,8,0:0:0:0:
296,152,57577,5,6,0:0:0:0:
244,372,57800,1,4,0:0:0:0:
208,100,58022,1,10,0:0:0:0:
208,100,58133,2,0,L|216:52,1,47.9999985351563,4|2,0:0|2:3,0:0:0:0:
356,264,58355,5,8,0:0:0:0:
292,296,58466,1,14,0:0:0:0:
220,296,58577,1,10,0:0:0:0:
160,256,58688,1,0,0:0:0:0:
384,196,58911,1,8,0:0:0:0:
384,196,59022,1,6,0:0:0:0:
160,256,59244,1,10,0:0:0:0:
160,256,59355,5,4,0:0:0:0:
356,264,59577,2,0,L|360:312,1,47.9999985351563,10|8,0:0|0:0,0:0:0:0:
184,364,59800,1,10,0:0:0:0:
184,364,59911,1,4,0:0:0:0:
184,364,60022,1,8,0:0:0:0:
108,352,60133,1,8,0:0:0:0:
32,340,60244,5,6,0:0:0:0:
256,228,60466,1,4,0:0:0:0:
0,268,60688,1,8,0:0:0:0:
0,268,60800,1,6,0:0:0:0:
280,328,61022,1,10,0:0:0:0:
280,328,61134,1,4,0:0:0:0:
20,192,61355,6,0,L|32:144,1,47.9999985351563,6|8,0:0|0:0,0:0:0:0:
96,56,61577,1,8,0:0:0:0:
107,51,61632,1,8,0:0:0:0:
118,47,61688,1,4,0:0:0:0:
130,45,61743,1,4,0:0:0:0:
142,44,61799,1,8,0:0:0:0:
154,44,61854,1,8,0:0:0:0:
166,45,61910,1,4,0:0:0:0:
177,47,61965,1,4,0:0:0:0:
189,51,62022,2,0,P|216:60|240:60,1,47.9999985351563,12|10,0:0|0:0,0:0:0:0:
308,32,62244,1,10,0:0:0:0:
376,92,63022,5,4,0:0:0:0:
376,92,63077,1,4,0:0:0:0:
376,92,63133,2,0,B|392:132|392:132|380:172|380:172|404:224|388:280,1,191.999994140625
316,244,64022,6,0,P|356:204|412:196,1,111.999996582031,6|0,0:0|0:0,0:0:0:0:
364,320,64355,2,0,P|309:334|256:313,1,111.999996582031,6|0,0:0|0:0,0:0:0:0:
224,208,64688,2,0,L|220:152,1,55.9999982910157,6|0,0:0|0:0,0:0:0:0:
308,368,64911,1,6,0:0:0:0:
132,336,65133,1,4,0:0:0:0:
316,244,65355,1,10,0:0:0:0:
316,244,65466,2,0,L|320:188,1,55.9999982910157,4|0,0:0|0:0,0:0:0:0:
216,384,65688,1,10,0:0:0:0:
216,384,65800,6,0,B|180:384|180:384|144:364|144:364|108:364,1,111.999996582031,4|0,0:0|0:0,0:0:0:0:
196,308,66133,2,0,P|252:316|288:356,1,111.999996582031,6|0,0:0|0:0,0:0:0:0:
124,292,66466,2,0,L|120:236,1,55.9999982910157,6|0,0:0|0:0,0:0:0:0:
172,88,66688,1,10,0:0:0:0:
240,60,66800,1,10,0:0:0:0:
312,72,66911,1,6,0:0:0:0:
124,292,67133,1,10,0:0:0:0:
104,304,67244,2,0,L|48:308,1,55.9999982910157,4|0,0:0|0:0,0:0:0:0:
200,164,67466,1,10,0:0:0:0:
220,152,67577,6,0,P|276:144|332:160,1,111.999996582031,6|0,0:0|0:0,0:0:0:0:
172,232,67911,2,0,B|136:220|136:220|100:220|100:220|60:208,1,111.999996582031,6|0,0:0|0:0,0:0:0:0:
268,228,68244,1,6,0:0:0:0:
392,152,68466,1,10,0:0:0:0:
404,80,68577,1,10,0:0:0:0:
416,8,68688,1,6,0:0:0:0:
328,280,68911,2,0,P|356:292|384:296,1,55.9999982910157,10|4,0:0|0:0,0:0:0:0:
316,164,69133,2,0,P|288:152|260:148,1,55.9999982910157,0|10,0:0|0:0,0:0:0:0:
172,232,69355,6,0,L|168:272,2,37.3333321940105,6|2|2,0:0|0:2|0:2,0:0:0:0:
100,208,69577,2,0,L|79:242,2,37.3333321940105,2|2|2,0:2|0:2|0:2,0:0:0:0:
56,144,69800,1,0,0:0:0:0:
52,125,69874,1,0,0:0:0:0:
52,107,69948,1,0,0:0:0:0:
55,88,70022,5,4,0:0:0:0:
88,70,70096,1,2,0:2:0:0:
124,66,70170,1,2,0:2:0:0:
161,72,70244,1,2,0:2:0:0:
196,86,70318,1,2,0:2:0:0:
230,102,70392,1,2,0:2:0:0:
265,113,70466,1,4,0:0:0:0:
302,117,70540,1,2,0:2:0:0:
339,114,70614,1,2,0:2:0:0:
375,104,70688,1,10,0:0:0:0:
364,139,70762,1,2,0:2:0:0:
359,176,70836,1,2,0:2:0:0:
361,213,70910,1,2,0:2:0:0:
369,250,70984,1,2,0:2:0:0:
384,284,71058,1,2,0:2:0:0:
404,316,71133,6,0,P|452:356|504:360,1,111.999996582031,6|0,0:0|0:0,0:0:0:0:
448,240,71466,2,0,P|386:229|339:252,1,111.999996582031,4|0,0:0|0:0,0:0:0:0:
292,304,71800,2,0,L|236:296,1,55.9999982910157,6|0,0:0|0:0,0:0:0:0:
164,320,72022,1,10,0:0:0:0:
284,216,72244,1,4,0:0:0:0:
296,144,72355,1,4,0:0:0:0:
308,72,72466,2,0,L|300:16,1,55.9999982910157,10|4,0:0|0:0,0:0:0:0:
204,172,72688,2,0,L|212:228,1,55.9999982910157,0|10,0:0|0:0,0:0:0:0:
228,52,72911,6,0,P|145:67|90:128,1,167.999994873047,6|4,0:0|0:0,0:0:0:0:
284,216,73355,2,0,L|340:220,1,55.9999982910157,6|0,0:0|0:0,0:0:0:0:
364,76,73577,2,0,L|308:72,1,55.9999982910157,6|0,0:0|0:0,0:0:0:0:
204,172,73800,1,10,0:0:0:0:
128,196,73911,1,10,0:0:0:0:
52,176,74022,1,6,0:0:0:0:
228,52,74244,1,10,0:0:0:0:
228,52,74355,1,4,0:0:0:0:
268,292,74577,1,10,0:0:0:0:
268,292,74688,6,0,B|324:300|324:300|380:288|380:288|436:296,2,167.999994873047,6|6|6,0:0|0:0|0:0,0:0:0:0:
128,196,75577,2,0,P|116:140|128:84,1,111.999996582031,10|6,0:0|0:0,0:0:0:0:
256,140,76022,1,10,0:0:0:0:
258,147,76096,1,2,0:2:0:0:
260,154,76170,1,2,0:2:0:0:
262,161,76244,1,2,0:2:0:0:
264,168,76318,1,2,0:2:0:0:
266,175,76392,1,2,0:2:0:0:
268,182,76466,5,6,0:0:0:0:
293,209,76540,1,2,0:2:0:0:
327,223,76614,1,2,0:2:0:0:
364,223,76688,1,2,0:2:0:0:
398,209,76762,1,2,0:2:0:0:
423,182,76836,1,2,0:2:0:0:
436,147,76911,1,2,0:2:0:0:
399,140,76985,1,2,0:2:0:0:
362,143,77059,1,2,0:2:0:0:
328,159,77133,1,6,0:0:0:0:
302,185,77207,1,2,0:2:0:0:
279,214,77281,1,2,0:2:0:0:
246,232,77355,1,6,0:0:0:0:
209,234,77429,1,2,0:2:0:0:
174,221,77503,1,2,0:2:0:0:
147,196,77577,1,6,0:0:0:0:
132,162,77651,1,2,0:2:0:0:
130,125,77725,1,2,0:2:0:0:
146,91,77800,1,10,0:0:0:0:
170,118,77874,1,2,0:2:0:0:
187,151,77948,1,2,0:2:0:0:
196,188,78022,1,2,0:2:0:0:
196,225,78096,1,2,0:2:0:0:
187,261,78170,1,2,0:2:0:0:
169,294,78244,6,0,P|152:312|124:328,1,55.9999982910157,6|0,0:0|0:0,0:0:0:0:
0,272,78466,1,6,0:0:0:0:
0,272,78577,2,0,L|4:328,1,55.9999982910157,0|4,0:0|0:0,0:0:0:0:
224,372,78911,1,6,0:0:0:0:
400,236,79133,2,0,P|408:180|392:128,1,111.999996582031,10|6,0:0|0:0,0:0:0:0:
280,256,79577,1,6,0:0:0:0:
472,304,79800,1,6,0:0:0:0:
480,232,79911,1,10,0:0:0:0:
488,160,80022,6,0,B|490:124|490:124|480:88|480:88|482:48,1,111.999996582031,6|6,0:0|0:0,0:0:0:0:
472,304,80466,1,6,0:0:0:0:
280,256,80688,1,6,0:0:0:0:
228,64,80911,1,10,0:0:0:0:
300,32,81022,1,0,0:0:0:0:
300,32,81133,1,6,0:0:0:0:
388,224,81355,2,0,L|384:280,1,55.9999982910157,6|8,0:0|0:0,0:0:0:0:
244,356,81577,1,10,0:0:0:0:
172,344,81688,1,10,0:0:0:0:
124,288,81800,6,0,L|120:232,1,55.9999982910157,6|0,0:0|0:0,0:0:0:0:
228,64,82022,2,0,L|232:120,1,55.9999982910157,6|0,0:0|0:0,0:0:0:0:
26,266,82244,1,6,0:0:0:0:
12,244,82318,1,2,0:2:0:0:
4,220,82392,1,2,0:2:0:0:
0,194,82466,1,2,0:2:0:0:
1,168,82540,1,2,0:2:0:0:
8,142,82614,1,2,0:2:0:0:
20,119,82688,6,0,L|16:64,1,55.9999982910157,10|0,0:0|0:0,0:0:0:0:
120,232,82911,2,0,L|124:287,1,55.9999982910157,6|0,0:0|0:0,0:0:0:0:
294,248,83133,1,6,0:0:0:0:
308,226,83207,1,2,0:2:0:0:
316,202,83281,1,2,0:2:0:0:
320,176,83355,1,2,0:2:0:0:
319,150,83429,1,2,0:2:0:0:
312,124,83503,1,2,0:2:0:0:
300,101,83577,5,6,0:0:0:0:
228,64,84244,1,6,0:0:0:0:
156,27,84688,1,4,0:0:0:0:
144,32,84744,1,4,0:0:0:0:
132,36,84800,1,4,0:0:0:0:
120,40,84855,1,4,0:0:0:0:
108,44,84911,2,0,P|84:60|68:84,1,55.9999982910157,4|4,0:0|0:0,0:0:0:0:
112,168,85133,2,0,P|136:152|152:128,1,55.9999982910157,8|8,0:0|0:0,0:0:0:0:
228,64,85355,6,0,P|284:52|340:60,1,111.999996582031,6|6,0:0|0:0,0:0:0:0:
428,188,85800,1,2,0:0:0:0:
336,316,86022,2,0,L|280:324,1,55.9999982910157,6|0,0:0|2:0,0:0:0:0:
372,196,86244,2,0,L|428:188,1,55.9999982910157,10|0,0:0|2:0,0:0:0:0:
212,292,86466,1,6,0:0:0:0:
228,64,86688,1,6,0:0:0:0:
297,28,86799,1,4,0:0:0:0:
374,28,86910,1,4,0:0:0:0:
444,63,87021,1,4,0:0:0:0:
490,125,87133,6,0,P|504:184|492:236,1,111.999996582031,6|4,0:0|0:0,0:0:0:0:
336,316,87577,1,0,0:0:0:0:
232,120,87800,2,0,L|228:64,1,55.9999982910157,6|0,0:0|2:0,0:0:0:0:
372,196,88022,2,0,L|376:252,1,55.9999982910157,10|0,0:0|2:0,0:0:0:0:
336,316,88244,1,4,0:0:0:0:
260,332,88355,1,4,0:0:0:0:
184,348,88461,5,4,0:0:0:0:
108,328,88572,1,4,0:0:0:0:
68,260,88683,1,4,0:0:0:0:
88,184,88795,1,4,0:0:0:0:
148,132,88903,5,6,0:0:0:0:
232,120,89569,1,6,0:0:0:0:
232,120,94014,5,2,0:0:0:0:
312,156,94236,2,0,P|320:188|316:224,1,70,2|2,0:0|0:0,0:0:0:0:
244,280,94875,1,2,0:0:0:0:
124,160,95291,1,2,0:0:0:0:
120,152,95736,1,2,0:0:0:0:
