osu file format v12

[General]
AudioFilename: -One Night(Instrumental Version).mp3
AudioLeadIn: 0
PreviewTime: 10933
Countdown: 0
SampleSet: Soft
StackLeniency: 0.7
Mode: 0
LetterboxInBreaks: 0
WidescreenStoryboard: 0

[Editor]
DistanceSpacing: 1
BeatDivisor: 4
GridSize: 4

[Metadata]
Title:One Night(Instrumental Version)
TitleUnicode:One Night(Instrumental Version)
Artist:Kagaya Rei
ArtistUnicode:加贺谷玲
Creator:TatsumiAlicekawa
Version:Easy
Source:Night on the Galactic Railroad
Tags:Kawaiwkyik
BeatmapID:327817
BeatmapSetID:129804

[Difficulty]
HPDrainRate:3
CircleSize:3
OverallDifficulty:2
ApproachRate:3
SliderMultiplier:1
SliderTickRate:1

[Events]
//Background and Video events
0,0,"bbff163765b23c54e854978e66453c5b.jpg",0,0
//Break Periods
//Storyboard Layer 0 (Background)
//Storyboard Layer 1 (Fail)
//Storyboard Layer 2 (Pass)
//Storyboard Layer 3 (Foreground)
//Storyboard Sound Samples
//Background Colour Transformations
3,100,163,162,255

[TimingPoints]
684,705.882352941176,4,2,1,30,1,0
684,-100,4,2,1,25,0,0
11272,-100,4,2,1,30,0,0
59978,-100,4,2,1,35,0,1
68448,-100,4,2,1,35,0,1
76962,833.333333333333,4,2,1,30,1,0
76962,-100,4,2,1,25,0,0
78633,1153.84615384615,4,2,1,25,1,0
85120,909.090909090909,4,2,1,25,1,0

[Colours]
Combo1 : 128,0,255
Combo2 : 215,0,215
Combo3 : 0,179,179
Combo4 : 0,0,149

[HitObjects]
59,59,684,102,0,P|140:123|154:134,1,100
145,220,2095,2,0,P|226:284|240:295,1,100
322,264,3507,2,0,P|403:328|417:339,1,100
495,295,4919,1,0,0:0:0:0:
298,255,6331,6,0,P|366:247|402:211,1,100
321,154,7742,2,0,P|369:126|413:130,1,100
475,52,9154,1,2,0:0:0:0:
374,51,9860,1,2,0:0:0:0:
273,52,10566,1,4,0:0:0:0:
126,187,11978,6,0,P|145:246|178:275,2,100,2|0|0,0:0|0:0|0:0,0:0:0:0:
225,180,14095,2,0,P|206:121|173:92,2,100,0|2|0,0:0|0:0|0:0,0:0:0:0:
124,177,16213,1,0,0:0:0:0:
172,264,16919,1,0,0:0:0:0:
267,236,17625,6,0,P|326:255|357:287,1,100,0|2,0:0|0:0,0:0:0:0:
429,344,19036,2,0,P|481:306|489:274,1,100,0|2,0:0|0:0,0:0:0:0:
488,173,20448,2,0,L|489:68,1,100,0|2,0:0|0:0,0:0:0:0:
395,38,21860,1,0,0:0:0:0:
194,37,23272,22,0,L|92:37|93:37,2,100,2|0|0,0:0|0:0|0:0,0:0:0:0:
287,72,25389,1,0,0:0:0:0:
195,112,26095,2,0,B|212:150|228:163|255:173|277:174,1,100,2|0,0:0|0:0,0:0:0:0:
364,201,27507,1,2,0:0:0:0:
459,316,28566,6,0,L|393:316,1,50
258,310,29978,2,0,L|201:310,1,50
58,304,31389,2,0,L|8:304,1,50
58,113,33154,6,0,P|122:83|130:98,1,100
224,100,34566,6,0,L|280:67,2,50,2|0|0,0:0|0:0|0:0,0:0:0:0:
123,94,35978,1,0,0:0:0:0:
210,44,36683,2,0,L|312:45,2,100,0|0|0,0:0|0:0|0:0,0:0:0:0:
274,120,38801,1,2,0:0:0:0:
275,169,39154,1,2,0:0:0:0:
275,218,39507,2,0,P|305:260|360:275,1,100,2|0,0:0|0:0,0:0:0:0:
378,179,40919,22,0,L|485:179,1,100,0|0,0:0|0:0,0:0:0:0:
498,224,41978,1,0,0:0:0:0:
479,270,42331,2,0,L|368:269,1,100,0|0,0:0|0:0,0:0:0:0:
279,271,43742,2,0,L|218:271,2,50
240,178,45154,5,0,0:0:0:0:
212,136,45507,2,0,L|172:80,1,50
83,78,46566,1,0,0:0:0:0:
26,160,47272,1,0,0:0:0:0:
126,160,47978,2,0,P|163:217|201:233,1,100
286,203,49389,2,0,P|249:146|211:130,1,100
222,32,50801,6,0,L|278:32,1,50
322,32,51507,2,0,L|387:32|389:32,2,50
374,117,52919,2,0,P|400:181|380:221,1,100
346,296,54331,1,2,0:0:0:0:
253,333,55036,1,0,0:0:0:0:
256,192,55742,12,0,58566,0:0:0:0:
206,191,59272,70,0,L|316:191,1,100,2|4,0:0|0:0,0:0:0:0:
385,130,60683,2,0,L|459:55,1,100,2|0,0:0|0:0,0:0:0:0:
356,40,62095,2,0,L|245:41,1,100,2|0,0:0|0:0,0:0:0:0:
106,52,63860,6,0,L|56:85,1,50,0|2,0:0|0:0,0:0:0:0:
63,129,64566,1,0,0:0:0:0:
63,178,64919,1,0,0:0:0:0:
63,228,65272,2,0,L|20:266,1,50,0|2,0:0|0:0,0:0:0:0:
172,288,66683,2,0,L|146:343,1,50,0|2,0:0|0:0,0:0:0:0:
248,308,67742,1,2,0:0:0:0:
320,240,68448,1,4,0:0:0:0:
331,140,69154,6,0,L|222:140,1,100
138,102,70566,1,2,0:0:0:0:
238,99,71272,2,0,L|336:159,3,100,2|2|2|2,0:0|0:0|0:0|0:0,0:0:0:0:
374,236,74095,38,0,P|317:250|274:237,1,100,2|0,0:0|0:0,0:0:0:0:
178,232,75507,38,0,P|121:246|78:233,1,100
45,201,76566,1,0,0:0:0:0:
15,163,76962,1,2,0:0:0:0:
211,124,78628,5,2,0:0:0:0:
256,192,80940,12,4,85120,0:0:0:0:
