osu file format v7

[General]
AudioFilename: Butterfly on your right shoulder - RinLen.mp3
AudioLeadIn: 0
PreviewTime: 28136
Countdown: 0
SampleSet: Normal
StackLeniency: 0.7
Mode: 0
LetterboxInBreaks: 1

[Editor]
Bookmarks: 15933,17470,18817,20000,28930,38550,43320,64642,86423
DistanceSpacing: 0.600000023841858
BeatDivisor: 4
GridSize: 8

[Metadata]
Title:Migikata no Chou
Artist:Kagamine Rin and Len
Creator:Clement
Version:Normal
Source:VOCALOID2
Tags:butterfly NoriP H-boy clare

[Difficulty]
HPDrainRate:2
CircleSize:4
OverallDifficulty:2
SliderMultiplier:1.4
SliderTickRate:2

[Events]
//Background and Video events
0,0,"3313586fce94e0f480cb4a22.jpg"
//Break Periods
2,89623,102005
//Storyboard Layer 0 (Background)
//Storyboard Layer 1 (Fail)
//Storyboard Layer 2 (Pass)
//Storyboard Layer 3 (Foreground)
//Storyboard Sound Samples
//Background Colour Transformations
3,100,163,162,255

[TimingPoints]
708,428.571428571429,4,1,0,86,1,0
27963,-100,4,1,0,100,0,0
38208,-100,4,1,0,100,0,0
69077,-100,4,1,0,86,0,1
89546,-100,4,1,0,86,0,0
144922,-100,4,1,0,86,0,1
151798,-100,4,1,0,86,0,0
163350,-100,4,1,0,86,0,1
178638,-100,4,1,0,86,0,0
191636,-200,4,1,0,86,0,0
194206,-100,4,1,0,86,0,0
198493,-100,4,1,0,90,0,0

[Colours]
Combo1 : 255,128,0
Combo2 : 255,255,0
Combo3 : 0,128,255

[HitObjects]
72,88,13565,2,0,B|200:88,1,105,0|0
176,152,14208,2,0,B|176:232,1,70
104,264,14850,1,8
176,320,15279,1,0
240,264,15708,1,8
304,320,16137,1,0
368,264,16565,1,8
360,176,16993,2,8,B|304:96|240:184,1,140
256,192,17851,12,0,21280
256,184,21708,5,8
192,232,22136,1,0
128,184,22565,1,8
128,184,22993,2,0,B|32:128|144:80,1,140,0|8
216,88,23850,1,0
304,88,24279,1,8
376,144,24708,1,8
408,176,24922,1,8
384,208,25136,1,8
312,256,25565,5,0
232,256,25993,1,8
152,248,26422,2,0,B|40:216|160:136,1,140,0|8
216,160,27279,2,0,B|368:160,1,140,0|8
440,160,28136,6,0,B|440:264,2,70,0|8|0
352,160,28993,1,8
264,160,29422,1,0
176,160,29851,1,8
88,160,30280,1,0
88,240,30708,2,8,B|136:240|136:240|160:208|160:208|224:208,1,140,8|8
296,208,31565,6,0,B|296:312,2,70,0|8|0
208,208,32422,1,8
144,160,32851,1,0
208,104,33280,1,8
296,104,33709,1,0
376,104,34137,2,0,B|376:152|376:152|408:176|408:176|408:240,1,140,8|8
328,232,34993,5,0
264,288,35422,1,8
184,288,35850,1,0
120,232,36279,1,8
120,232,36708,6,0,B|168:232|168:232|192:200|192:200|256:200,1,140,0|8
288,200,37350,1,8
328,200,37565,1,8
440,320,38422,5,0
440,240,38850,1,8
440,200,39065,1,8
440,160,39279,2,0,B|392:160|392:160|392:128|392:128|352:128|352:128|352:104,1,140,8|0
272,120,40136,1,0
192,152,40565,1,0
256,208,40993,2,0,B|312:280|400:184,1,140
376,208,41850,1,4
376,120,42280,5,0
312,176,42708,1,8
264,104,43137,1,0
208,168,43566,1,8
160,96,43994,1,8
160,96,44208,1,8
160,96,44422,2,0,B|112:96|112:96|112:136|112:136|40:136,1,140,8|0
16,208,45279,5,0
56,280,45708,1,8
104,208,46137,1,0
144,280,46566,1,8
192,208,46994,1,0
240,280,47423,1,8
288,208,47850,2,8,B|336:208|336:208|360:176|360:176|424:176,1,140,0|0
472,176,48708,1,4
472,88,49137,5,0
392,80,49566,1,8
328,128,49994,1,0
392,184,50423,1,8
320,232,50851,1,0
392,280,51280,1,8
320,320,51708,1,0
240,320,52136,6,8,B|88:320,1,140
176,280,52993,2,8,B|344:280,1,140
248,240,53851,2,8,B|80:240,1,140,8|8
72,216,54493,1,8
104,184,54708,1,8
256,72,55566,5,0
256,152,55994,2,0,B|416:152,2,140,8|0|8
256,240,57280,1,0
176,240,57708,1,8
176,240,58136,2,0,B|176:192|176:192|128:192|128:192|128:144,1,140,0|8
200,96,58993,1,0
280,64,59422,1,8
368,64,59851,6,0,B|512:200|360:312,1,280
288,296,61136,1,8
200,296,61566,2,0,B|56:160|208:48,1,280
264,72,62851,6,0,B|376:64|320:168,1,140,8|0
256,192,63708,2,0,B|144:200|200:96,1,140,8|0
120,160,64566,1,8
80,232,64994,1,0
120,304,65423,1,8
256,192,65850,12,0,68422
112,136,69279,6,0,B|256:136,3,140
192,192,70993,1,0
120,232,71422,1,8
192,272,71851,1,0
120,312,72279,1,8
192,272,72708,1,0
272,272,73136,1,8
280,192,73565,2,0,B|128:192,1,140,0|8
144,104,74423,6,8,B|240:104,3,70
216,144,75279,2,0,L|248:160|216:168|248:176|216:192|248:200|216:216|248:232|216:248|240:256,1,280
280,304,76566,1,8
344,248,76994,1,0
408,192,77423,1,8
408,192,77850,2,8,L|304:192|304:192|304:144|304:144|144:144,1,280,8|8
88,144,79137,1,4
256,192,79566,12,0,81708
144,168,82137,6,0,B|304:168,1,140
264,248,82993,2,8,B|336:248,1,70
376,256,83422,1,0
416,248,83636,2,8,B|416:160,1,70
328,184,84279,2,0,B|344:88|248:104,2,140
248,160,85566,1,8
184,312,86423,5,0
264,312,86851,1,8
352,312,87280,1,0
416,256,87708,1,8
360,184,88137,1,0
304,120,88566,2,0,B|192:304|88:112,1,280,0|4
256,192,103565,12,0,105708
160,104,106994,6,0,B|328:104,2,140
160,192,108280,2,0,B|160:352,2,140
240,216,109566,5,0
312,264,109994,1,0
360,192,110422,6,8,B|264:192,2,70,8|0|8
360,104,111279,2,8,B|440:104,2,70,8|0|8
272,104,112136,1,0
192,120,112565,1,0
128,168,112993,2,0,B|144:232,4,35,8|0|8|0|8
176,240,113850,6,0,B|338:237,1,140,0|8
376,176,114708,2,0,B|225:177,1,140,0|8
192,104,115565,2,0,B|347:103,1,140,0|8
312,192,116422,1,0
232,168,116850,1,0
160,120,117280,6,0,B|240:16|336:192|432:96,1,280
416,192,118566,1,8
456,264,118994,1,0
384,312,119423,1,8
304,312,119851,1,0
224,312,120280,1,8
144,312,120708,5,0
64,304,121136,2,0,B|160:192,1,140
155,197,121779,1,8
155,197,121993,1,8
240,176,122423,2,8,B|304:240|224:304,1,140
320,272,123280,2,0,B|320:104,2,140
256,192,124566,12,0,126280
480,48,126708,5,0
392,48,127137,1,8
304,48,127566,1,0
216,48,127994,1,8
216,136,128423,1,0
304,136,128851,1,8
304,224,129280,1,0
304,304,129708,2,0,B|144:304,2,140,8|0|8
288,136,131423,5,8
232,192,131851,1,0
176,136,132280,1,8
120,80,132708,1,0
80,152,133137,1,8
136,216,133565,2,0,B|296:216,1,140,0|8
360,216,134422,1,0
240,336,135279,1,8
120,216,136137,1,8
144,80,136994,6,0,B|0:336,1,280
96,320,138280,1,8
160,272,138708,1,0
224,224,139137,1,8
304,224,139566,1,0
304,144,139994,2,0,B|152:144,1,140,8|0
232,64,140851,2,8,B|64:64,1,140,8|4
256,192,141708,12,0,144708
464,48,145137,5,8
384,48,145566,1,0
304,48,145994,1,8
304,128,146423,1,0
224,128,146851,1,8
144,128,147280,1,0
144,208,147708,5,8
224,208,148137,1,0
224,288,148566,1,8
304,288,148994,1,0
384,288,149423,1,4
384,208,149850,6,8,B|304:160,3,70
288,192,150707,6,0,B|272:160|272:160|256:192|256:192|240:160|240:160|224:192|224:192|208:160|208:160|192:192|192:192|176:160|176:160|160:192,1,280,8|0
160,64,151994,6,0,B|320:64,1,140,0|8
320,144,152851,2,0,B|320:304,1,140,0|8
240,304,153708,2,0,B|64:304,1,140,0|8
64,232,154566,2,0,B|64:80,1,140,0|8
152,88,155423,1,0
232,88,155851,1,8
320,88,156280,1,4
256,192,156708,12,0,158422
88,320,158850,6,0,B|216:224,1,140,0|8
264,184,159708,2,0,B|376:96,1,140,0|8
304,56,160565,1,8
264,56,160779,1,8
224,56,160993,1,8
184,72,161208,1,0
152,104,161422,6,0,B|256:216,2,140
232,136,162708,1,0
280,64,163136,1,0
280,64,163565,2,8,B|368:64,3,70
392,72,164422,6,0,B|392:360,1,280
320,312,165708,1,0
272,248,166137,1,8
224,176,166566,1,0
136,176,166994,1,8
136,88,167423,1,0
224,88,167851,1,8
96,152,168708,5,0
96,152,169137,1,8
96,152,169566,1,0
72,232,169994,1,8
72,232,170423,1,0
152,224,170851,1,8
152,224,171280,1,0
232,224,171708,1,8
232,224,172137,1,0
312,216,172566,6,0,B|312:64,1,140,0|8
400,72,173423,2,0,B|400:232,1,140,0|8
376,296,174280,1,0
296,296,174708,1,0
216,296,175137,1,4
136,296,175565,5,0
64,256,175993,1,0
136,208,176422,1,0
264,208,177065,1,0
264,208,177279,2,0,L|320:208|320:208|352:176|352:176|392:176,2,140
384,88,178994,6,8,B|224:88,1,140
176,136,179851,2,8,B|120:288,1,140
200,304,180708,2,8,B|368:304,1,140
344,216,181566,1,8
408,168,181994,1,8
352,104,182423,5,8
272,104,182851,2,0,B|120:104,2,140
272,192,184137,1,8
272,280,184566,1,0
344,328,184994,1,8
432,280,185423,1,0
368,224,185851,6,0,B|64:224,1,280
96,144,187137,1,0
176,144,187566,1,0
176,224,187993,5,0
224,224,188208,1,8
272,224,188422,1,8
272,304,188850,2,0,B|416:304,1,140
424,224,189708,5,8
424,144,190137,2,0,B|128:144,1,280
64,168,191423,1,8
120,216,191850,2,4,B|-64:448|240:344,1,350
304,304,194422,1,8
368,256,194850,1,0
256,192,195280,12,4,198280
129,136,198707,5,8
196,186,198922,1,8
261,133,199136,1,8
326,185,199350,1,8
386,134,199565,1,4
