osu file format v12

[General]
AudioFilename: rinoriginal_wasurenbou.mp3
AudioLeadIn: 496
PreviewTime: 496
Countdown: 0
SampleSet: Normal
StackLeniency: 0.7
Mode: 0
LetterboxInBreaks: 1
WidescreenStoryboard: 0

[Editor]
DistanceSpacing: 0.8
BeatDivisor: 2
GridSize: 8

[Metadata]
Title:Wasurenbou
TitleUnicode:Wasurenbou
Artist:Kagamine Rin
ArtistUnicode:Kagamine Rin
Creator:AcidSnow1
Version:pro... to... what? i forgot the difficulty name
Source:Agoaniki P
Tags:nico nico douga vocaloid vocaloid2 niconicodouga niconico nicovideo nicosound
BeatmapID:291950
BeatmapSetID:112383

[Difficulty]
HPDrainRate:6
CircleSize:4
OverallDifficulty:6
ApproachRate:6
SliderMultiplier:1.6
SliderTickRate:2

[Events]
//Background and Video events
0,0,"newbg.jpg",0,0
//Break Periods
//Storyboard Layer 0 (Background)
//Storyboard Layer 1 (Fail)
//Storyboard Layer 2 (Pass)
//Storyboard Layer 3 (Foreground)
//Storyboard Sound Samples
//Background Colour Transformations
3,100,192,160,80

[TimingPoints]
788,389.61038961039,4,1,0,80,1,0

[HitObjects]
336,96,788,2,0,B|432:96|432:224,1,160
400,256,1567,2,0,B|240:192,1,160
224,192,2151,1,0,0:0:0:0:
160,192,2346,2,0,B|160:320,2,80
160,96,3125,2,0,B|128:96|96:128|96:160,2,80
224,128,3904,6,0,B|256:96|288:128|320:96|352:128|384:96,1,160
448,192,4684,1,0,0:0:0:0:
384,256,4878,1,0,0:0:0:0:
320,192,5073,1,0,0:0:0:0:
192,224,5463,1,0,0:0:0:0:
128,160,5658,1,0,0:0:0:0:
64,224,5852,1,0,0:0:0:0:
64,64,6242,1,0,0:0:0:0:
192,96,6632,1,4,0:0:0:0:
352,64,7021,6,0,B|352:192|256:64,1,160
256,128,7606,1,0,0:0:0:0:
256,192,7800,2,0,B|128:192|160:224,2,80
160,288,8580,1,0,0:0:0:0:
192,288,8775,1,0,0:0:0:0:
224,288,8969,1,0,0:0:0:0:
256,288,9164,1,0,0:0:0:0:
288,288,9359,1,0,0:0:0:0:
320,288,9554,1,0,0:0:0:0:
352,288,9749,1,0,0:0:0:0:
352,192,10138,6,0,B|256:96|160:160,1,160
160,192,10723,1,0,0:0:0:0:
160,256,10917,2,0,B|96:256|96:256|96:96,1,160
352,96,11697,1,0,0:0:0:0:
320,128,11891,1,0,0:0:0:0:
288,96,12086,1,0,0:0:0:0:
256,128,12281,1,0,0:0:0:0:
224,96,12476,1,0,0:0:0:0:
192,128,12671,1,0,0:0:0:0:
160,96,12865,1,4,0:0:0:0:
80,152,13255,5,0,0:0:0:0:
112,216,13450,2,0,L|192:184,2,80
120,280,14034,1,0,0:0:0:0:
184,272,14229,1,0,0:0:0:0:
248,288,14424,2,0,P|240:208|256:192,1,80,2|0,0:0|0:0,0:0:0:0:
312,296,14813,1,0,0:0:0:0:
368,256,15008,2,2,B|400:176|424:192|352:176,2,80
304,224,15593,1,0,0:0:0:0:
240,200,15788,2,2,B|288:128|312:144|344:144|344:184,2,80,2|2|0,0:0|0:0|0:0,0:0:0:0:
176,184,16372,1,0,0:0:0:0:
104,176,16567,2,0,B|184:88|192:104|216:128|224:80,1,160
288,112,17151,1,0,0:0:0:0:
344,64,17346,2,0,B|392:128|376:168|344:176|336:184,1,80
344,200,17736,1,0,0:0:0:0:
256,192,17930,12,4,19099,0:0:0:0:
112,192,19489,5,0,0:0:0:0:
152,256,19684,2,0,B|256:192|232:168|208:152|184:168,1,160
128,112,20268,1,0,0:0:0:0:
200,128,20463,2,2,L|296:120,2,80
216,200,21047,1,0,0:0:0:0:
168,256,21242,1,0,0:0:0:0:
224,280,21437,1,0,0:0:0:0:
272,240,21632,1,0,0:0:0:0:
296,184,21826,1,0,0:0:0:0:
344,144,22021,1,0,0:0:0:0:
312,88,22216,1,0,0:0:0:0:
248,104,22411,1,0,0:0:0:0:
208,152,22606,2,2,L|120:104,2,80
176,208,23190,1,0,0:0:0:0:
208,264,23385,2,2,L|104:288,2,80
256,224,23969,1,0,0:0:0:0:
256,192,24164,12,4,25333,0:0:0:0:
136,200,25723,5,0,0:0:0:0:
168,144,25917,1,0,0:0:0:0:
208,96,26112,1,0,0:0:0:0:
272,80,26307,1,8,0:0:0:0:
328,112,26502,1,0,0:0:0:0:
360,168,26697,1,0,0:0:0:0:
352,232,26891,1,0,0:0:0:0:
304,272,27086,1,8,0:0:0:0:
240,288,27281,2,0,L|144:288,2,80
256,224,27865,1,8,0:0:0:0:
184,224,28060,2,0,L|72:224,2,80
120,104,28839,5,0,0:0:0:0:
176,72,29034,1,0,0:0:0:0:
240,64,29229,1,0,0:0:0:0:
304,56,29424,1,8,0:0:0:0:
368,72,29619,1,0,0:0:0:0:
400,128,29813,1,0,0:0:0:0:
400,192,30008,1,0,0:0:0:0:
368,248,30203,1,8,0:0:0:0:
304,256,30398,2,0,L|280:168,3,80
256,192,31177,12,0,31567,0:0:0:0:
320,88,31956,5,0,0:0:0:0:
368,128,32151,1,0,0:0:0:0:
400,184,32346,1,0,0:0:0:0:
368,240,32541,1,2,0:0:0:0:
320,288,32736,2,0,L|216:288,3,80
208,232,33515,1,0,0:0:0:0:
232,168,33710,1,0,0:0:0:0:
224,104,33904,1,0,0:0:0:0:
160,80,34099,1,0,0:0:0:0:
112,128,34294,2,0,L|112:264,2,80
104,224,35073,6,0,L|192:176,3,80
232,208,35852,2,0,L|313:262,3,80
352,216,36632,2,0,L|413:147,3,80
256,192,37411,12,0,37800,0:0:0:0:
144,112,38190,5,0,0:0:0:0:
272,112,38580,1,0,0:0:0:0:
272,112,38775,2,0,L|272:192,1,80
304,216,39164,2,0,B|224:280|248:264|216:304,1,80
211,243,39554,2,0,L|136:176,1,80
176,168,39943,2,0,L|248:96,1,80
264,112,40333,1,0,0:0:0:0:
296,136,40528,2,2,B|400:200|352:256|256:248,1,160
216,248,41307,5,0,0:0:0:0:
152,192,41697,1,0,0:0:0:0:
192,160,41989,2,0,L|192:112,1,40
208,80,42281,1,0,0:0:0:0:
248,64,42476,1,0,0:0:0:0:
288,72,42671,1,0,0:0:0:0:
328,96,42866,1,0,0:0:0:0:
344,144,43061,1,0,0:0:0:0:
336,176,43255,2,2,B|416:232|352:280|336:344,1,160
356,204,44034,5,0,0:0:0:0:
424,216,44229,1,0,0:0:0:0:
463,275,44424,1,8,0:0:0:0:
356,284,44813,5,0,0:0:0:0:
288,272,45008,1,0,0:0:0:0:
249,213,45203,1,8,0:0:0:0:
240,112,45593,5,0,0:0:0:0:
308,124,45788,1,0,0:0:0:0:
347,183,45983,1,8,0:0:0:0:
240,192,46372,5,0,0:0:0:0:
172,180,46567,1,0,0:0:0:0:
133,121,46762,1,8,0:0:0:0:
240,80,47151,6,0,L|328:80,2,80
240,152,47930,2,2,B|384:160|392:216|304:256,1,160
328,280,48710,2,2,B|184:264|128:224|128:216,1,160
160,176,49489,1,2,0:0:0:0:
256,192,49878,12,0,50268,0:0:0:0:
200,64,50658,6,0,P|280:80|320:152,1,160
352,144,51339,2,0,L|352:200,1,40
352,256,51632,2,0,P|368:312|328:336,1,80,0|8,0:0|0:0,0:0:0:0:
288,296,52021,1,0,0:0:0:0:
224,256,52216,2,0,P|208:312|248:336,2,80,0|0|8,0:0|0:0|0:0,0:0:0:0:
224,184,52800,1,0,0:0:0:0:
224,112,52995,2,2,B|120:112|72:160|88:192,1,160
120,184,53775,6,0,B|184:88|224:88|296:136,1,160
288,120,54456,2,0,L|328:112,1,40
368,168,54749,1,0,0:0:0:0:
432,192,54943,2,0,B|432:304|384:296|384:232,1,80,8|0,0:0|0:0,0:0:0:0:
352,296,55333,2,0,P|272:272|256:208,1,80
232,224,55723,2,2,B|176:160|208:120|232:96|184:64,1,160
88,144,56502,5,0,0:0:0:0:
56,208,56697,1,0,0:0:0:0:
88,272,56891,1,8,0:0:0:0:
192,80,57281,5,0,0:0:0:0:
232,144,57476,1,0,0:0:0:0:
200,208,57670,1,8,0:0:0:0:
376,144,58060,5,0,0:0:0:0:
344,208,58255,1,0,0:0:0:0:
376,272,58449,1,8,0:0:0:0:
480,144,58839,6,0,L|424:72,2,80,0|0|8,0:0|0:0|0:0,0:0:0:0:
360,128,59619,1,0,0:0:0:0:
304,176,59813,1,0,0:0:0:0:
360,224,60008,2,2,B|440:256|448:304|432:352|352:352|320:352,2,160
328,304,61177,1,0,0:0:0:0:
280,240,61567,2,2,B|224:304|144:304|112:304,3,160
256,192,63125,12,4,65852,0:0:0:0:
