osu file format v9

[General]
AudioFilename: Kagamine Rin - Transmit.mp3
AudioLeadIn: 0
PreviewTime: 67237
Countdown: 0
SampleSet: Soft
StackLeniency: 0.7
Mode: 0
LetterboxInBreaks: 1

[Editor]
Bookmarks: 12836,26419,60838,65638,104037,139237,182437,196837
DistanceSpacing: 0.9
BeatDivisor: 4
GridSize: 4

[Metadata]
Title:Transmit
Artist:Kagamine Rin
Creator:Eremes 111
Version:Normal
Source:Signal-P
Tags:Dios Devil_Cosmo devil cosmo vocaloid vocaloid2 frans_niko hanemi

[Difficulty]
HPDrainRate:3
CircleSize:4
OverallDifficulty:3
ApproachRate:6
SliderMultiplier:1.5
SliderTickRate:2

[Events]
//Background and Video events
0,0,"BG.jpg"
//Break Periods
2,93020,104570
2,171420,182970
//Storyboard Layer 0 (Background)
//Storyboard Layer 1 (Fail)
//Storyboard Layer 2 (Pass)
//Storyboard Layer 3 (Foreground)
//Storyboard Sound Samples
//Background Colour Transformations
3,100,255,255,255

[TimingPoints]
1620,400,4,2,1,85,1,0
14020,-100,4,1,1,85,0,0
27220,-100,4,2,1,85,0,0
37620,-100,4,1,1,60,0,0
37920,-100,4,1,1,70,0,0
38120,-100,4,1,1,80,0,0
38320,-100,4,2,1,85,0,0
67220,-100,4,2,1,85,0,1
69920,-100,4,1,1,85,0,1
70120,-100,4,2,1,85,0,1
79920,-100,4,2,1,85,0,0
80020,-100,4,2,1,85,0,1
91220,-100,4,1,1,60,0,0
105620,-100,4,2,1,85,0,0
116120,-100,4,1,1,60,0,0
116320,-100,4,1,1,70,0,0
116520,-100,4,1,1,80,0,0
116720,-100,4,1,1,85,0,0
118420,-100,4,2,1,85,0,0
124020,-100,4,1,0,85,0,0
124620,-100,4,2,1,85,0,0
129720,-100,4,1,1,60,0,0
129920,-100,4,1,1,70,0,0
130120,-100,4,1,1,80,0,0
130320,-100,4,1,1,85,0,0
131220,-100,4,2,1,85,0,0
145620,-100,4,2,1,95,0,1
148320,-100,4,1,1,95,0,1
148520,-100,4,2,1,95,0,1
158320,-100,4,2,1,95,0,0
158420,-100,4,2,1,95,0,1
169620,-100,4,1,1,85,0,0
184020,-100,4,2,1,100,0,0
198419,-100,4,1,1,95,0,1
211220,-100,4,1,1,85,0,0
224020,-100,4,1,1,95,0,1
236820,-100,4,1,1,85,0,0

[Colours]
Combo1 : 255,128,0
Combo2 : 0,0,255
Combo3 : 0,128,192
Combo4 : 255,62,255

[HitObjects]
64,160,14420,2,0,B|72:72|152:32|248:88,1,225,0|8
231,79,15220,1,0
168,160,15620,1,8
272,160,16020,2,0,B|264:248|184:288|88:232,1,225,0|8
104,240,16820,1,0
168,160,17220,1,8
232,88,17620,6,0,B|296:32|384:32|456:88,1,225,0|8
408,176,18620,1,0
408,176,18820,1,8
256,192,19220,12,4,20420
144,216,20820,6,0,B|88:136|152:64,1,150,0|8
216,144,21620,1,0
296,232,22020,1,8
368,168,22420,2,0,B|424:248|360:320,1,150,0|8
256,308,23220,1,0
256,308,23620,1,8
160,208,24020,5,0
184,72,24420,1,8
320,72,24820,1,0
344,208,25220,1,8
256,192,25620,12,0,26820
108,88,27220,6,0,B|188:88,1,75
228,140,27620,2,0,B|268:208,1,75,2|0
328,176,28020,1,0
392,160,28220,1,0
424,220,28420,1,2
376,268,28620,1,0
324,312,28820,6,0,B|260:352,1,75
220,296,29220,2,0,B|184:232,1,75,2|0
248,208,29620,1,0
288,156,29820,1,0
240,108,30020,1,2
240,108,30420,6,0,B|172:68,1,75
108,84,30820,1,2
72,140,31020,2,0,B|48:224|96:288,1,150
156,264,31620,1,2
196,208,31820,1,0
252,244,32020,2,0,B|312:132|436:136,1,225
472,192,32820,2,0,B|424:256,1,75,2|0
364,280,33220,2,0,B|292:324,1,75,2|0
232,304,33620,1,4
128,220,34020,5,2
188,100,34420,1,0
240,56,34620,2,0,B|316:56,1,75,0|2
284,116,35020,1,0
352,116,35220,1,0
324,176,35420,2,0,B|400:176,1,75,0|2
468,172,35820,1,2
468,308,36220,6,0,B|468:232,2,75,0|2|0
400,308,36820,1,0
248,240,37820,5,0
244,308,38020,1,0
188,272,38220,1,0
124,268,38420,2,0,B|124:184|172:144|244:140|280:140,1,225
340,124,39220,1,0
400,156,39420,1,0
396,88,39620,1,0
256,64,40020,5,0
120,80,40420,2,0,B|96:184|212:188,1,150,8|0
248,224,41020,2,0,B|272:120|156:116,1,150,8|8
184,52,41620,1,8
392,80,42020,6,0,B|416:184|300:188,1,150,8|0
264,224,42620,2,0,B|240:120|356:116,1,150,8|0
332,192,43220,1,8
189,322,43620,6,0,B|192:240,1,75,8|0
191,248,44020,2,0,B|192:152,1,75,8|0
212,108,44420,1,0
268,144,44620,1,0
268,212,44820,2,0,B|352:196|336:116|312:92,1,150,8|0
380,76,45420,1,0
424,128,45620,2,0,B|340:144|356:224|380:248,1,150,8|0
280,340,46420,1,0
52,92,47420,5,8
72,156,47620,1,8
140,144,47820,1,0
156,208,48020,2,0,B|248:272,2,112.5,8|0|8
204,160,48820,2,0,B|272:92,2,75,8|0|8
396,224,49620,5,0
292,136,50020,1,2
196,228,50420,1,0
276,336,50820,5,0
388,264,51220,1,0
328,144,51620,1,2
208,208,52020,1,2
268,328,52420,1,2
132,328,52820,6,0,B|36:316|56:208,1,150,4|2
52,156,53420,1,8
156,68,53820,5,0
116,120,54020,1,2
156,176,54220,1,0
220,152,54420,2,0,B|312:120|360:192,1,150,4|2
380,316,55220,2,0,B|285:294|282:207,1,150,0|2
256,84,56020,5,4
312,44,56220,1,0
376,68,56420,1,2
380,136,56620,2,0,B|368:228|268:216,1,150,2|0
224,172,57220,1,0
156,176,57420,1,2
124,236,57620,1,2
316,308,58220,5,0
384,308,58420,2,0,B|472:308,2,75,2|2|2
248,308,59220,6,0,B|156:308,1,75,0|2
104,308,59620,2,0,B|104:208,1,75,0|2
236,252,60220,1,0
300,228,60420,1,0
312,160,60620,1,0
256,120,60820,5,8
176,192,61220,1,8
256,272,61620,1,8
336,192,62020,1,8
360,88,62420,5,2
256,48,62820,1,2
152,88,63220,1,2
176,192,63620,1,2
256,192,64020,12,0,65620
188,68,67220,6,0,B|96:68,2,75,0|0|8
256,68,67820,1,0
324,68,68020,2,0,B|404:68,2,75,0|0|8
408,160,68820,2,0,B|256:192|96:160,1,300,0|4
256,112,70020,1,4
256,248,70420,6,0,B|256:344,4,75,0|8|0|0|0
256,128,71620,1,8
160,104,72020,2,8,B|160:192|224:232,1,150,0|8
256,284,72620,1,8
288,232,72820,2,0,B|360:192|360:80,1,150,0|8
448,112,73620,5,0
440,160,73820,1,8
424,208,74020,1,8
392,256,74220,1,0
356,292,74420,2,0,B|256:176,1,150,0|8
64,112,75220,5,0
72,160,75420,1,0
88,208,75620,1,8
120,256,75820,1,0
160,288,76020,1,0
256,240,76420,1,8
208,320,76820,2,0,B|248:352|312:344|352:312|376:240|336:192,1,225
256,192,77820,5,0
256,192,78020,1,0
256,192,78220,1,0
256,104,78420,2,12,B|344:120|408:192|336:360|176:360|96:192|200:128|200:128,1,450
256,80,80020,5,0
144,80,80420,1,8
80,176,80820,1,0
136,280,81220,1,8
256,280,81620,1,0
324,180,82020,1,0
256,80,82420,2,2,B|256:240,1,150,10|10
384,272,83220,5,0
384,160,83620,1,0
280,88,84020,2,2,B|280:248,1,150,10|10
168,208,84820,2,0,B|104:168,1,75,0|8
104,104,85220,2,0,B|176:40,1,75,0|8
224,40,85620,6,0,B|376:40,2,150,8|8|0
344,104,86820,1,0
412,104,87020,2,0,B|412:180,1,75
352,328,87620,6,0,B|200:328,1,150,8|0
152,280,88220,1,8
128,216,88420,1,0
136,152,88620,2,0,B|160:120|208:112,1,75,8|8
256,152,89020,2,0,B|292:168|328:144,1,75,0|8
376,100,89420,1,8
256,192,89620,12,0,92820
192,240,105620,5,10
128,208,105820,1,2
128,140,106020,1,2
176,96,106220,2,0,B|248:48|328:104,1,150,8|0
316,96,106820,1,8
448,96,107220,6,0,B|448:184|448:184|392:232,1,150,0|8
380,160,107820,1,2
336,212,108020,2,0,B|276:188|296:116|260:88,1,150,8|8
180,172,108820,5,8
120,200,109020,1,0
124,264,109220,1,2
176,288,109420,2,0,B|248:336|328:280,1,150,10|0
368,244,110020,5,0
400,184,110220,1,0
348,140,110420,2,0,B|264:187|264:275,1,150
312,304,111020,1,0
248,320,111220,2,2,B|168:280|80:352,2,150,2|2|4
256,48,113020,5,8
168,72,113220,2,0,B|96:72|96:128,1,75,0|8
104,100,113620,2,0,B|104:172|152:204,2,112.5
184,72,114620,6,0,B|230:71|230:71|288:72,1,75
260,140,115020,2,0,B|370:141,1,75
333,71,115420,2,0,B|424:72|424:176,1,150
256,192,116220,5,0
256,192,116420,1,0
256,192,116620,1,0
256,192,116820,2,0,B|256:112|256:112|192:112|152:192|192:264|256:264|256:264|256:264|256:264|256:264,1,300
264,312,117820,1,2
316,300,118020,1,2
416,212,118420,6,0,B|324:212|324:116,1,150,0|8
256,112,119020,1,2
256,248,119420,2,0,B|256:328,1,75,0|8
188,324,119820,1,2
188,256,120020,2,2,B|188:164|92:164,1,150,2|8
92,96,120620,2,2,B|252:96,1,150,2|8
268,288,121620,6,0,B|428:288,1,150,2|8
416,220,122220,2,0,B|324:220|324:124,1,150,2|0
324,60,122820,2,0,B|248:60,1,75,8|0
248,128,123220,2,0,B|248:220|152:220,1,150,2|8
196,348,124020,1,2
288,252,124420,1,2
384,348,124820,1,4
64,152,125820,5,8
168,64,126220,1,2
168,64,126420,2,0,B|304:64,2,112.5,0|2|0
168,64,127220,5,0
121,116,127420,1,2
117,182,127620,1,0
170,224,127820,1,2
236,216,128020,1,0
272,274,128220,2,0,B|311:345,2,75,0|8|8
360,192,129020,6,0,B|432:128,1,75
376,88,129420,1,8
320,56,129620,1,0
256,64,129820,1,8
216,120,130020,1,8
224,184,130220,1,8
280,216,130420,2,0,B|224:304,1,75,0|8
176,256,130820,2,0,B|120:344,1,75,8|8
88,272,131220,6,0,B|88:192,1,75
92,128,131620,2,0,B|92:44,1,75,2|2
228,64,132220,1,0
272,116,132420,1,2
316,64,132620,1,0
356,116,132820,2,0,B|316:192|388:260,1,150,0|2
256,196,133620,2,0,B|316:256|267:343,1,150,0|2
152,272,134420,5,0
88,252,134620,1,0
72,188,134820,1,2
116,136,135020,1,2
240,184,135420,5,0
306,193,135620,1,2
333,253,135820,1,0
298,312,136020,1,0
96,288,136620,5,2
96,220,136820,2,0,B|96:132,2,75,0|0|2
192,124,137620,5,0
192,192,137820,2,0,B|192:268,1,75,0|2
196,336,138220,1,2
312,268,138620,1,0
256,228,138820,1,2
300,176,139020,1,0
256,120,139220,5,0
184,192,139620,1,8
256,272,140020,1,0
336,192,140420,1,8
336,192,140820,6,0,B|160:192,1,150,0|2
256,272,141620,2,0,B|256:96,1,150,0|2
256,192,142220,12,0,143820
188,308,145620,6,2,B|96:308,2,75,0|0|8
256,308,146220,1,0
324,308,146420,2,2,B|404:308,2,75,0|0|8
408,224,147220,6,0,B|256:192|96:224,1,300,0|4
256,280,148420,1,4
256,136,148820,6,2,B|256:40,4,75,0|8|0|0|0
256,280,150020,1,8
392,280,150420,2,0,B|392:192|328:152,1,150,0|8
260,152,151020,1,0
192,152,151220,2,0,B|120:192|120:304,1,150,0|8
53,240,152020,5,0
69,194,152220,1,8
92,149,152420,1,0
131,107,152620,1,0
176,82,152820,1,8
256,192,153220,5,8
458,240,153620,5,0
442,194,153820,1,8
419,149,154020,1,0
380,107,154220,1,0
335,82,154420,1,8
256,192,154820,5,8
120,196,155220,1,0
188,80,155620,1,0
324,84,156020,1,0
392,196,156420,1,0
304,240,156820,5,0
256,192,157020,1,0
208,240,157220,1,0
304,44,157620,5,8
256,92,157820,1,8
208,44,158020,1,8
256,172,158420,5,4
392,160,158820,2,0,B|408:256|296:296,2,150
264,112,160020,2,0,B|200:40|104:112,1,150,0|8
184,216,160820,2,0,B|248:288|344:216,1,150,8|8
360,104,161620,6,0,B|360:184,2,75
232,64,162420,1,0
120,136,162820,1,8
120,272,163220,5,0
240,336,163620,1,0
360,272,164020,1,8
360,136,164420,1,8
240,192,164820,5,0
104,192,165220,2,0,B|104:104|200:64,1,150,0|8
320,72,166020,1,8
384,192,166420,1,0
312,304,166820,1,8
256,184,167220,1,0
144,112,167620,1,8
256,192,168020,12,0,171220
72,88,184020,6,0,B|112:48|176:128|240:88,1,150,4|2
112,184,184820,2,0,B|152:144|216:224|280:184,1,150,0|2
152,280,185620,2,0,B|192:240|256:320|320:280,1,150,0|2
432,288,186620,6,0,B|432:200,2,75,0|0|2
432,152,187420,2,0,B|432:64,2,75,0|0|2
432,288,188220,2,0,B|344:288,2,75,0|2|2
296,288,189020,2,0,B|208:288,1,75,0|2
221,288,189420,2,0,B|112:288,1,75,0|2
48,192,190020,5,2
144,96,190420,2,0,B|208:40|296:88,1,150,4|2
224,200,191220,2,0,B|288:256|376:208,1,150,0|2
424,96,192020,1,0
296,144,192420,1,0
224,256,192820,1,0
296,144,193220,1,0
176,80,193620,6,0,B|104:136|128:232,1,150,4|2
256,168,194420,1,0
256,168,194820,1,0
336,304,195220,2,0,B|408:248|384:152,1,150,4|2
256,168,196020,2,0,B|256:88,3,75
344,104,198420,5,8
216,64,198820,1,0
136,176,199220,1,0
232,272,199620,1,0
352,208,200020,2,0,B|304:152|208:152,2,150,4|0|4
360,72,201220,1,4
224,64,201620,6,0,B|144:64|80:136,1,150,0|8
224,136,202420,1,0
104,192,202820,1,8
184,296,203220,2,0,B|264:296,1,75,0|8
224,240,203620,2,0,B|312:240,1,75,0|8
264,184,204020,2,0,B|344:184,1,75,0|8
304,128,204420,2,8,B|384:128,1,75
380,196,204820,5,0
308,312,205220,1,8
444,316,205620,1,0
332,244,206020,1,8
368,128,206420,6,0,B|368:40,2,75,8|0|8
360,195,207020,1,0
328,256,207220,2,0,B|256:296|172:252,1,150
228,204,207820,2,0,B|228:156|188:144,1,75
128,136,208220,2,8,B|128:56,2,75
136,304,209020,6,0,B|224:304,1,75
344,304,209620,1,0
352,168,210020,1,0
216,168,210420,1,8
80,168,210820,1,8
256,80,211220,5,0
256,216,211620,2,0,B|256:320,4,75,0|0|8|0|8
256,80,212820,1,0
120,88,213220,2,0,B|136:168|216:192,1,150,0|8
256,320,214020,2,0,B|336:304|360:224,2,150,8|0|8
120,320,215220,6,0,B|120:232,2,75,0|0|8
64,200,216020,1,0
144,96,216420,1,0
272,48,216820,1,8
400,88,217220,1,8
480,200,217620,1,0
344,200,218020,6,0,B|256:200,2,75
344,336,218820,1,8
208,336,219220,2,0,B|164:292|104:372|56:336,1,150
60,208,220020,2,0,B|108:256|160:180|220:208,1,150
256,192,220820,12,0,222420
152,148,223020,6,0,B|92:92,2,75
108,200,223620,1,0
148,256,223820,1,0
212,236,224020,1,2
328,308,224420,1,2
376,180,224820,1,2
256,80,225220,5,0
376,136,225620,1,10
376,272,226020,1,0
256,336,226420,1,10
136,272,226820,1,2
256,192,227220,12,0,228420
256,80,228820,5,0
136,136,229220,1,8
136,272,229620,1,10
256,336,230020,1,10
376,272,230420,1,4
376,136,230820,2,2,B|232:208,1,150,10|2
104,192,231620,5,10
160,72,232020,1,0
296,72,232420,1,10
392,168,232820,2,2,B|392:320,1,150,0|10
256,336,233620,2,0,B|208:232|304:144|256:32,1,300,4|0
392,64,234820,5,0
360,192,235220,1,8
256,280,235620,1,8
152,192,236020,1,12
120,64,236420,1,12
256,56,236820,1,4
