osu file format v9

[General]
AudioFilename: Kagamine Rin - Transmit.mp3
AudioLeadIn: 0
PreviewTime: 67237
Countdown: 0
SampleSet: Soft
StackLeniency: 0.7
Mode: 0
LetterboxInBreaks: 1

[Editor]
Bookmarks: 12836,26419,60838,64820,65638,104037,139237,145620,182437,196837
DistanceSpacing: 1
BeatDivisor: 4
GridSize: 4

[Metadata]
Title:Transmit
Artist:Kagamine Rin
Creator:Eremes 111
Version:Hard
Source:Signal-P
Tags:Dios Devil_Cosmo devil cosmo vocaloid vocaloid2 frans_niko hanemi

[Difficulty]
HPDrainRate:5
CircleSize:4
OverallDifficulty:4
ApproachRate:6
SliderMultiplier:1.5
SliderTickRate:2

[Events]
//Background and Video events
0,0,"BG.jpg"
//Break Periods
2,93020,104570
2,171420,182970
//Storyboard Layer 0 (Background)
//Storyboard Layer 1 (Fail)
//Storyboard Layer 2 (Pass)
//Storyboard Layer 3 (Foreground)
//Storyboard Sound Samples
//Background Colour Transformations
3,100,255,255,255

[TimingPoints]
1620,400,4,2,1,85,1,0
12820,-100,4,1,1,85,0,0
27220,-100,4,2,1,75,0,0
38420,-100,4,1,1,75,0,0
52820,-100,4,2,1,75,0,0
67220,-100,4,1,1,80,0,1
79920,-100,4,1,1,80,0,0
80020,-100,4,1,1,80,0,1
91220,-100,4,1,1,80,0,0
91620,-100,4,1,1,5,0,0
92820,-100,4,2,1,60,0,0
105620,-100,4,2,1,85,0,0
116820,-100,4,1,1,85,0,0
131220,-100,4,2,1,85,0,0
145620,-100,4,1,1,85,0,1
158320,-100,4,1,1,85,0,0
158420,-100,4,1,1,85,0,1
169620,-100,4,1,1,85,0,0
184020,-100,4,2,1,85,0,0
198420,-100,4,1,1,85,0,1
211220,-100,4,1,1,85,0,0
224020,-100,4,1,1,85,0,1
236820,-100,4,1,1,85,0,0

[Colours]
Combo1 : 255,128,0
Combo2 : 0,0,255
Combo3 : 0,128,192
Combo4 : 255,62,255

[HitObjects]
256,320,12820,1,0
256,244,13020,2,0,B|256:168,1,75,8|8
256,132,13320,6,0,B|256:88,4,37.5,8|0|8|0|8
192,172,13920,6,0,B|160:200,3,37.5,0|8|0|0
164,272,14420,6,0,B|244:264|296:328,1,150,4|8
356,280,15020,1,0
412,232,15220,1,0
440,156,15420,2,0,B|428:116,2,37.5,0|0|8
396,96,15820,6,0,B|328:52|252:80,1,150,0|8
196,132,16420,2,0,B|120:164,1,75
184,208,16820,2,0,B|248:244,1,75,0|0
184,284,17220,2,0,B|124:328,1,75,8|0
68,276,17620,6,0,B|28:180|80:228|48:124,1,150,0|8
92,68,18220,2,0,B|128:56,2,37.5
168,76,18620,6,8,B|200:48|240:52,1,75,0|8
322,59,19020,2,8,B|289:75|276:116,1,75,0|8
228,176,19420,2,0,B|266:158|303:174,1,75,0|8
372,196,19820,1,0
372,196,20220,2,0,B|320:256,1,75,0|8
180,304,20820,6,0,B|176:216|96:188,1,150,4|8
156,140,21420,1,0
228,116,21620,2,8,B|272:116|300:92,3,75,0|0|8|0
368,64,22420,6,8,B|372:152|452:180,1,150,0|8
420,248,23020,1,0
384,312,23220,2,0,B|348:328|304:304,3,75,0|0|8|0
236,316,24020,6,0,B|296:256|272:176,1,150,0|8
196,176,24620,1,0
196,176,25020,2,0,B|163:109,1,75,0|8
256,192,25620,12,0,26820
152,108,27220,6,0,B|228:108,2,75,8|0|0
84,140,27820,2,0,B|48:212|84:284,1,150,8|0
148,324,28420,1,8
224,324,28620,1,0
292,292,28820,6,0,B|372:296|420:224,1,150,0|8
360,180,29420,1,0
360,104,29620,2,0,B|280:100|232:172,1,150,0|8
124,68,30420,6,0,B|172:140|128:208,1,150,8|0
88,272,31020,2,0,B|160:320|228:276,1,150,8|0
284,224,31620,2,0,B|316:200|356:212,1,75,8|0
428,236,32020,6,0,B|380:168|408:92,1,150,0|8
468,48,32620,1,0
484,120,32820,2,0,B|424:172|344:164,1,150,0|8
272,184,33420,2,0,B|200:200,1,75,0|4
84,104,34020,5,8
80,252,34420,1,0
156,252,34620,6,0,B|232:252,1,75,0|8
296,216,35020,1,0
344,160,35220,2,0,B|296:96,1,75,8|0
260,100,35520,2,0,B|200:148,1,75,8|0
164,140,35820,2,0,B|112:84,1,75,8|0
68,148,36220,5,0
40,216,36420,1,8
72,284,36620,1,0
120,340,36820,2,0,B|196:344,1,75
164,276,37220,2,0,B|240:276,1,75,8|8
238,276,37820,6,0,B|314:276,2,75
240,200,38420,1,0
260,128,38620,1,0
332,104,38820,2,0,B|408:104,1,75,8|0
420,176,39220,6,0,B|404:208,2,37.5,8|0|0
464,240,39620,2,0,B|440:272,2,37.5,0|0|8
368,312,40020,6,0,B|292:312,1,75,8|0
228,352,40420,2,0,B|264:280|220:208,1,150,8|0
160,256,41020,2,0,B|124:184|168:112,1,150,8|0
228,68,41620,6,0,B|264:64|288:28,1,75
352,72,42020,2,0,B|296:136|332:216,1,150,8|0
392,168,42620,2,0,B|324:120|248:136,1,150,8|0
180,164,43220,6,0,B|112:196,1,75
44,228,43620,2,0,B|72:268|104:268|104:268|180:268,1,150,8|0
240,224,44220,1,8
296,176,44420,1,0
372,176,44620,1,0
448,180,44820,6,0,B|444:232|392:252|392:252|324:252,1,150,8|0
288,308,45420,1,0
212,312,45620,2,0,B|136:312,1,75,8|8
140,236,46020,2,0,B|64:236,2,75,8|0|4
84,96,46820,6,0,B|120:48|184:64,1,112.5,8|0
216,84,47220,1,0
292,88,47420,1,0
348,36,47620,2,0,B|380:68|364:104,1,75,8|0
420,156,48020,2,0,B|368:192|312:160,2,112.5
420,156,49020,6,0,B|420:232,1,75
364,280,49420,1,0
288,280,49620,1,4
152,344,50020,1,8
52,232,50420,1,0
56,156,50620,6,0,B|120:116,1,75,0|8
188,148,51020,1,0
212,76,51220,2,0,B|244:52|284:48,2,75,0|0|8
188,148,51820,6,0,B|264:148,1,75
336,148,52220,2,0,B|380:148,1,37.5,8|0
448,148,52520,2,0,B|408:148,1,37.5,0|8
376,216,52820,6,0,B|364:300|276:312,1,150,8|2
200,312,53420,1,0
88,216,53820,2,2,B|132:212|156:184,1,75,0|2
100,132,54220,6,0,B|140:136|176:120,1,75,0|8
188,48,54620,2,0,B|228:44|264:60,1,75,0|2
252,132,55020,2,0,B|292:136|328:120,1,75
340,48,55420,2,0,B|380:44|416:60,1,75,0|2
428,132,55820,1,0
456,200,56020,6,0,B|416:212|404:252,1,75,12|0
384,320,56420,2,0,B|360:288|320:276,1,75,2|0
264,236,57020,6,0,B|296:216|300:172,1,75,0|2
348,116,57420,2,0,B|376:152|420:152,1,75,2|4
188,116,58220,5,2
128,160,58420,2,0,B|76:212,2,75,0|2|2
144,308,59220,6,8,B|208:272,1,75,8|2
148,228,59620,2,0,B|212:192,1,75,0|2
368,308,60220,2,0,B|304:272,1,75,2|2
364,228,60620,2,0,B|300:192,1,75,0|2
256,48,61220,5,0
140,240,61620,1,0
364,240,62020,1,0
256,192,62420,12,0,63620
256,140,64020,6,0,B|256:60,1,75,0|2
308,192,64420,2,0,B|388:192,1,75,0|2
256,244,64820,2,0,B|256:324,1,75,0|2
204,192,65220,2,0,B|124:192,1,75,0|2
256,188,65620,5,8
320,124,65820,2,0,B|372:68,1,75,0|2
324,256,66220,2,0,B|380:308,1,75,0|2
192,260,66620,2,0,B|140:316,1,75,0|2
188,128,67020,2,0,B|132:76,1,75,0|8
133,76,67320,5,0
133,76,67420,1,0
64,168,67620,1,0
104,272,67820,6,0,B|152:212,1,75
184,320,68220,2,0,B|228:260,1,75,0|8
328,320,68620,2,0,B|284:260,1,75,0|4
408,272,69020,2,0,B|360:212,1,75,0|4
312,112,69420,5,0
312,112,69520,1,0
200,112,69720,1,0
200,112,69820,1,0
256,208,70020,2,0,B|256:244,4,37.5
432,304,70620,6,0,B|356:304,1,75,0|8
256,252,71020,1,0
256,196,71120,2,0,B|256:84,1,112.5
152,40,71620,2,0,B|76:40,1,75,8|0
60,152,72020,5,0
112,208,72220,1,0
188,208,72420,1,8
236,152,72620,1,0
292,104,72820,6,0,B|364:68|440:100,1,150,8|8
452,172,73420,1,0
452,248,73620,2,0,B|380:284|304:252,1,150,4|0
296,328,74220,2,0,B|256:328,1,37.5
160,268,74620,5,0
88,280,74820,1,8
52,212,75020,1,0
88,148,75220,6,0,B|164:128|184:44,1,150,4|8
256,64,75820,1,0
327,43,76020,2,0,B|348:128|424:148,1,150
484,192,76620,5,0
428,244,76820,1,0
368,288,77020,1,8
308,244,77220,1,8
256,192,77420,1,8
256,44,77820,6,0,B|256:120,2,75,0|8|0
192,84,78420,2,0,B|120:116,1,75,4|0
60,156,78820,2,0,B|60:232,1,75,8|0
123,269,79220,2,0,B|192:300,1,75
256,340,79620,2,0,B|256:300,4,37.5,8|8|0|0|4
256,264,80220,6,0,B|256:184,1,75,0|8
220,124,80620,1,0
256,108,80720,1,0
288,124,80820,1,0
292,200,81020,2,0,B|216:200,1,75,0|8
152,164,81420,1,0
88,120,81620,6,0,B|136:52|220:64,1,150,0|8
256,128,82220,1,8
296,192,82420,2,0,B|380:204|428:136,1,150,0|8
472,196,83020,6,0,B|452:228,2,37.5,0|0|4
428,256,83420,2,0,B|380:316,1,75,0|8
304,312,83820,1,0
304,312,84220,6,0,B|228:312,1,75,0|8
172,264,84620,1,0
116,212,84820,6,0,B|80:148,1,75,8|0
156,144,85220,2,0,B|228:108,1,75,8|0
220,184,85620,2,0,B|252:252,1,75,8|0
176,252,86020,2,0,B|108:288,1,75,8|0
109,287,86420,5,0
60,148,86820,2,0,B|99:72|184:75,1,150,8|0
256,76,87420,1,0
330,75,87620,2,0,B|412:72|452:148,1,150,8|0
380,168,88220,1,0
320,212,88420,2,0,B|240:200|180:256,1,150,8|0
128,204,89020,5,0
88,164,89120,1,0
128,124,89220,1,8
188,80,89420,1,0
228,144,89620,6,0,B|388:124|288:168|452:148,1,225
460,224,90420,1,0
404,276,90620,1,8
328,272,90820,2,0,B|260:216|192:268,1,150,8|4
256,192,91420,12,0,92820
120,84,105620,6,0,B|176:148|148:224,1,150,0|8
76,248,106220,2,0,B|96:300|152:312|204:280|204:280|204:280,1,150
256,232,106820,1,8
256,156,107020,1,0
304,100,107220,2,0,B|340:56|408:56|448:104,1,150,0|8
376,140,107820,2,0,B|376:288,1,150,0|0
376,290,108420,1,8
256,204,108820,6,0,B|256:56,1,150,0|8
180,56,109420,2,0,B|108:92|100:176,1,150
92,248,110020,2,0,B|52:248|32:208,2,75,8|0|8
80,320,110620,6,0,B|140:264|220:292,1,150,8|8
292,292,111220,2,0,B|372:264|432:320,2,150,8|8|4
256,148,112420,1,8
256,148,112820,1,0
296,84,113020,6,0,B|372:84,2,75,8|0|0
220,84,113620,2,0,B|108:84,2,112.5,8|8|8
256,228,114620,2,0,B|256:304,2,75,0|8|0
180,224,115220,6,0,B|188:152|256:136|324:152|332:224,1,225
308,76,116220,1,0
256,24,116420,1,8
204,76,116620,1,0
136,104,116820,6,0,B|72:152,1,75
76,149,117220,1,8
76,149,117420,1,0
76,224,117620,2,0,B|132:272,1,75
132,272,118020,1,8
132,272,118220,1,0
200,244,118420,6,0,B|276:244,1,75
288,320,118820,2,0,B|344:312|356:256|356:256|356:200,1,150,8|0
424,176,119420,2,0,B|412:140|372:128,1,75,0|8
296,120,119820,2,0,B|220:120,2,75
256,184,120420,6,0,B|256:336,1,150,8|0
180,332,121020,2,0,B|180:256,1,75,0|8
180,184,121420,1,0
104,184,121620,6,0,B|104:140|144:116,1,75
180,60,122020,2,0,B|332:60,1,150,8|0
374,120,122620,2,0,B|408:140|408:184,2,75
324,176,123220,2,0,B|256:236|188:176,1,150,0|8
189,177,124020,6,0,B|190:254,1,75,0|8
120,220,124420,2,0,B|52:272,1,75,8|8
44,192,124820,1,4
108,56,125220,1,8
256,88,125620,2,0,B|256:168,3,75,0|0|8|0
180,168,126420,6,0,B|184:216|208:236|256:244,1,112.5
288,244,126820,2,0,B|364:244,2,75,8|0|0
256,312,127420,5,8
148,276,127620,1,8
188,172,127820,1,8
108,92,128020,1,4
256,76,128420,6,0,B|256:224,1,150,8|0
328,200,129020,1,0
388,244,129220,1,8
372,316,129420,1,0
296,316,129620,6,0,B|220:316,1,75,0|8
160,272,130020,2,0,B|112:208,1,75,0|8
88,140,130420,1,0
88,140,130620,1,8
128,76,130820,1,8
128,76,131020,1,8
188,124,131220,6,0,B|256:180|324:124,1,150,8|2
392,92,131820,1,0
428,156,132020,1,0
380,212,132220,2,0,B|328:268,2,75,0|2|0
328,160,132820,6,0,B|280:92|196:104,1,150,8|2
136,144,133420,1,0
164,212,133620,2,0,B|212:280|296:268,2,150,0|0|8
136,144,134620,6,0,B|184:88,1,75,0|2
256,64,135020,1,0
256,64,135420,1,0
327,87,135620,2,0,B|376:144,1,75,2|0
436,192,136020,6,0,B|408:264,1,75,8|0
356,316,136420,2,0,B|292:276,1,75,2|0
216,276,136820,2,0,B|156:320,1,75
116,256,137220,2,0,B|72:192,1,75,2|0
100,124,137620,6,0,B|152:64|232:52,1,150,4|2
256,124,138220,2,0,B|256:200,1,75
256,272,138620,2,0,B|332:272,1,75,0|2
396,232,139020,1,0
376,160,139220,6,0,B|336:92|256:76,1,150,8|0
256,188,139820,1,2
256,308,140020,2,0,B|176:292|136:224,1,150,8|0
256,192,140820,12,0,142020
256,88,142420,6,0,B|256:164,1,75,8|2
324,192,142820,2,0,B|400:192,1,75,8|2
400,268,143220,2,0,B|324:268,1,75,8|2
256,296,143620,2,0,B|256:216,1,75,8|2
256,144,144020,1,2
256,68,144220,6,0,B|180:68,1,75,0|2
104,68,144620,2,0,B|104:144,1,75,0|2
104,216,145020,2,0,B|180:216,1,75,0|2
252,220,145420,1,2
252,296,145620,6,0,B|304:296|328:252|328:252|328:168,1,150,0|8
328,120,146220,1,0
360,52,146420,2,0,B|312:24|260:76|260:76|200:76,1,150,0|8
144,76,147020,1,0
92,128,147220,6,0,B|92:204,1,75,0|8
164,180,147620,2,0,B|164:256,1,75,0|8
236,232,148020,2,0,B|236:312,2,75,0|8|0
236,156,148620,1,8
236,80,148820,6,0,B|292:84|304:128|304:128|368:128,1,150,4|8
396,196,149420,1,0
444,252,149620,2,0,B|368:224|300:264,1,150,0|8
256,324,150220,1,0
204,272,150420,5,0
204,272,150620,1,8
180,200,150820,1,0
180,200,151020,1,8
176,124,151220,2,0,B|124:68,2,75,0|8|8
240,160,151820,1,8
276,96,152020,6,0,B|312:168|392:180,1,150,4|8
428,112,152620,1,0
360,84,152820,2,0,B|312:140|288:228,1,150,0|8
320,284,153420,1,0
384,244,153620,6,0,B|344:172|264:164,1,150,4|8
236,232,154220,1,0
308,260,154420,2,0,B|368:200|380:128,1,150,0|8
340,64,155020,6,0,B|328:104|280:136,1,75
228,156,155420,1,8
176,104,155620,1,8
100,92,155820,1,8
100,92,156220,5,0
64,156,156420,1,8
64,232,156620,1,8
116,288,156820,6,0,B|176:240,1,75
216,176,157220,2,0,B|208:216|236:248,2,75,8|0|0
276,132,157820,2,0,B|344:88,1,75,8|8
400,52,158220,1,8
428,124,158420,6,0,B|376:192|424:264,1,150,4|0
348,256,159020,1,0
304,196,159220,2,0,B|156:196,1,150
100,144,159820,1,0
136,80,160020,6,0,B|204:32|280:64,1,150
340,104,160620,1,0
348,180,160820,2,0,B|280:228|204:196,1,150
136,168,161420,1,0
160,240,161620,6,0,B|184:276|216:288,1,75
292,292,162020,2,0,B|332:288|360:252,1,75
384,188,162420,2,0,B|368:104|268:96,1,150
204,108,163020,1,0
100,68,163220,5,0
80,292,163620,1,0
304,320,164020,1,0
336,96,164420,1,0
100,68,164820,6,0,B|76:140|128:212,1,150
188,168,165420,1,0
220,100,165620,2,0,B|296:80|368:104,1,150
436,140,166220,1,0
408,212,166420,6,0,B|332:220|288:296,1,150
256,228,167020,1,0
256,152,167220,2,0,B|256:64,1,75
180,72,167620,2,0,B|180:152,1,75
104,152,168020,6,0,B|112:200|144:232|184:232|184:232|288:232,1,225
360,232,168820,2,0,B|436:232,1,75
436,156,169220,1,0
256,192,169620,12,0,171220
168,48,184020,6,0,B|136:124|176:196,1,150,0|8
244,168,184620,1,0
228,96,184820,2,0,B|152:112|96:164,1,150,0|8
76,236,185420,1,0
132,284,185620,2,0,B|196:336|272:312,1,150,0|8
272,311,186220,1,8
356,188,186620,6,0,B|396:120,2,75,0|8|8
256,300,187420,2,0,B|256:224,2,75,0|8|8
156,188,188220,2,0,B|116:120,2,75,0|8|8
256,76,189020,2,0,B|256:156,1,75,0|8
256,224,189420,2,0,B|256:304,1,75,0|8
256,299,190020,5,0
256,299,190420,2,0,B|172:296|152:208,1,150,4|8
256,85,191220,2,0,B|340:88|360:176,1,150,0|8
256,299,192020,6,0,B|172:296|152:208,2,150,0|8|0
384,220,193220,1,8
356,72,193620,6,0,B|236:52|132:96,1,225,4|8
96,160,194420,2,0,B|208:136|320:172,1,225,0|8
372,224,195220,2,0,B|252:200|144:260,1,225,0|8
104,312,196020,1,0
72,244,196220,2,0,B|36:172,2,75,0|8|8
252,148,198420,6,0,B|328:148,1,75
260,240,198820,2,0,B|184:240,1,75,8|0
252,148,199220,2,0,B|328:148,2,75,0|0|8
176,148,199820,5,0
100,148,200020,2,0,B|100:192|136:208,1,75
212,208,200420,2,0,B|288:208,1,75,8|0
360,208,200820,2,0,B|444:188|444:100,2,150,0|8|0
320,272,201820,6,0,B|268:324,1,75,0|8
192,308,202220,1,0
172,236,202420,2,0,B|200:156|120:108,1,150,0|8
184,68,203020,1,0
260,64,203220,6,0,B|245:156|324:186,1,150,0|8
388,148,203820,1,0
332,100,204020,2,0,B|268:144|236:220,2,150,0|8|4
352,248,205220,2,0,B|300:304,2,75,8|0|0
212,300,206020,6,0,B|136:268|132:184,1,150,8|4
148,112,206620,1,0
104,52,206820,2,0,B|160:112|236:112,1,150
296,68,207420,1,0
372,56,207620,2,0,B|444:92|452:176,1,150,8|0
448,248,208220,5,0
388,292,208420,1,8
316,304,208620,1,8
316,304,209020,5,0
252,268,209220,1,8
212,204,209420,1,8
192,132,209620,6,0,B|244:120|276:164|276:164|304:232,1,150,0|8
360,256,210220,1,0
392,188,210420,2,0,B|356:112|356:112|364:76|400:60|400:60,1,150,0|8
264,40,211220,5,4
76,164,211620,1,8
212,344,212020,1,0
404,224,212420,1,8
272,152,212820,6,0,B|308:88,1,75,0|8
348,152,213220,2,0,B|416:192,1,75,0|8
344,224,213620,2,0,B|300:288,1,75,0|8
268,220,214020,2,0,B|192:180,1,75,0|8
132,152,214420,5,0
336,56,214820,1,8
440,256,215220,1,0
232,344,215620,1,8
188,200,216020,6,0,B|224:176|228:136,1,75,0|8
264,72,216420,2,0,B|292:104|332:96,1,75,0|8
400,128,216820,2,0,B|368:148|368:192,1,75,0|8
328,256,217220,2,0,B|300:224|260:224,1,75,0|8
192,196,217620,6,0,B|144:128|184:52,1,150,0|8
256,48,218220,2,0,B|332:48,1,75
392,92,218620,1,0
352,156,218820,1,8
416,196,219020,1,0
376,260,219220,6,0,B|304:228,1,75
288,304,219620,2,0,B|216:268,1,75,8|0
221,271,219920,1,0
140,192,220220,5,0
140,192,220320,1,0
140,192,220420,1,8
168,124,220620,1,0
240,104,220820,2,0,B|292:52|376:52,1,150,0|8
368,128,221420,5,0
356,204,221620,2,0,B|328:276,1,75
256,264,222020,2,0,B|256:104,1,150,8|4
48,204,223020,5,0
48,204,223120,1,0
48,204,223220,2,0,B|56:124|56:124,1,75,0|8
124,156,223620,2,0,B|168:88,1,75,0|8
208,156,224020,6,0,B|268:100,2,75,0|0|8
164,220,224620,1,0
164,220,224720,2,0,B|148:284|180:328,1,112.5
232,272,225220,2,0,B|304:248,1,75,8|0
372,220,225620,6,0,B|400:136|332:88,1,150,4|8
256,100,226220,1,0
180,87,226420,2,0,B|112:136|140:220,1,150,0|8
256,312,227220,6,0,B|256:156,1,150,4|0
404,172,228020,1,0
388,100,228220,1,0
332,52,228420,1,8
108,72,228820,5,4
328,124,229220,1,8
120,212,229620,1,8
340,264,230020,1,8
276,304,230220,5,0
204,292,230420,2,0,B|240:216|176:156,1,150,0|8
228,100,231020,1,0
300,124,231220,2,0,B|264:200|328:260,1,150,0|8
396,228,231820,1,0
308,300,232020,5,0
96,228,232420,1,8
320,240,232820,1,0
100,288,233220,1,8
256,192,233620,12,0,234820
256,84,235220,5,0
256,308,235620,1,8
316,92,236020,1,8
208,288,236420,1,8
256,192,236820,5,4
