osu file format v9

[General]
AudioFilename: Kagamine Rin - Transmit.mp3
AudioLeadIn: 0
PreviewTime: 67237
Countdown: 0
SampleSet: Normal
StackLeniency: 0.7
Mode: 0
LetterboxInBreaks: 1

[Editor]
Bookmarks: 12836,26419,60838,65638,104037,139237,182437,196837
DistanceSpacing: 0.9
BeatDivisor: 4
GridSize: 8

[Metadata]
Title:Transmit
Artist:Kagamine Rin
Creator:Eremes 111
Version:Easy
Source:Signal-P
Tags:Dios Devil_Cosmo devil cosmo vocaloid vocaloid2 frans_niko hanemi

[Difficulty]
HPDrainRate:2
CircleSize:3
OverallDifficulty:2
ApproachRate:2
SliderMultiplier:1
SliderTickRate:2

[Events]
//Background and Video events
0,0,"BG.jpg"
//Break Periods
2,93020,104060
2,171420,182460
//Storyboard Layer 0 (Background)
//Storyboard Layer 1 (Fail)
//Storyboard Layer 2 (Pass)
//Storyboard Layer 3 (Foreground)
//Storyboard Sound Samples
//Background Colour Transformations
3,100,255,255,255

[TimingPoints]
1620,400,4,1,0,70,1,0
12820,-100,4,1,0,80,0,0
27220,-100,4,2,0,100,0,0
67220,-100,4,1,0,70,0,1
79920,-100,4,1,0,70,0,0
80020,-100,4,1,0,70,0,1
91220,-100,4,2,0,70,0,0
145620,-100,4,1,0,70,0,1
158320,-100,4,1,0,70,0,0
158420,-100,4,1,0,70,0,1
169620,-100,4,2,0,70,0,0
198420,-100,4,1,0,70,0,1
211220,-100,4,1,0,70,0,0
224020,-100,4,1,0,70,0,1
236820,-100,4,1,0,70,0,0

[Colours]
Combo1 : 255,128,0
Combo2 : 0,0,255
Combo3 : 0,128,192
Combo4 : 255,62,255

[HitObjects]
128,96,12820,1,0
216,96,13220,1,8
304,96,13620,1,0
392,96,14020,1,8
392,184,14420,6,0,B|288:184,1,100,0|8
296,272,15220,2,0,B|192:272,1,100,0|8
152,192,16020,2,0,B|256:192,1,100,0|8
256,104,16820,2,0,B|368:104,1,100,0|8
376,192,17620,5,0
336,272,18020,1,8
256,224,18420,1,0
304,144,18820,1,8
256,64,19220,2,0,B|136:64|136:64|136:144|160:192|200:232|200:232|200:232,1,300,4|4
288,240,20820,5,0
368,192,21220,1,8
408,112,21620,1,0
384,24,22020,1,8
312,72,22420,6,2,B|192:72|192:200,1,200,0|2
192,288,23620,1,2
280,288,24020,1,0
368,288,24420,1,8
456,288,24820,2,0,B|456:176,1,100,0|8
456,96,25620,2,0,B|336:96,1,100
352,184,26420,2,0,B|240:184,1,100
248,96,27220,5,4
96,192,28020,1,0
200,336,28820,1,0
288,312,29220,1,8
360,256,29620,1,0
256,104,30420,5,0
416,192,31220,1,0
264,296,32020,2,2,B|267:242|204:206,1,100
160,288,32820,2,2,B|112:264|112:192,1,100
112,112,33620,1,4
384,104,34820,5,8
352,192,35220,1,0
296,264,35620,1,8
208,296,36020,1,0
168,216,36420,2,0,B|268:168|309:61,1,200,8|8
408,224,38020,5,8
384,144,38420,2,8,B|384:80|328:40,1,100,0|8
288,128,39220,2,8,B|288:192|344:232,1,100,0|8
384,144,40020,5,4
400,336,40820,1,8
232,264,41620,2,0,B|232:200|176:160,1,100,0|8
136,248,42420,2,0,B|136:312|192:352,1,100,0|8
232,264,43220,5,0
408,192,44020,1,8
256,96,44820,2,0,B|136:96,1,100,0|8
168,184,45620,2,0,B|272:184,1,100,0|8
360,184,46420,1,4
256,328,47220,5,0
136,192,48020,2,0,B|256:192,1,100,0|8
248,104,48820,2,0,B|360:104,1,100,0|8
440,104,49620,2,0,B|440:216,1,100,0|8
448,296,50420,6,0,B|400:328|344:296,1,100,0|8
392,216,51220,2,0,B|334:216|304:159,1,100,0|4
392,128,52020,2,0,B|343:97|349:32,1,100,0|4
272,92,52820,6,0,B|240:136|176:128,1,100,0|2
192,40,53620,2,0,B|128:32|105:95,1,100,0|2
104,176,54420,1,8
168,240,54820,1,0
224,168,55220,1,8
280,240,55620,1,0
312,160,56020,6,0,B|352:128|408:152,2,100,0|2|2
368,232,57220,1,0
376,320,57620,1,2
376,144,58420,2,0,B|392:88|448:88,1,100,2|4
464,176,59220,2,0,B|448:232|392:232,1,100,0|2
304,240,60020,1,0
216,240,60420,1,2
200,152,60820,6,0,B|184:88|256:72,1,100,0|8
336,72,61620,2,0,B|352:136|280:152,1,100,0|8
256,232,62420,2,0,B|328:312,1,100,0|8
352,224,63220,2,0,B|424:152,1,100,0|8
256,192,64020,12,0,65620
112,96,67220,6,0,B|224:96,1,100,4|8
176,176,68020,2,0,B|288:176,1,100,0|8
240,256,68820,2,0,B|352:256,1,100,0|8
312,336,69620,2,0,B|416:336,1,100,4|4
408,248,70420,5,0
384,160,70820,1,8
336,80,71220,1,0
256,32,71620,1,8
216,128,72020,2,4,B|272:168|304:224|320:296,2,200
152,296,74420,5,0
128,120,75220,1,0
304,96,76020,1,0
344,272,76820,2,0,B|232:248|232:128,1,200
408,144,78420,5,0
392,232,78820,1,8
328,296,79220,1,0
240,320,79620,1,8
152,320,80020,1,4
256,168,80820,5,8
152,312,81620,2,2,B|104:288|104:208,1,100
104,136,82420,2,2,B|104:80|152:56,1,100
200,136,83220,5,0
328,256,84020,1,8
320,80,84820,2,2,B|208:80,1,100
256,160,85620,2,2,B|144:160,1,100
152,248,86420,5,0
328,248,87220,1,0
256,80,88020,2,0,B|200:72|160:128,1,100,0|8
240,168,88820,2,0,B|282:205|346:180,1,100,8|0
256,192,89620,12,0,92820
256,104,105620,5,0
416,192,106420,1,8
312,336,107220,1,2
224,312,107620,1,2
152,256,108020,1,8
256,104,108820,5,2
96,192,109620,1,8
224,320,110420,2,2,B|272:296|272:224,1,100
352,288,111220,2,10,B|400:264|400:192,1,100,2|10
400,112,112020,1,4
128,104,113220,5,8
160,192,113620,1,0
216,264,114020,1,8
304,296,114420,1,0
344,216,114820,6,0,B|244:168|203:61,1,200
136,240,116420,5,0
136,152,116820,2,0,B|136:88|176:48,1,100
240,112,117620,2,8,B|240:176|200:216,1,100
136,152,118420,1,0
112,336,119220,5,8
272,256,120020,2,0,B|360:192,4,100,0|8|0|8|0
104,192,122420,5,8
256,96,123220,2,0,B|376:96,1,100,0|8
344,184,124020,2,0,B|240:184,1,100,0|8
152,184,124820,1,4
256,328,125620,5,0
376,192,126420,2,0,B|256:192,1,100,0|8
264,104,127220,2,0,B|152:104,1,100,0|8
72,104,128020,2,0,B|72:216,1,100,0|0
64,296,128820,6,0,B|112:328|168:296,1,100,0|0
120,216,129620,2,0,B|178:216|208:159,1,100,4|0
120,128,130420,2,0,B|176:104|163:32,1,100,8|4
256,64,131220,5,8
336,104,131620,1,8
400,168,132020,2,0,B|352:216|288:176,1,100,2|10
248,248,132820,2,2,B|200:200|136:240,1,100
184,312,133620,2,2,B|119:334|79:270,1,100,2|2
96,200,134420,5,0
128,112,134820,1,8
208,72,135220,1,2
296,72,135620,1,2
368,120,136020,2,0,B|312:192|408:248|368:320,1,200,8|2
288,280,137220,1,6
200,280,137620,6,0,B|144:264|144:200,1,100
64,240,138420,1,2
40,152,138820,1,2
72,64,139220,6,0,B|176:64,1,100
136,152,140020,2,0,B|240:152,1,100
208,240,140820,2,2,B|312:240,1,100,2|0
280,328,141620,2,2,B|384:328,1,100,2|0
256,192,142420,12,0,144020
136,80,145620,6,0,B|248:80,1,100,4|8
192,160,146420,2,0,B|88:160,1,100,0|8
128,240,147220,2,0,B|232:240,1,100,8|8
208,328,148020,1,0
296,328,148420,1,0
376,280,148820,5,0
384,192,149220,1,8
352,104,149620,1,0
280,48,150020,1,8
264,136,150420,5,0
192,80,150820,1,8
120,136,151220,1,4
144,224,151620,1,4
240,224,152020,6,0,B|304:304,1,100
360,232,152820,2,0,B|296:152,1,100
384,120,153620,1,0
304,72,154020,1,0
224,112,154420,1,0
224,200,154820,1,0
304,160,155220,2,0,B|352:248,2,100
104,144,156820,5,8
120,232,157220,1,0
184,296,157620,1,4
272,320,158020,1,0
360,320,158420,1,0
256,168,159220,5,0
360,312,160020,2,2,B|408:288|408:208,1,100
408,136,160820,2,2,B|408:80|360:56,1,100
312,136,161620,5,2
184,256,162420,1,8
192,80,163220,2,2,B|304:80,1,100
256,160,164020,2,2,B|368:160,1,100
360,248,164820,5,0
184,248,165620,1,0
256,80,166420,2,0,B|312:72|352:128,1,100,0|8
272,168,167220,2,8,B|229:205|165:180,1,100,8|0
256,192,168020,12,0,171220
104,192,184020,6,0,B|104:80|256:80|408:80|408:192,1,400
256,280,186420,1,2
256,96,187220,1,2
104,192,188020,1,2
208,344,188820,1,2
360,248,189620,5,8
384,160,190020,1,8
360,72,190420,1,2
184,72,191220,1,2
48,192,192020,6,0,B|48:264|104:288,1,100,0|10
144,208,192820,2,0,B|183:268|243:258,1,100,0|10
240,168,193620,2,0,B|305:197|350:155,1,100,0|10
384,248,194420,5,2
296,264,194820,1,6
208,256,195220,1,8
128,208,195620,1,4
208,168,196020,2,4,B|328:168,1,100,0|4
352,72,198420,6,4,B|400:96|400:160,1,100,4|8
312,160,199220,2,0,B|339:206|304:259,1,100,0|8
224,216,200020,2,0,B|221:269|163:295,3,100,0|8|4|4
136,208,201620,5,0
88,128,202020,1,8
144,56,202420,1,0
232,88,202820,1,8
232,176,203220,2,0,B|328:232,1,100,0|0
336,136,204020,2,0,B|432:192,1,100,4|4
416,280,204820,5,2
336,320,205220,1,2
248,336,205620,1,2
96,248,206420,5,2
176,208,206820,1,2
264,192,207220,1,2
272,280,207620,1,2
184,288,208020,2,0,B|184:136,1,150
400,144,209620,5,0
384,232,210020,1,8
320,296,210420,1,0
232,320,210820,1,8
144,320,211220,1,4
256,176,212020,5,0
144,320,212820,2,2,B|104:288|104:216,1,100
96,144,213620,2,2,B|79:95|119:34,1,100
200,48,214420,5,0
240,128,214820,1,8
288,48,215220,1,0
336,128,215620,1,8
376,208,216020,6,0,B|408:256|368:304,1,100
296,256,216820,2,0,B|192:256,1,100
144,328,217620,1,0
88,256,218020,1,0
144,184,218420,1,0
312,248,219220,6,0,B|272:200|312:136,1,100
384,192,220020,2,0,B|424:240|384:304,1,100
256,192,220820,12,0,222420
112,64,224020,5,8
200,64,224420,1,0
288,64,224820,1,8
376,64,225220,2,0,B|376:168,1,100,0|8
288,136,226020,2,0,B|288:240,1,100,0|8
208,216,226820,2,0,B|208:320,2,100
208,104,228020,5,0
272,40,228420,1,8
360,56,228820,1,0
376,144,229220,1,8
312,208,229620,1,4
224,192,230020,1,12
152,136,230420,5,0
104,312,231220,1,8
280,264,232020,5,0
344,328,232420,1,8
432,308,232820,1,0
452,224,233220,1,8
404,148,233620,2,0,B|352:72|264:80|192:108|188:208,1,300
220,292,235220,6,0,B|272:268|280:204,1,100
356,264,236020,2,0,B|380:316|444:324,2,100
