osu file format v9

[General]
AudioFilename: oukaryouran.mp3
AudioLeadIn: 0
PreviewTime: 57107
Countdown: 0
SampleSet: Soft
StackLeniency: 0.7
Mode: 0
LetterboxInBreaks: 1

[Editor]
Bookmarks: 57115,87490,123115
DistanceSpacing: 0
BeatDivisor: 4
GridSize: 8

[Metadata]
Title:Ouka Ryouran
Artist:Kagamine Rin
Creator:Suzully
Version:Suzuloid
Source:MachigeritaP
Tags:vocaloid vocaloid2 banvi Patchouli wmfchris

[Difficulty]
HPDrainRate:7
CircleSize:4
OverallDifficulty:7
ApproachRate:8
SliderMultiplier:2
SliderTickRate:1

[Events]
//Background and Video events
0,0,"ouka.png"
//Break Periods
2,77190,86740
//Storyboard Layer 0 (Background)
//Storyboard Layer 1 (Fail)
//Storyboard Layer 2 (Pass)
//Storyboard Layer 3 (Foreground)
//Storyboard Sound Samples
//Background Colour Transformations
3,100,163,162,255

[TimingPoints]
9490,375,4,2,1,95,1,0
57490,-100,4,2,1,100,0,1
75490,-100,4,2,1,95,0,0
76990,-100,4,2,1,50,0,0
87302,-200,4,2,1,95,0,0
120490,-133.333333333333,4,2,1,95,0,0
123490,-100,4,2,1,100,0,1
141490,-100,4,2,1,95,0,0
142990,-100,4,2,1,50,0,0

[Colours]
Combo1 : 0,64,128
Combo2 : 210,0,68
Combo3 : 0,64,64

[HitObjects]
336,72,9490,1,4
456,120,9677,1,2
448,144,9771,1,2
440,168,9865,2,0,B|384:168|328:248,1,100,2|0
280,320,10240,2,0,B|176:320,1,100
200,192,10615,2,0,B|80:192,1,100,8|0
24,80,10990,5,0
144,80,11177,1,0
200,192,11365,1,8
328,192,11552,1,0
392,80,11740,2,0,B|248:80,1,100,0|2
280,104,12021,1,2
264,128,12115,2,0,B|152:128,1,100,2|0
72,208,12490,5,0
88,232,12583,1,0
104,256,12677,1,0
120,280,12771,1,0
136,304,12865,2,0,B|192:320|264:296,1,100,8|0
472,136,13240,1,0
456,160,13333,1,0
440,184,13427,1,0
424,208,13521,1,0
408,232,13615,2,0,B|352:248|280:224,1,100,8|0
256,112,13990,5,0
256,112,14177,2,2,B|256:56,2,50
256,240,14552,1,0
128,240,14740,5,8
384,240,14927,1,0
128,240,15115,1,8
384,240,15302,1,0
448,128,15490,6,0,B|408:88|344:64,1,100,8|0
232,72,15865,1,2
365,72,16052,1,2
352,200,16240,2,0,B|304:216|248:200,1,100,8|0
232,72,16615,1,2
365,72,16802,1,2
456,168,16990,5,0
336,224,17177,1,0
456,272,17365,1,8
336,320,17552,1,0
456,272,17740,2,0,B|456:168,1,100,2|2
336,224,18115,2,0,B|336:112,1,100,8|0
224,56,18490,5,0
200,56,18583,1,0
176,56,18677,1,0
152,56,18771,1,0
128,56,18865,2,0,B|112:112|136:192,1,100,8|0
248,168,19240,5,0
272,168,19333,1,0
296,168,19427,1,0
320,168,19521,1,0
344,168,19615,2,0,B|360:224|336:304,1,100,8|0
128,312,19990,5,2
152,320,20083,1,2
176,312,20177,1,2
200,320,20271,1,2
224,312,20365,2,0,B|248:320|248:320|264:312|264:312|296:312,3,50,2|0|2|0
296,312,20740,2,0,B|320:312|320:312|328:304|328:304|336:320|336:320|344:304|344:304|352:320|352:320|360:312|360:312|480:312,1,200,8|0
424,120,21490,6,0,B|328:168|216:112,1,200,4|0
230,119,22052,1,0
328,48,22427,1,2
328,72,22521,1,2
328,96,22615,2,0,B|328:216,1,100,2|0
216,256,22990,5,0
328,196,23177,1,0
440,256,23365,1,8
328,196,23552,1,0
328,320,23740,1,0
328,196,23927,1,0
416,288,24115,2,0,B|328:360|208:272,1,200,8|0
72,192,24677,5,2
96,192,24771,1,2
120,192,24865,1,2
248,192,25052,1,0
312,80,25240,1,0
440,80,25427,1,0
376,192,25615,1,8
504,192,25802,1,0
440,304,25990,5,2
416,312,26083,1,2
392,320,26177,1,2
368,328,26271,1,2
344,328,26365,2,0,B|272:328,3,50
272,328,26740,2,0,B|252:324|252:324|244:316|244:316|236:328|236:328|232:316|232:316|224:320|224:320|72:304,1,200,8|0
112,80,27490,5,4
240,88,27677,1,2
232,112,27771,1,2
224,136,27865,2,0,B|272:176|336:160,1,100,2|0
464,256,28427,1,2
472,280,28521,1,2
480,304,28615,2,0,B|432:344|368:328,1,100
288,248,28990,5,0
288,248,29177,2,2,B|288:184,2,50
192,336,29552,1,8
96,248,29740,2,0,B|80:136,1,100,0|0
152,40,30115,2,0,B|256:24|360:40,1,200,8|0
440,136,30677,5,2
424,120,30771,1,2
408,104,30865,2,0,B|352:128|288:104,1,100,2|0
64,184,31427,2,0,B|80:128|64:72,2,100,0|8|0
64,312,31990,1,0
64,184,32177,1,0
168,112,32365,1,8
120,232,32552,1,0
240,192,32740,2,0,B|248:192|248:192|256:184|256:184|256:200|256:200|264:184|264:184|264:200|264:200|272:192|272:192|408:192,1,200,0|8
464,328,33490,5,4
304,328,33677,1,2
304,328,33771,1,2
304,328,33865,1,2
464,328,34052,1,0
464,328,34427,2,0,B|464:224,2,100,0|8|0
464,228,34990,5,8
464,96,35177,1,2
464,120,35271,1,2
464,144,35365,2,0,B|408:152|352:128,1,100,2|0
256,56,35740,1,2
232,48,35833,1,2
208,40,35927,2,0,B|176:88|176:136,1,100,2|0
64,288,36490,6,0,B|128:336|216:320,1,150,8|2
176,264,36865,2,0,B|224:288|296:272,1,100,2|0
400,264,37240,1,0
400,264,37427,1,2
400,264,37521,1,2
400,264,37615,2,0,B|400:152,1,100,2|0
400,24,37990,5,8
248,96,38177,1,0
400,168,38365,1,8
248,96,38552,1,0
248,96,38740,2,0,B|384:96,2,100,0|0|8
48,96,39490,5,8
48,96,39677,2,2,B|48:24,2,50
48,224,40052,1,0
48,96,40240,1,0
48,224,40427,1,0
48,96,40615,1,8
48,224,40802,1,0
128,328,40990,5,0
256,360,41177,1,0
384,328,41365,1,8
464,224,41552,1,0
464,96,41740,1,2
464,96,41833,1,2
464,96,41927,2,0,B|336:96,1,100,2|0
192,224,42490,5,4
104,136,42677,1,2
88,120,42771,1,2
72,104,42865,2,0,B|112:64|160:64,1,100,2|0
288,64,43240,2,0,B|280:120|320:160,1,100
392,264,43615,2,0,B|312:328,1,100,8|0
184,328,43990,5,0
88,240,44177,1,0
216,264,44365,1,8
96,312,44552,1,0
160,200,44740,1,2
160,200,44833,1,2
160,200,44927,1,2
160,200,45021,1,2
160,200,45115,1,4
448,80,45490,6,0,B|448:208,1,100,0|0
360,272,45865,2,0,B|360:160,1,100
272,80,46240,1,8
272,80,46427,1,2
272,80,46521,1,2
272,80,46615,2,0,B|272:216,1,100,2|0
272,312,46990,5,8
144,312,47177,1,0
272,296,47365,1,8
144,296,47552,1,0
208,184,47740,2,0,B|208:80,2,100,2|2|8
272,312,48490,6,0,B|328:344|392:304,1,100,0|0
488,256,48865,2,0,B|432:288|368:248,1,100
272,200,49240,2,0,B|328:232|392:192,1,100,8|0
488,144,49615,2,0,B|432:176|368:136,1,100
272,96,49990,1,8
488,40,50177,1,0
272,96,50365,1,8
488,40,50552,1,0
272,96,50740,2,0,B|328:128|392:88,2,100,2|2|8
48,48,51490,6,0,B|160:88,1,100
272,96,51865,2,0,B|160:136,1,100
48,144,52240,2,0,B|160:184,1,100,8|0
272,192,52615,2,0,B|160:232,1,100
48,240,52990,1,8
144,272,53177,1,0
272,288,53365,1,8
176,320,53552,1,0
272,288,53740,5,2
368,320,53927,1,2
464,288,54115,1,2
480,192,54302,1,2
464,96,54490,6,0,B|408:88|328:104,1,100,8|0
240,120,54865,1,2
200,240,55052,1,2
328,224,55240,1,8
296,96,55427,1,0
176,144,55615,1,2
264,240,55802,1,2
464,192,55990,5,6
256,32,56365,1,6
48,192,56740,1,6
256,352,57115,5,2
280,336,57208,1,2
304,320,57302,1,2
328,304,57396,1,2
352,288,57490,2,0,B|336:240|296:208,1,100,4|0
168,200,57865,2,0,B|184:248|224:280,1,100,0|0
280,160,58240,2,0,B|264:112|224:80,1,100,8|0
96,72,58615,6,0,B|96:176,2,100,0|0|8
224,72,59177,1,2
352,72,59365,1,2
288,184,59552,1,2
416,184,59740,1,8
432,208,59833,1,0
448,232,59927,1,0
464,256,60021,1,0
480,280,60115,2,0,B|448:328|392:336,1,100,2|0
272,336,60490,6,0,B|240:280|248:208,1,100,8|0
256,112,60865,1,2
360,40,61052,1,2
488,40,61240,2,0,B|488:104|432:144,1,100,8|0
360,40,61615,1,2
256,112,61802,1,2
352,192,61990,6,0,B|456:192,1,100,8|2
160,192,62365,2,0,B|56:192,1,100,8|2
256,192,62740,1,4
472,152,63115,5,0
472,272,63302,1,0
368,336,63490,1,8
234,149,63865,5,0
171,48,64052,1,0
48,48,64240,1,8
48,280,64615,5,0
160,344,64802,1,0
160,192,64990,1,8
288,272,65177,1,0
272,104,65365,1,8
416,184,65552,1,0
376,16,65740,1,2
376,40,65833,1,2
376,64,65927,1,2
376,88,66021,1,2
376,112,66115,6,0,B|320:128|272:104,1,100
160,56,66490,1,8
160,56,66677,1,2
160,56,66771,1,2
160,56,66865,2,0,B|120:96|112:160,1,100,2|0
104,272,67240,1,8
104,272,67427,1,2
104,272,67521,1,2
104,272,67615,2,0,B|152:304|240:280,1,100,2|0
312,216,67990,6,0,B|456:216,1,100,8|2
152,136,68365,2,0,B|32:136,1,100,8|2
312,56,68740,2,0,B|320:56|320:56|320:48|320:48|328:64|328:64|328:48|328:48|336:64|336:64|336:48|336:48|344:64|344:64|344:48|344:48|352:56|352:56|424:56,1,200,8|2
296,320,69490,5,2
176,280,69677,1,2
272,192,69865,2,0,B|248:128|176:104,1,100,8|0
112,208,70240,1,2
232,248,70427,1,2
208,120,70615,2,0,B|256:72|320:72,1,100,8|0
424,64,70990,5,2
488,176,71177,1,2
424,288,71365,1,8
304,344,71552,1,0
192,280,71740,2,0,B|144:272|88:280,2,100,2|2|8
304,344,72302,1,0
424,288,72490,5,2
368,168,72677,1,2
272,80,72865,2,0,B|208:112|200:184,1,100,8|0
192,280,73240,1,2
320,288,73427,1,2
368,168,73615,2,0,B|328:120|256:104,1,100,8|0
160,24,73990,5,2
352,72,74177,1,2
160,120,74365,1,8
352,168,74552,1,0
160,216,74740,1,2
352,264,74927,1,2
160,312,75115,1,8
352,360,75302,1,0
256,192,75490,12,2,76990
256,192,87490,5,2
256,192,87677,1,2
440,136,88240,5,4
440,136,88990,2,0,B|440:200|400:248,1,100,0|0
384,304,89552,2,0,B|344:272|280:272,1,100,0|0
216,256,90115,1,0
216,256,90302,2,0,B|232:192,2,50,0|2|2
88,72,91240,5,4
384,72,91990,2,0,B|336:104|272:64,1,100
216,48,92552,2,0,B|160:144,1,100
120,200,93115,2,0,B|168:224|192:280,1,100,0|2
187,270,93677,1,2
424,288,94240,5,8
424,288,94990,2,0,B|328:232,1,100
272,192,95552,2,0,B|312:144|296:88,1,100
136,88,96302,1,2
216,88,96489,1,2
176,160,96677,2,0,B|176:224,2,50
72,304,97240,5,8
232,304,97615,1,0
232,304,97802,2,2,B|168:304,1,50
96,168,98365,2,0,B|144:136|208:176,1,100,0|4
392,248,99115,6,0,B|392:304,2,50,0|0|2
256,168,99865,2,0,B|256:112,2,50,0|0|2
400,104,100615,2,0,B|448:56,2,50,0|0|2
320,240,101365,2,0,B|256:232|256:160,1,100,0|2
96,144,102115,6,0,B|56:184,2,50,0|0|2
96,64,102677,2,0,B|56:24,2,50,0|0|0
168,104,103240,2,0,B|280:104,1,100,2|0
424,104,103990,1,2
424,200,104365,1,0
424,296,104740,1,2
264,296,105115,6,0,B|264:352,2,50,0|0|2
144,192,105865,2,0,B|88:192,2,50,0|0|2
232,56,106615,1,0
312,56,106802,1,0
344,128,106990,2,0,B|392:128,1,50,2|0
472,128,107365,2,0,B|488:64,2,50,0|0|2
456,288,108115,6,0,B|408:320|344:280,1,100,0|2
192,264,108865,2,0,B|240:232|304:272,1,100,0|2
256,192,109615,12,2,111115
80,192,111490,5,0
92,200,111583,1,0
108,204,111677,1,0
124,200,111771,1,0
136,192,111865,1,8
248,88,112240,1,8
320,224,112615,1,2
440,136,112990,5,0
452,152,113083,1,0
456,172,113177,1,0
452,192,113271,1,0
440,208,113365,1,8
296,272,113740,1,8
136,272,114115,1,2
208,128,114490,5,0
232,128,114583,1,0
252,116,114677,1,0
264,96,114771,1,0
264,72,114865,1,8
96,40,115240,1,8
32,200,115615,1,2
184,280,115990,5,0
192,252,116083,1,0
212,232,116177,1,0
240,220,116271,1,0
272,220,116365,1,8
440,336,116740,1,8
472,136,117115,1,2
288,56,117490,5,0
268,84,117583,1,0
260,120,117677,1,0
268,156,117771,1,0
288,184,117865,1,8
416,120,118240,1,8
136,120,118615,1,2
200,312,118990,5,0
236,296,119083,1,0
264,264,119177,1,0
276,224,119271,1,0
276,184,119365,1,8
80,184,119740,1,8
416,320,120115,1,2
440,96,120490,6,0,B|384:80|352:136,1,74.9999977648259,0|0
272,48,120865,2,0,B|256:104|312:136,1,74.9999977648259,2|2
232,216,121240,2,0,B|288:232|320:176,1,74.9999977648259,0|0
408,272,121615,2,0,B|424:216|368:184,1,74.9999977648259,2|2
344,88,121990,5,0
344,88,122177,2,2,B|400:64,2,37.4999988824129
104,144,122552,1,0
232,144,122740,1,4
336,248,123115,5,2
312,264,123208,1,2
288,280,123302,1,2
264,296,123396,1,2
240,312,123490,2,0,B|192:280|176:216,1,100,4|0
248,120,123865,2,0,B|288:152|304:208,1,100
176,184,124240,2,0,B|120:200|64:176,1,100,8|0
144,64,124615,6,0,B|256:64,2,100,0|0|8
77,181,125177,1,2
160,280,125365,1,2
240,176,125552,1,2
312,72,125740,1,8
344,72,125833,1,0
376,72,125927,1,0
408,72,126021,1,0
440,72,126115,2,0,B|448:144|440:184,1,100,2|0
432,304,126490,6,0,B|368:320|296:272,1,100,8|0
312,168,126865,1,2
208,88,127052,1,2
136,192,127240,2,0,B|160:240|232:256,1,100,8|0
312,168,127615,1,2
208,88,127802,1,2
328,40,127990,6,0,B|448:40,1,100,8|2
88,136,128365,2,0,B|-16:136,1,100,8|2
208,88,128740,1,4
432,192,129115,5,0
344,288,129302,1,0
256,192,129490,1,8
256,192,129865,5,0
168,96,130053,1,0
80,192,130240,1,8
136,336,130615,5,0
264,336,130802,1,0
176,240,130990,1,8
336,240,131177,1,0
216,144,131365,1,8
408,144,131552,1,0
256,48,131740,1,2
224,48,131833,1,2
192,48,131927,1,2
160,48,132021,1,2
128,48,132115,6,0,B|112:104|128:160,1,100
168,272,132490,1,8
288,216,132677,1,2
320,216,132771,1,2
352,216,132865,2,0,B|360:272|344:328,1,100,2|0
168,272,133240,1,8
168,144,133427,1,2
168,112,133521,1,2
168,80,133615,2,0,B|112:64|56:80,1,100,2|0
96,200,133990,6,0,B|200:304,1,100,8|2
416,184,134365,2,0,B|312:80,1,100,8|2
224,152,134740,2,0,B|229:157|229:157|235:152|235:152|229:168|229:168|240:157|240:157|235:174|235:174|246:163|246:163|240:180|240:180|252:168|252:168|252:180|252:180|303:231,1,200,4|2
432,56,135490,5,2
416,184,135677,1,2
304,112,135865,2,0,B|264:160|296:232,1,100,8|0
368,304,136240,1,2
416,184,136427,1,2
304,112,136615,2,0,B|264:72|208:80,1,100,8|0
88,104,136990,5,2
40,224,137177,1,2
120,320,137365,1,8
248,352,137552,1,0
368,304,137740,2,0,B|416:272|480:272,2,100,2|2|8
248,352,138302,1,0
120,320,138490,5,2
240,280,138677,1,2
296,160,138865,2,0,B|280:104|200:72,1,100,8|0
120,152,139240,1,2
216,232,139427,1,2
120,320,139615,2,0,B|64:304|32:240,1,100,8|0
80,128,139990,21,2
136,256,140177,1,2
432,128,140365,1,8
376,256,140552,1,0
256,80,140740,1,2
256,216,140927,1,2
144,144,141115,1,8
368,144,141302,1,0
256,192,141490,12,2,142990
