osu file format v9

[General]
AudioFilename: wewe.mp3
AudioLeadIn: 0
PreviewTime: 60106
Countdown: 0
SampleSet: Normal
StackLeniency: 0.7
Mode: 0
LetterboxInBreaks: 1

[Editor]
Bookmarks: 4230,5418,90448
DistanceSpacing: 0.8
BeatDivisor: 4
GridSize: 8

[Metadata]
Title:Oni Kanojo
Artist:Kagamine Rin
Creator:val0108
Version:Normal
Source:FamiRockP
Tags:VOCALOID gowww

[Difficulty]
HPDrainRate:2
CircleSize:3
OverallDifficulty:2
ApproachRate:2
SliderMultiplier:1
SliderTickRate:1

[Events]
//Background and Video events
0,0,"rin.jpg"
//Break Periods
2,79795,88728
//Storyboard Layer 0 (Background)
//Storyboard Layer 1 (Fail)
//Storyboard Layer 2 (Pass)
//Storyboard Layer 3 (Foreground)
//Storyboard Sound Samples
//Background Colour Transformations
3,100,163,162,255

[TimingPoints]
1328,297.029702970297,4,1,0,66,1,0
59471,-100,4,2,0,29,0,0
59620,-100,4,1,0,66,0,0
60733,-100,4,1,0,72,0,1
77367,-100,4,1,0,72,0,0
79595,-100,4,1,0,71,0,1
79669,-100,4,1,0,72,0,0
127194,-100,4,2,0,35,0,0
127342,-100,4,1,0,72,0,0
128456,-100,4,1,0,69,0,1
128468,-100,4,1,0,69,0,1
145090,-100,4,1,0,68,0,0
147318,-100,4,1,0,69,0,1
147392,-100,4,1,0,71,0,0

[Colours]
Combo1 : 255,125,125
Combo2 : 253,23,86
Combo3 : 255,118,45

[HitObjects]
256,192,2367,1,0
256,192,3555,1,0
256,192,4743,1,0
96,192,5931,5,0
175,192,6228,1,0
255,192,6526,1,0
334,192,6823,1,0
413,192,7120,1,0
400,320,8308,5,0
80,320,9496,1,0
420,203,10684,6,0,B|304:96,1,150
239,62,11427,1,0
184,120,11724,1,0
192,201,12021,6,0,B|208:265|256:281,1,100
480,215,13209,2,0,B|520:167|496:103,1,100
267,69,14397,2,0,B|235:125|171:117,1,100
420,169,15585,2,2,B|428:241|364:257,3,100
315,204,16773,6,0,B|275:252|203:236,1,100
460,288,17961,2,0,B|452:352|380:352,1,100
154,351,19149,2,0,B|90:327|90:271,1,100
256,192,20337,5,2
256,192,20634,1,2
256,192,20931,1,2
256,192,21228,1,2
256,192,22565,6,2,B|256:352,1,150,2|10
175,342,23308,1,0
118,285,23605,1,8
61,228,23902,2,0,B|61:108,1,100,2|8
140,128,24496,2,0,B|140:248,1,100,2|8
219,228,25090,5,0
275,171,25387,1,8
331,114,25684,1,0
387,170,25981,1,8
443,226,26278,2,0,B|443:338,3,100,2|8|2|8
363,326,27466,6,2,B|259:326,1,100,2|8
263,246,28060,2,2,B|383:246,1,100,2|8
363,166,28654,2,2,B|251:166,1,100,2|8
183,166,29248,2,2,B|63:166,1,100
256,192,29842,12,4,32070
88,80,32813,2,0,B|208:80,1,100,0|8
267,80,33407,2,0,B|368:80,1,100
424,136,34001,2,2,B|430:200|352:200,1,100
284,199,34595,6,0,B|220:199|220:199|163:199,1,100,0|8
163,276,35189,2,0,B|235:276|235:276|274:276,1,100,0|8
342,276,35783,1,2
421,276,36080,1,10
381,345,36377,1,2
301,345,36674,1,10
221,345,36971,6,2,B|105:345,1,100,2|2
64,288,37565,2,2,B|64:184,1,100,2|2
143,188,38159,2,2,B|143:84,1,100,2|2
224,96,38753,2,2,B|324:96,1,100,2|2
380,152,39347,6,2,B|380:252,3,100
300,252,40535,2,2,B|188:252,3,100
124,242,41724,6,2,B|116:362|252:378,1,200
240,216,42912,2,2,B|260:109|380:93,1,200
469,225,44100,1,0
389,225,44397,1,8
309,225,44694,1,0
309,145,44991,1,8
309,65,45288,1,0
229,65,45585,1,8
153,91,45882,6,0,B|41:91,1,100,0|8
80,168,46476,2,2,B|152:240|152:240|264:240,1,200
399,182,47664,2,2,B|279:182|279:182|207:118,1,200
62,160,48852,6,0,B|54:280,1,100,0|8
135,259,49446,2,0,B|201:333,1,100,0|8
258,277,50040,2,0,B|370:277,1,100,0|8
407,213,50634,1,0
407,213,50931,1,8
407,213,51228,1,2
343,162,51526,6,2,B|143:162,1,200,2|2
143,82,52417,2,2,B|343:82,1,200,2|2
418,56,53308,1,0
418,135,53605,2,0,B|370:223,1,100,0|8
302,180,54199,2,0,B|224:256,1,100,0|8
192,176,54793,2,0,B|80:176,1,100,0|8
92,96,55387,5,0
24,139,55684,1,0
24,218,55981,2,0,B|24:298|152:298,1,150
216,212,56872,1,0
260,145,57169,2,0,B|268:25|420:41,1,200
400,119,58060,1,0
400,198,58357,2,0,B|400:319,4,100,0|0|0|0|2
211,65,60733,6,0,B|179:161,1,100,0|8
179,239,61327,2,0,B|283:271,1,100,0|8
354,268,61922,2,0,B|394:172,1,100,0|8
335,119,62516,2,0,B|231:87,1,100,0|8
159,89,63110,5,0
159,168,63407,1,8
226,211,63704,1,0
305,211,64001,1,8
384,192,64298,2,0,B|448:104,1,100,0|8
386,54,64892,2,0,B|280:54,1,100,0|8
206,54,65486,6,0,B|94:54,1,100,0|8
106,133,66080,2,0,B|218:133,1,100,0|8
206,212,66674,2,0,B|102:212,1,100,0|8
106,291,67268,2,0,B|218:291,1,100,0|8
285,291,67862,5,0
341,234,68159,1,8
397,290,68456,1,0
453,233,68753,1,8
453,153,69050,1,0
396,96,69347,1,8
236,96,69941,5,0
166,134,70238,2,0,B|62:134,1,100,0|8
64,216,70832,2,0,B|168:216,1,100,0|8
246,213,71427,2,0,B|243:264|243:264|211:320,1,100,0|8
288,352,72021,2,0,B|345:334|345:334|377:286,1,100,0|8
423,243,72615,5,0
459,172,72912,1,8
392,126,73209,1,0
312,126,73506,1,8
246,80,73803,2,0,B|142:104,1,100,0|8
91,159,74397,2,0,B|204:196,1,100,0|8
264,219,74991,6,0,B|304:288|336:312,1,100
394,314,75585,2,0,B|440:288|464:216,1,100
456,160,76179,1,0
392,112,76476,1,8
320,80,76773,2,0,B|264:104,2,50
256,192,77367,12,0,79595
256,192,90288,6,2,B|256:32,1,150,2|10
333,64,91030,1,0
405,97,91327,1,8
461,153,91625,2,0,B|461:273,1,100,2|8
381,253,92219,2,0,B|381:133,1,100,2|8
314,197,92813,5,0
257,253,93110,1,8
200,309,93407,1,0
143,252,93704,1,8
86,195,94001,2,0,B|86:83,3,100,0|8|0|8
157,130,95189,6,2,B|261:130,1,100,2|10
257,209,95783,2,2,B|137:209,1,100,2|10
157,288,96377,2,2,B|269:288,1,100,2|10
336,288,96971,2,2,B|456:288,1,100
256,192,97565,12,0,99793
56,104,100535,6,0,B|56:208,1,100
56,283,101129,2,0,B|168:283,1,100
236,283,101724,1,2
236,203,102021,1,2
236,123,102318,2,0,B|236:51|236:51|268:51,1,100
299,122,102912,2,0,B|371:122|371:122|371:154,1,100
297,182,103506,2,0,B|297:254|297:254|265:254,1,100
235,181,104100,2,2,B|163:181|163:181|163:149,1,100
163,73,104694,6,0,B|275:73,1,100
342,73,105288,2,0,B|454:73,1,100
397,139,105882,2,0,B|397:251,1,100
397,318,106476,1,2
317,318,106773,1,2
237,318,107070,2,2,B|133:318,3,100
137,238,108258,2,2,B|241:238,3,100
304,200,109446,6,2,B|296:320|432:336,1,200
420,174,110634,2,2,B|404:54|284:30,1,200
320,192,111823,2,0,B|336:240|384:272,1,100
448,320,112417,2,0,B|416:368|344:352,1,100
285,327,113011,1,0
263,250,113308,1,8
181,246,113605,6,0,B|69:246,1,100,0|8
81,166,114199,2,2,B|153:94|153:94|265:94,1,200
364,207,115387,2,2,B|244:207|244:207|172:271,1,200
34,205,116575,6,0,B|26:85,1,100,0|8
101,134,117169,2,0,B|173:54,1,100,0|8
187,137,117763,2,0,B|299:137,1,100,0|8
359,169,118357,1,0
359,169,118654,1,8
359,169,118951,1,2
360,248,119248,6,2,B|160:248,1,200,2|2
159,328,120139,2,2,B|359:328,1,200,2|2
438,328,121030,1,0
438,248,121327,2,0,B|390:160,1,100,0|8
355,232,121922,2,0,B|267:176,1,100,0|8
270,258,122516,2,0,B|158:258,1,100,0|8
91,274,123110,5,0
50,204,123407,1,0
50,124,123704,2,2,B|50:44|178:44,1,150
136,160,124595,1,0
192,216,124892,2,2,B|240:320|368:304,1,200
355,225,125783,1,0
355,145,126080,2,0,B|240:144,4,100,0|0|0|0|2
80,80,128456,6,0,B|80:184,1,100,0|8
160,180,129050,1,0
240,180,129347,1,8
240,100,129644,2,0,B|320:92|336:148,1,100,0|8
329,211,130238,2,0,B|409:219|425:163,1,100,0|8
418,99,130832,6,2,B|418:27|240:16,1,200
176,38,131724,1,8
120,94,132021,2,2,B|120:166|304:158,1,200
291,238,132912,1,8
371,238,133209,6,0,B|363:310|427:326,1,100,2|8
453,252,133803,1,0
425,177,134100,1,8
369,120,134397,2,0,B|357:87|285:71,1,100,2|8
205,71,134991,1,0
171,142,135288,1,8
115,198,135585,6,2,B|115:302|115:302|323:302,1,300
391,302,136773,2,2,B|391:198|391:198|183:198,1,300
231,126,137961,6,0,B|199:22,1,100,0|8
164,101,138555,2,0,B|76:29,1,100,0|8
106,115,139149,2,0,B|-5:130,1,100,0|8
48,196,139743,2,0,B|136:268,1,100,0|8
181,315,140337,6,2,B|389:315,1,200
240,238,141526,2,2,B|240:38,1,200
399,38,142714,6,0,B|455:62|471:110,1,100,0|8
396,138,143308,2,0,B|404:202|372:234,1,100,0|8
304,192,143902,2,0,B|264:232|264:280,1,100,0|8
207,337,144496,2,0,B|162:295|143:249,1,100,0|8
256,192,145090,12,0,147318
