osu file format v9

[General]
AudioFilename: wewe.mp3
AudioLeadIn: 0
PreviewTime: 60106
Countdown: 0
SampleSet: Normal
StackLeniency: 0.7
Mode: 0
LetterboxInBreaks: 1

[Editor]
Bookmarks: 4230,5418
DistanceSpacing: 1
BeatDivisor: 4
GridSize: 8

[Metadata]
Title:Oni Kanojo
Artist:Kagamine Rin
Creator:val0108
Version:Easy
Source:FamiRockP
Tags:VOCALOID gowww

[Difficulty]
HPDrainRate:2
CircleSize:3
OverallDifficulty:2
ApproachRate:2
SliderMultiplier:0.400000005960464
SliderTickRate:1

[Events]
//Background and Video events
0,0,"rin.jpg"
//Break Periods
//Storyboard Layer 0 (Background)
//Storyboard Layer 1 (Fail)
//Storyboard Layer 2 (Pass)
//Storyboard Layer 3 (Foreground)
//Storyboard Sound Samples
//Background Colour Transformations
3,100,163,162,255

[TimingPoints]
1328,297.029702970297,4,1,0,100,1,0
21451,-100,4,2,0,100,0,0
21600,-100,4,1,0,100,0,0
60733,-100,4,1,0,100,0,1
77219,-100,4,2,0,50,0,0
79595,-100,4,2,0,75,0,1
79669,-100,4,1,0,69,0,0

[Colours]
Combo1 : 255,125,125
Combo2 : 253,23,86
Combo3 : 255,118,45

[HitObjects]
256,192,2367,1,0
96,192,3555,1,0
96,32,4743,1,0
255,32,5931,2,2,B|423:32,1,160.000002384186
416,192,8308,5,0
416,352,9496,1,0
257,352,10684,2,2,B|72:352,1,180.000002682209
75,271,12615,5,0
75,191,13209,1,2
234,191,14397,1,2
393,191,15585,2,2,B|393:31,1,160.000002384186
233,30,17961,2,2,B|65:30,1,160.000002384186
256,192,19446,12,0,21526
54,91,22565,5,0
56,192,23308,1,8
135,192,23902,1,0
214,192,24496,2,2,B|240:176|264:208|296:192,1,80.0000011920928
291,273,25684,2,2,B|265:289|241:257|209:273,1,80.0000011920928
133,271,26872,2,2,B|88:264|104:240|72:216,1,80.0000011920928
96,144,28060,5,8
96,64,28654,2,2,B|184:64,1,80.0000011920928,2|10
255,64,29842,1,0
311,120,30436,1,8
355,186,31030,1,0
355,266,31625,1,8
355,325,32070,5,4
174,325,33407,1,0
240,179,34595,1,0
195,25,35783,2,2,B|91:25|51:89,1,160.000002384186
53,164,37565,5,0
53,243,38159,2,2,B|221:243,1,160.000002384186
326,356,40535,2,2,B|486:356,1,160.000002384186
486,195,42912,5,0
486,115,43506,1,8
406,115,44100,2,2,B|406:187|406:187|310:187,1,160.000002384186,2|6
158,187,46476,5,0
78,187,47070,1,8
78,107,47664,1,0
78,27,48258,1,8
157,27,48852,2,2,B|241:26,3,80.0000011920928
237,106,51228,5,4
237,266,52417,1,4
88,325,53605,2,2,B|0:325,3,80.0000011920928
35,249,55981,5,0
148,135,57169,1,0
256,192,58357,12,0,60733
256,256,61922,1,0
256,335,62516,1,8
335,335,63110,2,2,B|383:335|391:287,1,80.0000011920928,2|10
390,208,64298,2,2,B|382:161|334:161,1,80.0000011920928,2|10
255,161,65486,5,0
175,161,66080,1,8
95,161,66674,1,0
15,161,67268,1,8
15,240,67862,2,2,B|15:328,1,80.0000011920928
71,376,69050,2,2,B|151:376,1,80.0000011920928
151,296,70238,5,0
151,216,70832,1,8
151,135,71427,1,0
151,55,72021,1,8
230,55,72615,2,2,B|310:55,1,80.0000011920928
310,134,73803,2,0,B|390:135,1,80.0000011920928
389,214,74991,6,0,B|469:214|469:214|469:294,2,160.000002384186,0|0|2
309,214,77961,1,0
229,214,78555,1,2
149,214,79149,2,0,B|87:214,1,60.0000008940696,0|4
