osu file format v5

[General]
AudioFilename: noroi_rel1.mp3
AudioLeadIn: 0
PreviewTime: -1
Countdown: 0
SampleSet: Normal
StackLeniency: 0.7
Mode: 0
LetterboxInBreaks: 1
EditorDistanceSpacing: 0.800000011920929

[Metadata]
Title:Noroi Megane -stray girl in her lenses
Artist:Kagamine Rin
Creator:StrayGirl
Version:Rin LV10 - Normal
Source:Niconico Douga
Tags:

[Difficulty]
HPDrainRate:5
CircleSize:5
OverallDifficulty:5
SliderMultiplier:1.4
SliderTickRate:1

[Events]
//Background and Video events
0,0,"noroi-bg.jpg"
1,0,"Noroi-Megane.avi"
//Break Periods
2,108978,118304
2,194462,203707
2,213252,224110
//Storyboard Layer 0 (Background)
//Storyboard Layer 1 (Failing)
//Storyboard Layer 2 (Passing)
//Storyboard Layer 3 (Foreground)
//Storyboard Sound Samples
//Background Colour Transformations
3,100,163,162,255

[TimingPoints]
23975,322.58064516129,4,1,0,100,1,0

[HitObjects]
32,96,24297,1,0
256,96,24942,1,0
480,96,25587,1,0
480,320,26233,1,0
256,320,26878,5,0
32,320,27523,1,0
32,96,28168,1,0
256,96,28813,1,0
448,96,29458,6,0,B|448:240|288:320,3,280
96,240,32039,6,0,B|96:96|272:48,3,280
256,192,34620,5,0
368,192,35104,2,8,L|432:160,1,70
358,118,35910,5,0
466,119,36394,2,8,L|466:193,1,70
385,222,37200,5,0
256,224,37684,2,8,L|169:224,1,70
127,157,38491,5,0
256,160,38974,2,8,L|330:160,1,70
384,64,39781,5,0
160,64,40426,1,0
160,256,41071,1,0
384,256,41716,1,0
479,190,42362,6,0,B|448:64|256:32,3,280
176,48,44942,6,0,B|48:176|144:320,2,280
256,96,46555,5,8
256,192,46878,1,8
256,288,47200,1,8
256,192,47362,12,8,49458
64,96,50104,6,0,B|96:64|128:64,1,70
197,62,50749,1,0
240,144,51394,6,0,B|272:144|320:112,1,70
368,64,52039,1,0
464,80,52684,6,0,B|496:112|448:160,1,70
416,192,53329,1,0
352,256,53652,5,4
256,160,54136,1,4
160,256,54620,1,4
96,288,55265,6,0,B|32:256,1,70
32,161,55910,1,0
96,128,56555,6,0,B|32:96,1,70
96,64,57200,1,0
161,60,57845,6,0,B|161:137,1,70,0|0
96,128,58491,1,0
96,192,58813,5,8
256,192,59297,1,8
416,192,59781,1,8
416,288,60426,6,8,L|343:288|343:288,1,70
256,288,61071,1,8
161,289,61716,6,8,L|77:289,1,70
96,193,62362,1,8
191,96,63007,6,8,L|263:96,1,70
352,96,63652,1,8
352,192,63974,5,4
256,256,64458,1,4
144,304,64942,1,4
144,144,65587,6,0,B|192:48|320:48|384:160,3,280
378,253,68168,6,0,B|320:336|208:336|128:256,3,280
60,194,70749,5,0
110,127,71394,1,0
159,193,72039,1,0
222,129,72684,1,0
287,193,73329,1,0
352,127,73975,1,0
420,191,74620,1,0
487,126,75265,1,0
485,194,75910,5,0
418,128,76555,1,0
352,191,77200,1,0
288,128,77845,1,0
224,192,78491,1,0
160,128,79136,1,0
96,192,79458,2,4,B|96:272|176:304,2,140
256,192,80157,12,0,81071
256,144,81716,6,0,B|256:64|352:0|480:48,2,280
336,160,83652,6,0,B|432:208|464:320|304:352,3,280
208,320,86233,6,0,B|80:304|16:176|32:128,3,280
96,80,88813,6,0,B|224:32|224:160|240:272,3,280
256,320,91394,6,0,B|384:320|432:112,3,280
352,32,93974,6,0,B|208:32|80:144,3,280
112,224,96555,6,0,B|208:304|320:304|368:224,3,280
256,192,99136,12,0,100426
257,192,101071,5,0
160,64,101716,2,0,B|64:176|176:336,3,280
336,320,104297,6,0,B|432:192|320:48,3,280
400,192,106878,6,0,B|95:192,2,280
256,193,108652,5,8
256,193,108813,1,8
64,288,119136,5,0
64,192,119781,1,0
64,96,120426,1,0
160,32,121071,5,0
256,32,121716,1,0
352,32,122362,1,0
464,80,123007,5,0
464,176,123652,1,0
464,272,124136,1,8
416,304,124297,1,8
368,176,124942,6,0,B|319:96|191:96|111:192,3,280
128,256,127523,6,0,B|192:320|240:336|304:320|352:272|368:240,3,280
416,112,130104,5,0
256,192,130749,1,0
112,272,131394,1,0
256,192,131958,12,0,134620
64,96,135265,6,8,L|128:64,1,70
128,128,135910,1,8
128,128,136555,6,8,L|192:96,1,70
192,160,137200,1,8
192,160,137845,6,8,L|256:128,1,70
256,192,138491,1,8
320,96,138813,5,4
448,192,139297,1,4
320,288,139781,1,4
416,192,140426,6,8,L|352:160,1,70
352,224,141071,1,8
352,224,141716,6,8,L|288:160,1,70
256,224,142362,1,8
256,192,142845,12,4,143974
256,192,144458,5,4
256,192,144942,1,4
224,32,145587,6,8,L|160:96,1,70
174,81,146233,1,8
127,131,146878,6,8,L|63:195,1,70
78,179,147523,1,8
160,192,148168,6,0,L|224:192,1,46.6666666666667
288,192,148813,1,0
384,192,149136,5,4
256,304,149620,1,4
128,192,150104,1,4
192,256,150749,6,8,L|256:320,1,70
320,288,151394,1,8
384,288,152039,6,8,L|448:256,1,70
384,224,152684,1,8
448,159,153329,6,8,B|448:16|241:15,1,280
256,96,154297,5,4
257,191,154781,1,4
257,288,155265,1,4
19,37,155910,6,0,B|16:192|144:192,3,280
288,144,158491,6,0,B|432:144|432:288,3,280
320,336,161071,6,0,B|160:336|64:224,3,280
128,128,163652,6,0,B|256:48|400:48,1,280
320,192,164942,6,0,B|151:192,2,140
256,48,166233,5,0
368,80,166878,1,0
464,144,167523,1,0
464,256,168168,1,0
368,320,168813,1,0
256,320,169458,1,0
144,320,170104,1,0
48,256,170749,1,0
32,144,171394,6,8,B|253:149|264:306,3,280
272,352,173975,6,8,B|428:346|480:176,3,280
432,48,176555,6,8,B|249:42|176:160,3,280
112,80,179136,6,8,B|128:208|176:304|272:304,3,280
352,192,181716,5,8
255,97,182362,1,8
160,192,183007,1,8
256,288,183652,1,8
256,192,184297,1,8
256,192,184620,12,4,186233
32,128,186878,5,0
112,64,187523,1,0
112,192,188168,1,0
192,96,188652,1,8
192,160,188813,1,8
320,240,189458,5,0
320,128,190104,1,0
400,48,190749,1,0
480,128,191233,1,8
464,192,191394,1,8
368,192,192039,6,8,B|324:272|180:272|116:192,3,280
255,192,194297,5,4
80,128,204942,6,0,B|80:80|128:80,1,70
160,160,205587,1,8
96,240,206233,6,0,B|96:272|144:304,1,70
176,224,206878,1,8
256,288,207523,6,0,B|288:288|304:240,1,70
384,272,208168,1,8
448,192,208813,6,0,B|464:160|432:128,1,70
352,80,209458,1,8
288,160,210104,6,0,B|256:144|240:96,1,70
144,128,210749,1,8
256,192,211152,12,8,213087
29,191,225265,5,0
29,191,225587,1,0
97,160,225910,5,0
97,160,226233,1,0
95,225,226555,5,0
95,225,226878,1,0
161,192,227200,5,0
161,192,227523,1,8
222,162,227845,5,0
222,162,228168,1,0
222,224,228491,5,0
222,224,228813,1,0
320,192,229297,1,0
384,224,229781,5,0
448,256,230104,1,0
480,256,230265,1,8
479,191,230426,5,0
477,191,230749,1,0
416,161,231071,5,0
415,161,231394,1,0
417,226,231716,5,0
414,224,232039,1,0
358,194,232362,5,0
358,196,232684,1,0
287,223,233007,5,0
288,223,233329,1,0
286,161,233652,5,0
287,161,233975,1,0
226,196,234136,5,8
162,161,234458,1,0
160,224,234781,1,0
224,192,235104,6,8,L|313:192,1,70
