osu file format v9

[General]
AudioFilename: Meltdown (Ryu Remix).mp3
AudioLeadIn: 0
PreviewTime: 104401
Countdown: 0
SampleSet: Soft
StackLeniency: 0.6
Mode: 0
LetterboxInBreaks: 1

[Editor]
DistanceSpacing: 1.1
BeatDivisor: 4
GridSize: 8

[Metadata]
Title:Meltdown (Ryu Remix)
Artist:Kagamine Rin
Creator:banvi
Version:Insane
Source:Vocaloid
Tags:iroha sasaki Ryutaro Nakahara Vocaloid2

[Difficulty]
HPDrainRate:7
CircleSize:4
OverallDifficulty:7
ApproachRate:8
SliderMultiplier:1.6
SliderTickRate:1

[Events]
//Background and Video events
0,0,"bg.png"
//Break Periods
2,60025,69753
2,137313,147041
//Storyboard Layer 0 (Background)
//Storyboard Layer 1 (Fail)
//Storyboard Layer 2 (Pass)
//Storyboard Layer 3 (Foreground)
//Storyboard Sound Samples
//Background Colour Transformations
3,100,163,162,255

[TimingPoints]
1520,338.983050847458,4,2,0,60,1,0
22875,-133.333333333333,4,2,2,60,0,0
29147,-133.333333333333,4,2,2,65,0,0
33892,-100,4,2,2,70,0,0
44740,-133.333333333333,4,2,2,30,0,0
47536,-100,4,2,2,80,0,0
49147,-100,4,2,1,70,0,0
59740,-100,4,2,2,80,0,0
70333,-100,4,2,1,70,0,0
90757,-133.333333333333,4,2,1,55,0,0
92282,-133.333333333333,4,2,2,60,0,0
97682,-133.333333333333,4,2,2,65,0,0
102452,-100,4,2,1,10,0,0
104570,-100,4,2,1,80,0,1
124825,-133.333333333333,4,2,2,50,0,1
126265,-100,4,2,2,80,0,0
126435,-100,4,2,1,70,0,0
137028,-100,4,2,2,70,0,0
147621,-100,4,2,1,70,0,0
179740,-100,4,2,1,10,0,0
181858,-100,4,2,1,40,0,0
183214,-100,4,2,1,80,0,1
202197,-133.333333333333,4,2,1,65,0,0
204740,-133.333333333333,4,2,1,80,0,0
205926,-133.333333333333,4,2,2,80,0,0

[Colours]
Combo1 : 128,128,128
Combo2 : 255,0,0
Combo3 : 255,128,0
Combo4 : 128,0,128

[HitObjects]
200,72,23214,6,0,B|136:88|120:168,1,119.999996423721,0|2
312,312,23892,2,0,B|376:296|392:216,1,119.999996423721,0|2
256,192,24570,2,0,B|184:192,2,59.9999982118607,0|0|2
256,104,25079,1,2
256,280,25418,1,2
384,192,25757,1,2
48,192,26774,5,0
120,152,26943,1,2
120,232,27113,1,0
192,192,27282,2,0,B|320:192,1,119.999996423721,0|2
392,192,27791,1,0
256,104,28130,1,0
192,152,28299,1,2
192,232,28469,1,0
256,280,28638,2,0,B|256:344,2,59.9999982118607,0|0|2
392,192,29316,6,0,B|452:192,2,59.9999982118607,0|0|2
392,192,29825,1,0
320,144,29994,2,0,B|264:96,1,59.9999982118607
320,240,30333,2,0,B|256:296,1,59.9999982118607,2|0
248,192,30672,1,2
160,192,30842,2,0,B|112:144|32:160,1,119.999996423721,0|2
80,240,31350,5,0
80,240,31519,1,0
144,304,31689,1,2
144,304,31858,1,0
224,256,32028,1,2
224,256,32197,2,0,B|288:280|344:248,1,119.999996423721,0|2
400,192,32706,5,0
338,129,32875,1,2
256,96,33045,1,0
174,129,33214,1,2
112,192,33384,5,8
256,320,33553,1,0
400,192,33723,1,8
256,320,34062,6,0,B|144:320,2,80,0|0|8
336,360,34570,1,0
416,320,34740,2,0,B|464:320,2,40
336,272,35079,1,8
256,320,35248,1,0
168,320,35418,2,0,B|80:304|56:192,1,160,0|8
40,128,35926,1,0
96,56,36096,1,0
96,56,36181,1,0
96,56,36265,2,0,B|280:56,1,160,8|8
344,56,36774,5,0
416,112,36943,1,0
376,192,37113,1,8
376,192,37197,1,0
376,192,37282,1,0
304,136,37452,1,0
304,136,37621,2,0,B|192:136,2,80,0|8|0
376,192,38130,2,0,B|448:248|416:344,1,160,0|8
288,368,38638,2,0,B|216:312|248:216,1,160,0|0
328,280,39147,2,0,B|392:280,2,40,8|0|0
160,328,39486,5,0
72,328,39655,1,0
112,248,39825,2,0,B|64:168|144:80,1,160,8|0
216,104,40333,1,0
216,104,40418,1,0
216,104,40503,2,0,B|320:104,1,80,8|0
256,24,40842,5,0
256,184,41011,1,0
256,24,41181,1,8
256,184,41350,2,0,B|256:344,1,160
256,344,41858,1,8
256,344,42028,1,0
176,304,42197,6,0,B|112:248,1,80,0|0
336,304,42536,2,0,B|400:248,1,80,8|0
256,208,42875,1,0
256,120,43045,1,0
336,72,43214,2,0,B|376:40,2,40,8|0|0
256,120,43553,1,0
176,72,43723,2,0,B|136:40,2,40,0|0|8
256,120,44062,1,0
256,32,44231,5,8
256,120,44401,1,0
256,208,44570,1,8
256,328,44909,5,0
256,288,45248,1,0
256,248,45587,1,0
256,208,45926,1,0
256,168,46265,1,0
256,88,46774,5,0
256,88,47113,1,0
256,88,47452,1,0
256,192,47621,12,4,48977
184,80,49316,6,0,B|96:96,1,80,8|0
152,168,49655,2,0,B|80:224,1,80
168,264,49994,2,0,B|144:344,1,80,8|0
232,328,50333,2,0,B|328:352|400:288,1,160,0|8
448,240,50842,1,0
480,160,51011,2,0,B|400:136|368:32,1,160,0|8
288,40,51519,1,0
296,128,51689,6,0,B|312:224|216:272,1,160,0|8
144,280,52197,1,0
104,200,52367,2,0,B|88:104|184:56,1,160,0|8
256,48,52875,1,0
296,128,53045,2,0,B|344:136|392:88,2,80,0|0|8
208,120,53553,1,0
144,184,53723,1,8
128,192,53808,1,0
136,280,53977,1,0
128,296,54062,1,8
208,336,54231,1,0
280,288,54401,6,0,B|320:360,1,80
280,288,54740,2,0,B|368:296,1,80,8|0
280,288,55079,2,0,B|336:216,1,80
280,288,55418,2,0,B|248:208,1,80,8|0
168,176,55757,2,0,B|224:104|320:144,1,160,0|8
368,208,56265,1,0
352,296,56435,2,0,B|296:368|200:328,1,160,0|8
136,288,56943,1,0
88,216,57113,6,0,B|48:144,1,80
136,144,57452,2,0,B|144:56,1,80,8|0
216,112,57791,2,0,B|288:56,1,80
336,136,58130,2,0,B|400:136,2,40,8|0|0
360,224,58469,1,0
300,295,58638,1,0
212,295,58808,1,8
152,224,58977,1,0
256,152,59147,5,8
256,152,59231,1,0
256,152,59316,1,0
256,48,59486,5,8
152,224,59655,1,0
360,224,59825,1,4
40,264,70503,5,0
120,232,70672,2,0,B|144:272|224:280,2,80,4|0|8
72,160,71181,1,0
120,88,71350,2,0,B|144:48|224:40,2,80,0|0|8
168,160,71858,1,0
264,72,72028,6,0,B|344:40,1,80
424,64,72367,2,0,B|480:152,1,80,8|0
376,136,72706,1,0
304,184,72875,1,0
384,224,73045,1,8
344,304,73214,1,0
256,320,73384,6,0,B|192:376|104:344,1,160,0|8
40,288,73892,1,0
112,240,74062,1,0
72,160,74231,1,0
152,120,74401,1,8
232,80,74570,2,0,B|312:56|400:96,1,160
464,144,75079,1,8
432,224,75248,1,0
464,304,75418,5,8
288,48,75757,1,8
288,48,75926,1,0
384,96,76096,6,0,B|328:160|224:136,1,160,0|8
160,96,76604,1,0
96,32,76774,2,0,B|56:80|80:136,1,80
96,192,77113,2,0,B|104:232|80:272,1,80,8|0
40,344,77452,5,0
128,344,77621,1,0
192,288,77791,1,8
256,344,77960,1,0
320,288,78130,2,0,B|416:288,2,80,0|0|8
256,224,78638,1,0
200,152,78808,6,0,B|248:64|360:72,1,160,0|8
416,64,79316,1,0
488,120,79486,1,0
488,208,79655,1,0
416,264,79825,1,8
328,264,79994,2,0,B|152:264,1,160
216,360,80503,5,8
336,184,80842,1,8
160,64,81181,1,8
160,64,81350,1,0
160,64,81520,6,0,B|112:56|56:96,1,80,4|0
136,152,81858,2,0,B|96:176|96:248,1,80,8|0
184,224,82197,5,0
328,224,82367,1,0
184,224,82536,1,8
328,224,82706,1,0
416,224,82875,6,0,B|417:267|377:291,1,80
432,360,83214,2,0,B|402:383|354:375,1,80,8|0
272,344,83553,1,0
184,320,83723,2,0,B|144:296|88:304,2,80,0|8|0
272,344,84231,6,0,B|336:288|320:192,1,160,0|8
280,120,84740,1,0
208,72,84909,1,0
120,64,85079,1,0
72,136,85248,1,8
88,224,85418,2,0,B|112:304|192:344,1,160
256,288,85926,1,8
323,342,86096,2,0,B|400:304|424:224,1,160
496,280,86604,5,8
440,128,86774,1,8
304,48,86943,6,0,B|216:16|136:48,1,160,4|8
72,80,87452,1,0
120,152,87621,1,0
48,200,87791,1,0
96,272,87960,1,8
24,320,88130,1,0
96,272,88299,6,0,B|264:272,1,160,4|8
344,272,88808,1,0
432,272,88977,2,0,B|432:328|368:360,1,80
256,272,89316,2,0,B|256:216|320:184,1,80,8|0
376,200,89655,6,0,B|416:176|424:104,1,80,4|0
328,128,89994,1,8
266,65,90164,1,0
184,32,90333,1,4
102,66,90503,1,0
40,128,90672,1,8
40,216,90842,6,0,B|40:344,2,119.999996423721
200,104,91858,5,0
256,48,92028,1,0
312,104,92197,1,0
256,160,92367,2,0,B|256:232,1,59.9999982118607,4|2
152,312,92875,1,2
216,360,93045,1,0
360,312,93384,1,0
296,360,93553,1,2
256,292,93723,1,0
256,208,93892,2,0,B|256:128,2,59.9999982118607
256,208,94401,1,0
152,192,94570,5,8
360,192,94740,1,8
256,72,95079,6,0,B|256:0,2,59.9999982118607,0|0|2
256,232,95757,2,0,B|256:304,2,59.9999982118607,0|0|2
184,192,96265,1,0
256,152,96435,1,0
328,192,96604,2,0,B|368:192,2,29.9999991059304,0|0|2
328,272,96943,1,0
256,312,97113,5,8
256,152,97282,1,0
256,232,97452,5,8
256,72,97621,1,0
184,112,97791,5,0
256,152,97960,1,0
328,112,98130,1,2
184,192,98469,5,0
256,152,98638,1,0
328,192,98808,2,0,B|360:192,2,29.9999991059304,2|0|0
256,232,99147,6,0,B|256:292,1,59.9999982118607,0|0
256,72,99486,2,0,B|256:12,1,59.9999982118607,2|0
112,152,99825,5,8
400,152,100164,1,8
400,152,100333,1,0
328,192,100503,6,0,B|328:272,1,59.9999982118607
256,152,100842,2,0,B|256:72,1,59.9999982118607,2|0
184,192,101181,2,0,B|184:272,2,59.9999982118607,0|0|2
112,152,101689,1,0
256,232,102028,1,0
328,192,102197,1,2
400,152,102367,1,0
256,192,102536,12,0,104062
256,336,104570,6,0,B|256:232,1,80,4|0
176,296,104909,2,0,B|136:216,1,80,8|0
336,296,105248,2,0,B|376:216,1,80
256,168,105587,2,0,B|256:64,1,80,8|0
160,128,105926,6,0,B|128:216|216:264,1,160,0|8
352,128,106435,2,0,B|384:216|296:264,1,160
256,168,106943,1,8
256,168,107113,1,0
168,320,107282,6,0,B|128:320|80:280,1,80
160,232,107621,2,0,B|120:224|88:168,1,80,8|0
176,144,107960,1,0
160,56,108130,1,0
248,80,108299,1,8
176,144,108469,1,0
264,168,108638,2,0,B|288:256|400:264,1,160,0|8
472,168,109147,2,0,B|440:80|336:72,1,160
368,168,109655,5,8
256,312,109825,1,8
144,168,109994,1,4
256,40,110333,5,8
256,208,110672,1,0
256,208,110842,1,0
256,296,111011,1,8
256,296,111181,1,0
176,256,111350,5,0
336,256,111520,1,0
128,256,111689,1,8
384,256,111858,1,0
256,192,112028,1,0
256,104,112197,6,0,B|224:64|232:8,2,80,0|8|0
320,48,112706,2,0,B|432:48,2,80,4|0|8
256,104,113214,1,0
192,160,113384,2,0,B|96:160,2,80,4|0|8
256,224,113892,1,0
176,272,114062,1,4
212,355,114231,1,0
300,355,114401,1,4
336,272,114570,1,0
256,296,114740,5,4
128,352,114909,1,0
256,296,115079,1,4
384,352,115248,1,0
376,192,115418,6,0,B|392:88|496:64,1,160,4|8
136,192,116096,2,0,B|120:88|16:64,1,160,0|8
256,136,116774,2,0,B|280:176|224:272|264:304,1,160,0|8
256,293,117282,1,0
336,248,117452,2,0,B|432:248,1,80
176,184,117791,2,0,B|88:184,1,80,8|0
256,216,118130,6,0,B|256:40,2,160,0|8|0
320,280,118977,1,0
408,280,119147,1,8
472,216,119316,1,0
456,128,119486,2,0,B|400:56|304:72,1,160,0|8
352,152,119994,2,0,B|267:138|211:210,1,160
312,240,120503,5,8
232,88,120672,1,8
152,48,120842,6,0,B|80:48|56:48,1,80,4|0
112,128,121181,2,0,B|32:160,1,80,8|0
96,224,121520,2,0,B|64:296,1,80
152,296,121858,2,0,B|224:360,1,80,8|0
360,336,122197,6,0,B|432:336|456:336,1,80,4|0
400,256,122536,2,0,B|480:224,1,80,8|0
416,160,122875,2,0,B|448:88,1,80,0|0
360,88,123214,2,0,B|288:24,1,80,8|0
168,56,123553,6,0,B|88:80|64:168,1,160,4|8
256,192,124062,1,0
344,328,124231,2,0,B|424:304|448:216,1,160,4|8
256,192,124740,1,0
336,168,124909,5,8
416,144,125079,1,0
328,136,125248,1,8
408,112,125418,1,0
320,104,125587,1,8
400,80,125757,1,0
312,72,125926,1,8
256,336,126265,5,4
256,336,126604,2,0,B|168:344,1,80,8|0
200,256,126943,2,0,B|112:216,1,80
176,152,127282,2,0,B|144:64,1,80,8|0
232,56,127621,2,0,B|328:32|400:96,1,160,0|8
448,144,128130,1,0
480,224,128299,2,0,B|400:248|368:352,1,160,0|8
288,344,128808,1,0
296,256,128977,6,0,B|312:160|216:112,1,160,0|8
144,104,129486,1,0
104,184,129655,2,0,B|88:280|184:328,1,160,0|8
256,336,130164,1,0
296,256,130333,2,0,B|344:248|392:296,2,80,0|0|8
208,264,130842,1,0
144,200,131011,1,8
128,192,131096,1,0
136,104,131265,1,0
128,88,131350,1,8
208,48,131520,1,0
280,96,131689,6,0,B|320:24,1,80,4|0
280,96,132028,2,0,B|368:88,1,80,8|0
280,96,132367,2,0,B|336:168,1,80
280,96,132706,2,0,B|248:176,1,80,8|0
168,208,133045,2,0,B|224:280|320:240,1,160,0|8
368,176,133553,1,0
352,88,133723,2,0,B|296:16|200:56,1,160,0|8
136,96,134231,1,0
88,168,134401,6,0,B|48:240,1,80
136,240,134740,2,0,B|144:328,1,80,8|0
216,272,135079,2,0,B|288:328,1,80
336,248,135418,2,0,B|400:248,2,40,8|0|0
360,160,135757,1,0
300,89,135926,1,0
212,89,136096,1,8
152,160,136265,1,0
256,232,136435,5,8
256,232,136520,1,0
256,232,136604,1,0
256,336,136774,5,8
152,160,136943,1,0
360,160,137113,1,4
72,320,147791,5,0
72,320,147960,1,4
72,232,148130,2,0,B|72:136,1,80,0|8
152,188,148469,1,0
152,188,148638,1,0
152,276,148808,1,0
232,232,148977,2,0,B|296:232,2,40,8|0|0
400,320,149316,6,0,B|416:272|392:216,1,80
488,224,149655,2,0,B|472:184|488:136,1,80,8|0
400,152,149994,1,0
336,96,150164,1,0
256,64,150333,1,8
176,96,150503,1,0
112,152,150672,6,0,B|8:152,1,80
72,232,151011,1,8
72,320,151181,1,0
152,280,151350,2,0,B|232:232|328:296,1,160,0|8
232,336,151858,2,0,B|216:232|312:176,1,160
360,152,152367,1,8
360,152,152452,1,0
360,152,152536,1,0
448,152,152706,5,8
64,152,153045,1,8
64,152,153214,1,0
128,64,153384,6,0,B|184:128|144:216,1,160,0|8
112,296,153892,1,0
192,328,154062,2,0,B|288:328,2,80,0|0|8
232,248,154570,1,0
376,256,154740,6,0,B|416:224|408:176,1,80
288,88,155079,2,0,B|248:112|256:168,1,80,8|0
336,160,155418,2,0,B|376:128|368:80,1,80
232,16,155757,2,0,B|192:40|200:96,1,80,8|0
64,112,156096,6,0,B|24:184|64:272,1,160,0|8
136,304,156604,1,0
216,264,156774,2,0,B|232:312|304:336,1,80
312,240,157113,2,0,B|352:272|408:264,1,80,8|0
464,224,157452,1,0
456,136,157621,1,0
456,136,157706,1,0
456,136,157791,2,0,B|288:136,1,160,8|8
208,136,158299,5,0
48,136,158469,1,8
208,136,158638,1,0
144,64,158808,6,0,B|96:144|161:244,1,160,4|8
200,280,159316,1,0
272,328,159486,1,0
344,280,159655,1,0
392,208,159825,1,8
408,120,159994,2,0,B|360:32|248:48,1,160
312,128,160503,2,0,B|228:141|180:53,1,160,8|0
96,32,161011,1,0
24,80,161181,1,8
72,152,161350,1,0
8,216,161520,6,0,B|0:304|104:352,1,160,0|8
176,192,162197,1,0
104,240,162367,1,0
176,192,162536,1,8
264,192,162706,2,0,B|432:192,1,160
424,192,163214,1,8
424,192,163384,1,0
368,112,163553,5,8
368,272,163723,1,0
288,80,163892,1,8
288,304,164062,1,0
216,192,164231,6,0,B|200:144|144:128,1,80,4|0
128,56,164570,2,0,B|92:65|76:113,1,80,8|0
80,200,164909,1,0
104,280,165079,1,0
168,336,165248,1,8
256,352,165418,1,0
344,344,165587,6,0,B|400:352|448:304,1,80,4|0
360,264,165926,2,0,B|328:224|344:168,1,80,8|0
424,208,166265,2,0,B|472:216|504:184,1,80
440,128,166604,2,0,B|440:80,2,40,8|0|0
352,120,166943,5,4
176,120,167282,1,8
328,24,167621,1,4
256,72,167791,1,0
256,160,167960,1,8
328,216,168130,1,0
352,120,168299,2,0,B|440:120,3,80,0|0|0|0
160,120,169147,6,0,B|72:120,2,80
216,48,169655,6,0,B|272:128|207:206,1,160,4|2
160,120,170164,1,0
72,120,170333,1,0
72,120,170503,1,2
248,120,170842,1,2
328,80,171011,2,0,B|368:56|440:72,1,80,2|0
384,152,171350,2,0,B|440:152|480:208,1,80,0|2
392,240,171689,1,2
472,280,171858,1,0
472,280,171943,1,0
472,280,172028,1,2
400,328,172197,1,0
312,336,172367,6,0,B|136:336,1,160,4|2
80,288,172875,1,0
96,200,173045,1,0
162,257,173214,1,0
80,288,173384,1,2
96,200,173553,2,0,B|56:112|136:32,1,160
119,51,174062,1,2
119,51,174231,1,0
176,136,174401,5,8
296,192,174570,1,0
248,32,174740,1,8
368,80,174909,1,0
384,168,175079,6,0,B|416:208|480:224,1,80,4|0
376,264,175418,2,0,B|384:312|432:344,1,80,8|0
472,264,175757,1,0
415,331,175926,1,0
328,336,176096,1,8
248,296,176265,2,0,B|160:320|80:232,1,160
56,176,176774,2,0,B|56:136,2,40,8|0|0
160,104,177113,5,8
448,48,177452,1,8
448,48,177621,1,0
296,48,177791,6,0,B|344:56|384:112,1,80,4|0
288,128,178130,1,8
288,128,178214,1,0
288,128,178299,1,0
352,184,178469,2,0,B|400:192|432:248,1,80,4|0
344,264,178808,1,8
344,264,178892,1,0
344,264,178977,1,0
280,320,179147,1,4
200,352,179316,1,0
120,320,179486,1,4
56,264,179655,1,0
256,192,179825,12,0,181689
152,72,182536,5,8
360,72,182706,1,8
256,184,182875,1,8
256,184,182960,1,8
256,184,183045,1,8
168,168,183214,6,0,B|144:248,1,80,4|0
344,168,183553,2,0,B|368:248,1,80,8|0
104,192,183892,2,0,B|80:272,1,80
408,192,184231,2,0,B|432:272,1,80,8|0
256,360,184570,6,0,B|216:312|320:240|256:184|256:184,1,160,0|8
184,232,185079,1,0
96,232,185248,2,0,B|32:168,1,80
128,152,185587,2,0,B|96:120,2,40,8|0|0
192,88,185926,6,0,B|248:16|368:40,2,160,0|8|0
224,168,186774,1,0
312,176,186943,1,8
368,112,187113,1,0
456,104,187282,6,0,B|448:48|384:24,2,80,0|0|8
472,192,187791,2,0,B|384:232|416:352,1,160
488,280,188299,1,8
328,344,188469,1,8
256,296,188638,6,0,B|256:216,1,80,4|0
184,344,188977,2,0,B|144:272,1,80,8|0
328,344,189316,2,0,B|368:272,1,80
256,216,189655,2,0,B|256:128,1,80,8|0
168,176,189994,5,4
344,176,190164,1,0
256,304,190333,1,8
256,128,190503,1,0
256,216,190672,1,0
256,304,190842,6,0,B|256:392,2,80,0|8|0
176,344,191350,2,0,B|176:248,1,80,4|0
336,344,191689,2,0,B|336:256,1,80,8|0
256,216,192028,1,4
256,216,192197,1,0
256,128,192367,1,8
256,128,192536,1,0
208,208,192706,5,4
344,112,192875,1,0
168,112,193045,1,4
304,208,193214,1,0
256,40,193384,5,4
256,40,193553,1,0
256,128,193723,1,4
256,128,193892,1,0
208,208,194062,6,0,B|184:296|72:312,1,160,4|8
304,176,194740,2,0,B|336:80|440:72,1,160,0|8
280,264,195418,2,0,B|320:336,2,80,0|0|8
192,248,195926,2,0,B|240:152|352:200,1,160
280,264,196435,1,8
280,280,196519,1,0
280,296,196604,1,0
136,328,196774,6,0,B|-24:328,2,160,0|8|0
184,256,197621,1,0
104,216,197791,1,8
179,171,197960,1,0
264,200,198130,2,0,B|440:200,1,160,0|8
374,127,198638,2,0,B|312:200|383:287,1,160
424,200,199147,1,8
440,200,199231,1,0
456,200,199316,1,0
336,48,199486,5,4
336,48,199655,1,0
256,144,199825,5,8
256,144,199994,1,0
176,48,200164,5,0
176,48,200333,1,0
96,144,200503,5,8
96,144,200672,1,0
16,240,200842,6,0,B|16:328|64:336,1,80,4|0
144,256,201181,2,0,B|168:304|224:328,1,80,8|0
264,224,201519,5,0
272,224,201604,1,0
280,224,201689,1,0
288,224,201774,1,0
296,224,201858,1,8
304,224,201943,1,0
312,224,202028,1,0
320,224,202113,1,0
328,224,202197,6,0,B|456:224,1,119.999996423721,4|2
472,152,202706,1,0
440,80,202875,1,2
440,80,202960,1,0
440,80,203045,2,0,B|488:8,2,59.9999982118607,0|2|0
368,48,203553,1,2
296,80,203723,1,0
296,80,203808,1,0
296,80,203892,2,0,B|216:80,1,59.9999982118607,2|0
160,80,204231,1,2
80,80,204401,1,0
160,80,204570,1,2
256,344,204909,5,4
256,40,205248,1,4
40,192,205587,5,0
472,192,206265,1,4
