osu file format v9

[General]
AudioFilename: Meltdown (Ryu Remix).mp3
AudioLeadIn: 0
PreviewTime: 104401
Countdown: 0
SampleSet: Soft
StackLeniency: 0.6
Mode: 0
LetterboxInBreaks: 1

[Editor]
DistanceSpacing: 1.1
BeatDivisor: 4
GridSize: 8

[Metadata]
Title:Meltdown (Ryu Remix)
Artist:Kagamine Rin
Creator:banvi
Version:Hard
Source:Vocaloid
Tags:iroha sasaki Ryutaro Nakahara Vocaloid2

[Difficulty]
HPDrainRate:5
CircleSize:4
OverallDifficulty:5
ApproachRate:7
SliderMultiplier:1.4
SliderTickRate:1

[Events]
//Background and Video events
0,0,"bg.png"
//Break Periods
2,60025,69603
2,137313,146891
//Storyboard Layer 0 (Background)
//Storyboard Layer 1 (Fail)
//Storyboard Layer 2 (Pass)
//Storyboard Layer 3 (Foreground)
//Storyboard Sound Samples
//Background Colour Transformations
3,100,163,162,255

[TimingPoints]
1520,338.983050847458,4,2,0,60,1,0
23045,-100,4,2,2,60,0,0
28553,-100,4,2,2,65,0,0
33892,-100,4,2,2,70,0,0
44740,-133.333333333333,4,2,2,30,0,0
47536,-100,4,2,2,80,0,0
49147,-100,4,2,1,70,0,0
59656,-100,4,2,2,80,0,0
70333,-100,4,2,1,70,0,0
90757,-100,4,2,1,55,0,0
92282,-100,4,2,2,60,0,0
97706,-100,4,2,2,65,0,0
102452,-100,4,2,1,10,0,0
104570,-100,4,2,1,80,0,1
124826,-100,4,2,2,70,0,1
126096,-100,4,2,2,80,0,0
126435,-100,4,2,1,70,0,0
136943,-100,4,2,2,70,0,0
147621,-100,4,2,1,70,0,0
179740,-100,4,2,1,10,0,0
181858,-100,4,2,1,40,0,0
183213,-100,4,2,1,80,0,1
202197,-100,4,2,1,65,0,0
204740,-100,4,2,1,80,0,0
205926,-100,4,2,2,80,0,0

[Colours]
Combo1 : 128,128,128
Combo2 : 255,0,0
Combo3 : 255,128,0
Combo4 : 128,0,128

[HitObjects]
104,144,23214,2,0,B|136:64|232:72,1,140,0|2
408,144,23892,2,0,B|376:64|280:72,1,140,0|2
189,192,24570,2,0,B|261:240|340:181,1,140,0|2
344,272,25079,1,2
256,136,25418,1,2
168,272,25757,1,2
448,72,26774,5,0
376,40,26943,1,2
304,72,27113,1,0
232,40,27282,2,0,B|144:32|104:112,1,140,0|2
184,136,27791,2,0,B|152:200|64:192,1,140,0|2
8,248,28299,1,0
56,312,28469,1,2
136,312,28638,6,0,B|208:312,2,70,0|0|2
288,312,29316,2,0,B|376:312,2,70,0|0|2
256,240,29825,1,0
176,240,29994,2,0,B|120:168|184:96,1,140,0|2
171,111,30503,1,0
400,56,30842,6,0,B|472:104|440:192,1,140,2|2
368,160,31350,2,0,B|352:200|296:216,1,70
288,136,31689,2,0,B|256:160|208:160,1,70,2|0
224,80,32028,1,0
144,80,32197,2,0,B|64:96|56:192,1,140,2|2
120,240,32706,5,0
176,304,32875,1,2
256,344,33045,1,0
336,304,33214,1,2
392,240,33384,2,0,B|472:240,2,70,8|2|8
256,48,34062,6,0,B|168:56|152:168,1,140,0|8
256,336,34740,2,0,B|344:328|360:216,1,140,0|8
256,120,35418,2,0,B|256:264,1,140,0|8
188,297,35926,2,0,B|356:297,1,140,0|0
408,296,36435,1,8
440,224,36604,6,0,B|496:168|464:88,1,140,0|0
392,72,37113,2,0,B|336:128|368:208,1,140,8|0
384,280,37621,1,0
384,360,37791,1,8
384,280,37960,1,0
312,320,38130,2,0,B|232:344|176:280,1,140,0|8
240,232,38638,2,0,B|191:176|111:200,1,140,0|8
152,352,39316,1,8
72,352,39486,6,0,B|-16:352,2,70,0|0|8
232,352,40164,2,0,B|304:352,2,70,0|0|8
152,352,40672,1,0
104,288,40842,2,0,B|64:208|144:144,1,140,0|8
80,96,41350,2,0,B|160:56|216:144,1,140,0|0
248,192,41858,1,8
216,264,42028,1,0
272,320,42197,6,0,B|352:344|416:288,1,140,0|8
376,224,42706,1,0
424,160,42875,2,0,B|504:160,2,70,0|0|8
376,96,43384,1,0
304,64,43553,2,0,B|240:16|168:48,1,140,0|8
112,96,44062,1,0
32,88,44231,1,8
64,162,44401,1,0
64,162,44570,1,8
256,352,44909,5,0
304,296,45248,1,0
256,240,45587,1,0
208,184,45926,1,0
256,128,46265,1,0
256,128,46774,6,0,B|272:72|328:56,2,104.999996870756
256,192,47621,12,4,48977
98,332,49316,6,0,B|128:256|216:264,2,140,8|0|8
256,336,50333,2,0,B|336:368|408:296,1,140,0|8
344,248,50842,1,0
408,200,51011,2,0,B|472:152|448:64,1,140,0|8
376,48,51519,1,0
296,40,51689,6,0,B|208:16|136:80,1,140,0|8
120,128,52197,1,0
88,200,52367,2,0,B|64:224|64:296,1,70
144,256,52706,2,0,B|144:304|168:336,1,70,8|0
224,280,53045,2,0,B|264:344|376:336,1,140,0|8
408,192,53723,2,0,B|352:120|256:136,1,140,0|8
216,168,54231,1,0
248,240,54401,6,0,B|240:328|128:336,1,140,0|8
56,216,55079,2,0,B|64:128|176:120,1,140,0|8
216,168,55587,1,0
288,136,55757,2,0,B|320:112|376:112,1,70
344,192,56096,2,0,B|384:200|416:224,1,70,8|0
352,272,56435,2,0,B|352:344,2,70,0|0|8
336,112,57113,6,0,B|288:48|184:64,1,140,0|8
136,88,57621,1,0
72,136,57791,2,0,B|32:160|32:224,1,70
112,208,58130,2,0,B|104:248|128:288,1,70,8|0
192,240,58469,2,0,B|264:208|336:264,1,140,0|8
360,328,58977,1,0
440,328,59147,1,8
432,248,59316,1,0
440,328,59486,1,8
256,192,59825,5,4
432,64,70503,5,0
432,64,70672,2,0,B|464:144|400:216,1,140,4|8
440,272,71181,1,0
376,320,71350,2,0,B|304:272|216:296,1,140,0|8
168,312,71858,1,0
96,280,72028,5,0
144,216,72197,1,0
72,184,72367,1,8
128,128,72536,1,0
192,80,72706,2,0,B|256:32,1,70
272,112,73045,2,0,B|336:64,1,70,8|0
392,24,73384,6,0,B|464:56|472:160,1,140,0|8
440,208,73892,1,0
456,288,74062,2,0,B|448:328|480:360,2,70,0|0|8
440,208,74570,2,0,B|448:120|376:88,1,140
312,56,75079,1,8
264,120,75248,2,0,B|200:208|64:192,1,210,0|8
56,120,75926,1,0
136,120,76096,6,0,B|200:168|176:264,1,140,0|8
200,320,76604,1,0
280,312,76774,2,0,B|344:360|432:336,1,140,0|8
472,288,77282,1,0
440,216,77452,6,0,B|464:176|464:136,1,70
384,160,77791,2,0,B|384:128|360:96,1,70,8|0
304,152,78130,1,0
232,184,78299,1,0
184,120,78469,1,8
104,112,78638,1,0
56,48,78808,6,0,B|0:104|48:184,1,140,0|8
120,192,79316,1,0
192,224,79486,2,0,B|216:304|152:360,1,140,0|8
128,280,79994,2,0,B|208:280|272:344,1,140
328,360,80503,2,0,B|408:352|424:264,2,140,8|8|8
336,280,81350,1,0
368,208,81520,6,0,B|416:168|416:136,1,70,4|0
336,128,81858,2,0,B|344:80|328:48,1,70,8|0
256,32,82197,1,0
176,32,82367,1,0
184,112,82536,1,8
104,112,82706,2,0,B|40:152|56:240,1,140
128,200,83214,2,0,B|136:272|224:304,1,140,8|0
288,328,83723,1,0
368,328,83892,1,8
424,272,84062,1,0
416,192,84231,6,0,B|408:104|496:72,2,140,0|8|0
424,272,85079,1,0
368,328,85248,1,8
288,328,85418,2,0,B|232:264|144:272,1,140
88,272,85926,1,8
56,200,86096,2,0,B|24:112|104:56,1,140
152,32,86604,1,8
152,32,86774,1,0
232,40,86943,6,0,B|304:32|368:96,1,140,4|8
408,152,87452,1,0
440,224,87621,1,0
408,296,87791,1,0
336,328,87960,1,8
264,296,88130,1,0
184,288,88299,6,0,B|136:344|40:328,1,140,4|8
80,256,88808,1,0
48,184,88977,2,0,B|0:104,2,70,0|0|8
128,192,89486,1,0
160,120,89655,6,0,B|200:40|304:48,1,140,4|8
208,192,90333,2,0,B|168:272|64:264,1,140,4|8
16,256,90842,5,0
152,336,91181,1,0
248,216,91520,1,0
352,96,91858,6,0,B|432:96,2,70
304,32,92367,2,0,B|248:88|296:160,1,140,4|2
352,216,92875,1,0
432,216,93045,2,0,B|520:216,2,70,0|0|2
400,288,93553,2,0,B|456:344,2,70
320,288,94062,2,0,B|288:360,2,70,2|0|0
352,216,94570,1,8
352,216,94740,1,8
192,48,95079,6,0,B|112:40|72:112,1,140,0|2
96,184,95587,1,0
64,256,95757,2,0,B|0:296,2,70,0|0|2
136,280,96265,2,0,B|184:344|288:328,1,140
336,304,96774,1,2
400,256,96943,1,0
432,184,97113,2,0,B|432:104,1,70,8|0
360,144,97452,2,0,B|360:64,1,70,8|0
288,104,97791,6,0,B|232:48|152:64,1,140,0|2
88,96,98299,1,0
56,168,98469,2,0,B|24:248,2,70,0|0|2
128,200,98977,1,0
176,264,99147,1,0
120,320,99316,1,0
176,264,99486,1,2
256,264,99655,2,0,B|312:216|416:248,1,140
344,304,100164,2,0,B|304:232|336:168,1,140,2|0
432,56,100842,5,2
360,24,101011,1,0
280,16,101181,1,0
232,80,101350,1,0
224,160,101520,1,2
240,240,101689,2,0,B|216:312|112:312,1,140,2|2
130,311,102197,1,0
130,311,102367,1,2
256,192,102536,12,0,104062
112,72,104570,6,0,B|80:96|72:144,1,70,4|0
152,144,104909,2,0,B|144:184|176:232,1,70,8|0
232,168,105248,2,0,B|320:176|360:96,2,140,0|8|0
232,88,106096,1,0
288,32,106265,1,8
368,40,106435,2,0,B|448:48|488:128,1,140
480,192,106943,1,8
416,240,107113,1,0
352,288,107282,6,0,B|296:336|200:304,2,140,0|8|0
416,240,108130,1,0
344,208,108299,1,8
408,160,108469,1,0
336,128,108638,2,0,B|288:48|192:80,1,140,0|8
256,144,109147,2,0,B|272:224|192:280,1,140
144,312,109655,1,8
64,304,109825,1,0
16,240,109994,6,0,B|16:72,2,140,4|8|0
96,240,110842,2,0,B|192:240,2,70,0|8|0
96,160,111350,2,0,B|88:72|184:32,1,140,4|8
232,32,111858,2,0,B|264:104|346:93,1,140
424,80,112367,1,8
472,144,112536,1,0
440,216,112706,6,0,B|456:304|344:336,1,140,4|8
296,344,113214,1,0
224,312,113384,2,0,B|176:248|72:256,1,140,4|8
24,280,113892,1,0
32,200,114062,2,0,B|0:168|0:112,2,70,4|0|8
80,136,114570,1,0
128,72,114740,2,0,B|160:104|160:160,2,70,4|0|8
104,304,115418,5,4
336,328,115757,1,8
128,224,116096,1,0
360,248,116435,1,8
152,144,116774,2,0,B|144:64|216:32,1,140,0|8
232,112,117282,2,0,B|312:144|384:64,1,140
432,48,117791,1,8
432,128,117960,1,0
432,208,118130,6,0,B|432:360,2,140,0|8|0
352,208,118977,2,0,B|272:208,2,70,0|8|0
320,280,119486,2,0,B|280:344|168:328,1,140,0|8
120,312,119994,2,0,B|52:262|69:189,1,140
80,112,120503,1,8
136,56,120672,1,0
216,56,120842,6,0,B|360:56,2,140,4|8|0
136,56,121689,1,0
80,112,121858,1,8
136,168,122028,1,0
72,216,122197,2,0,B|48:296|104:352,1,140,4|8
176,328,122706,2,0,B|224:272|304:280,1,140
378,283,123214,1,8
456,296,123384,1,0
456,216,123553,6,0,B|488:136|424:64,1,140,4|8
368,48,124062,1,0
288,48,124231,2,0,B|208:48,2,70,4|0|8
256,120,124740,1,0
176,120,124909,2,0,B|80:120,2,70,8|0|8
256,120,125418,1,0
256,120,125587,1,8
336,120,125757,1,0
336,120,125926,1,8
414,332,126265,5,4
414,332,126604,2,0,B|384:256|296:264,2,140,8|0|8
256,336,127621,2,0,B|176:368|104:296,1,140,0|8
168,248,128130,1,0
104,200,128299,2,0,B|40:152|64:64,1,140,0|8
136,48,128808,1,0
216,40,128977,6,0,B|304:16|376:80,1,140,0|8
392,128,129486,1,0
424,200,129655,2,0,B|448:224|448:296,1,70
368,256,129994,2,0,B|368:304|344:336,1,70,8|0
288,280,130333,2,0,B|248:344|136:336,1,140,0|8
104,192,131011,2,0,B|160:120|256:136,1,140,0|8
296,168,131520,1,0
264,240,131689,6,0,B|272:328|384:336,1,140,4|8
456,216,132367,2,0,B|448:128|336:120,1,140,0|8
296,168,132875,1,0
224,136,133045,2,0,B|192:112|136:112,1,70
168,192,133384,2,0,B|128:200|96:224,1,70,8|0
160,272,133723,2,0,B|160:344,2,70,0|0|8
176,112,134401,6,0,B|224:48|328:64,1,140,0|8
376,88,134909,1,0
440,136,135079,2,0,B|480:160|480:224,1,70
400,208,135418,2,0,B|408:248|384:288,1,70,8|0
320,240,135757,2,0,B|248:208|176:264,1,140,0|8
152,328,136265,1,0
72,328,136435,1,8
80,248,136604,1,0
72,328,136774,1,8
256,192,137113,5,4
88,48,147791,5,0
88,48,147960,2,0,B|32:104|64:192,1,140,4|8
96,248,148469,1,0
64,320,148638,2,0,B|152:344|192:256,1,140,0|8
232,208,149147,1,0
280,144,149316,6,0,B|360:144,2,70,0|0|8
216,96,149825,1,0
152,48,149994,2,0,B|64:48,2,70,0|0|8
216,96,150503,1,0
296,96,150672,6,0,B|376:72|448:152,1,140,0|8
440,208,151181,1,0
392,272,151350,2,0,B|312:296|248:224,1,140,0|8
248,160,151858,2,0,B|232:80|128:64,1,140
72,72,152367,1,8
40,144,152536,2,0,B|32:264|152:304,1,210,0|8
224,320,153214,1,0
296,288,153384,6,0,B|304:200|416:192,1,140,0|8
448,248,153892,1,0
376,272,154062,2,0,B|296:240|280:168,1,140,0|8
248,104,154570,1,0
216,32,154740,5,0
136,24,154909,1,0
64,56,155079,1,8
32,128,155248,1,0
40,208,155418,2,0,B|32:256|56:304,2,70,0|0|8
112,240,155926,1,0
184,272,156096,6,0,B|240:336|328:312,1,140,0|8
376,272,156604,1,0
408,200,156774,2,0,B|448:176|464:136,2,70,0|0|8
328,208,157282,2,0,B|264:152|192:184,1,140
120,200,157791,2,0,B|48:144|96:56,2,140,8|8|8
152,128,158638,1,0
216,80,158808,6,0,B|248:48|304:40,1,70,4|0
288,120,159147,2,0,B|328:104|384:112,1,70,8|0
336,184,159486,1,0
416,192,159655,1,0
448,264,159825,1,8
392,320,159994,2,0,B|344:368|256:360,1,140
184,352,160503,2,0,B|103:329|81:265,1,140,8|0
104,192,161011,2,0,B|24:192,2,70,0|8|0
81,118,161520,6,0,B|103:55|184:32,2,140,0|8|0
48,192,162367,1,0
80,264,162536,1,8
144,312,162706,2,0,B|208:360|280:328,1,140
344,288,163214,1,8
392,224,163384,2,0,B|431:160|392:90,1,140
352,24,163892,1,8
352,24,164062,1,0
272,24,164231,6,0,B|184:16|144:112,1,140,4|8
104,144,164740,1,0
72,216,164909,1,0
80,296,165079,1,0
160,288,165248,1,8
208,352,165418,1,0
288,352,165587,6,0,B|448:352,2,140,4|8|0
224,304,166435,1,0
168,256,166604,1,8
192,184,166774,1,0
240,120,166943,6,0,B|224:32|128:32,1,140,4|8
296,48,167621,2,0,B|304:136|400:144,1,140,4|8
384,64,168130,2,0,B|464:64,2,70
384,64,168638,1,0
384,64,168808,1,0
128,64,169147,6,0,B|48:64,2,70
208,64,169655,6,0,B|232:144|152:208,1,140,4|2
104,232,170164,1,0
24,232,170333,1,0
56,304,170503,1,0
136,304,170672,1,2
216,304,170842,2,0,B|312:304,2,70
184,232,171350,2,0,B|184:152,2,70,2|0|0
264,232,171858,2,0,B|352:232|368:152,1,140,2|2
448,152,172367,6,0,B|416:72|336:80,1,140,4|2
264,80,172875,1,0
184,80,173045,2,0,B|128:24,2,70,0|0|2
152,152,173553,2,0,B|80:184|80:296,1,140
96,344,174062,1,2
176,352,174231,1,0
248,320,174401,2,0,B|288:320|336:304,1,70,2|0
280,240,174740,2,0,B|320:240|368:224,1,70,2|0
312,160,175079,6,0,B|320:72|424:64,1,140,4|8
464,112,175587,1,0
456,192,175757,1,0
376,208,175926,1,0
368,288,176096,1,8
288,296,176265,2,0,B|216:256|128:304,1,140
88,336,176774,1,8
88,336,176943,1,0
184,216,177282,1,0
120,264,177452,1,8
56,216,177621,1,0
80,144,177791,6,0,B|88:64|176:40,1,140,4|8
240,24,178299,1,0
288,88,178469,1,4
360,56,178638,1,0
408,120,178808,1,8
480,88,178977,1,0
472,168,179147,2,0,B|472:248,2,70,4|0|4
472,168,179655,1,0
256,192,179825,12,0,181689
256,304,182536,5,8
256,304,182706,1,8
256,304,182875,2,8,B|256:360,2,35
256,224,183214,5,4
56,336,183553,1,8
256,304,183892,1,0
456,336,184231,1,8
256,224,184570,2,0,B|248:136|336:112,1,140,0|8
400,88,185079,2,0,B|408:176|320:200,1,140
256,224,185587,1,8
256,224,185757,1,0
256,304,185926,6,0,B|424:304,2,140,0|8|0
176,304,186774,1,0
96,304,186943,1,8
64,232,187113,1,0
64,152,187282,2,0,B|56:72|136:40,1,140,0|8
200,80,187791,2,0,B|232:152|328:152,1,140
392,152,188299,1,8
448,96,188469,1,0
472,176,188638,6,0,B|520:240|480:328,1,140,4|8
336,328,189316,2,0,B|288:264|328:176,1,140,0|8
392,152,189825,1,0
392,232,189994,2,0,B|320:280|232:240,1,140,4|8
184,216,190503,2,0,B|128:256,2,70
152,144,191011,1,8
208,88,191181,1,0
288,80,191350,6,0,B|376:80|400:160,1,140,4|8
432,224,191858,1,0
400,296,192028,2,0,B|378:367|290:367,1,140,4|8
216,368,192536,1,0
136,368,192706,2,0,B|40:368,2,70,4|0|8
104,296,193214,1,0
176,264,193384,1,4
248,296,193553,1,8
248,296,193723,1,8
440,192,194062,6,0,B|472:168|488:120,1,70,4|0
408,112,194401,2,0,B|435:83|444:33,1,70,8|0
360,40,194740,2,0,B|280:8|200:72,1,140,0|8
312,184,195418,2,0,B|258:229|178:197,1,140,0|8
120,144,195926,2,0,B|80:208|120:280,1,140
168,341,196435,1,8
248,336,196604,1,0
312,288,196774,6,0,B|352:352|440:352,2,140,0|8|0
360,224,197621,1,0
416,168,197791,1,8
368,104,197960,1,0
312,160,198130,2,0,B|232:176|192:104,1,140,0|8
231,36,198638,2,0,B|143:12|106:100,1,140
136,160,199147,1,8
136,160,199316,1,0
88,224,199486,6,0,B|32:288,1,70,4|0
120,296,199825,2,0,B|120:376,1,70,8|0
192,336,200164,2,0,B|272:368,1,70
256,288,200503,2,0,B|352:288,1,70,8|0
288,216,200842,6,0,B|344:152,1,70,4|0
256,144,201181,2,0,B|256:64,1,70,8|0
184,104,201519,2,0,B|104:72,1,70
120,152,201858,2,0,B|24:152,1,70,8|0
88,224,202197,6,0,B|112:304|208:328,1,140,4|2
256,352,202706,1,0
328,320,202875,2,0,B|398:303|422:223,2,140,2|2|2
256,352,203723,2,0,B|256:256,2,70,0|2|0
184,320,204231,1,2
256,282,204401,1,0
328,320,204570,1,2
128,176,204909,5,4
384,176,205248,1,4
256,88,205587,5,0
256,88,206265,1,4
