osu file format v5

[General]
AudioFilename: rosin_yuukai.mp3
AudioLeadIn: 0
PreviewTime: -1
Countdown: 1
SampleSet: Soft
StackLeniency: 0.7
Mode: 0
LetterboxInBreaks: 1
EditorBookmarks: 33727,34454
EditorDistanceSpacing: 1

[Metadata]
Title:Meltdown
Artist:Kagamine Rin
Creator:N0mad
Version:Normal
Source:Nico
Tags:

[Difficulty]
HPDrainRate:4
CircleSize:4
OverallDifficulty:4
SliderMultiplier:0.999999999999999
SliderTickRate:1

[Events]
//Background and Video events
Video,0,"meltdown.avi"
0,0,"20090124_meltdown_005.jpg"
//Break Periods
2,43378,53187
//Storyboard Layer 0 (Background)
//Storyboard Layer 1 (Fail)
//Storyboard Layer 2 (Pass)
//Storyboard Layer 3 (Foreground)
//Storyboard Sound Samples
//Background Colour Transformations
3,100,163,162,255

[TimingPoints]
7360,363.636363636364,4,2,0,100,1,0

[HitObjects]
272,200,8269,1,0
184,256,8632,1,0
112,184,8996,2,0,B|160:136,2,50
184,120,9723,1,0
280,120,10087,1,0
352,192,10450,5,0
352,240,10632,1,0
352,288,10814,1,0
448,288,11178,1,0
448,184,11541,1,0
384,104,11905,5,0
336,88,12087,1,0
288,104,12269,1,0
336,192,12632,1,0
336,88,12996,1,0
384,176,13360,1,0
336,192,13541,1,0
288,176,13723,1,0
208,120,14087,6,0,B|288:48,1,99.9999999999999
328,64,14632,2,0,B|424:112,1,99.9999999999999
416,208,15360,1,0
416,256,15541,1,0
264,256,16087,1,0
264,104,16632,1,0
264,152,16814,1,0
264,200,16996,1,0
112,200,17541,5,0
40,128,17905,1,0
80,104,18087,1,0
120,80,18269,1,0
168,56,18450,1,0
376,72,19178,1,0
376,168,19541,1,0
376,264,19905,1,0
376,216,20087,1,0
176,216,20814,5,0
272,216,21178,1,0
192,152,21541,1,0
272,216,21905,1,0
272,168,22087,1,0
368,168,22450,1,0
368,64,22814,1,0
320,64,22996,1,0
128,120,23723,5,0
128,216,24087,1,0
216,168,24450,1,0
296,224,24814,1,0
296,176,24996,1,0
392,176,25360,1,0
392,272,25723,1,0
392,320,25905,1,0
192,320,26632,5,0
264,248,26996,1,0
192,168,27360,1,0
128,248,27723,1,0
88,208,27905,1,0
48,304,28269,1,0
24,208,28632,1,0
24,160,28814,1,0
232,80,29541,5,0
288,160,29905,1,0
344,240,30269,1,0
240,240,30632,1,0
200,200,30814,1,0
192,352,31360,5,0
152,320,31541,1,0
304,320,32087,5,0
352,320,32269,1,0
440,200,32814,1,0
416,152,32996,1,0
368,136,33178,1,0
328,160,33360,1,0
296,200,33541,2,0,B|256:240,5,50
112,240,34996,5,0
152,216,35178,1,0
248,208,35541,1,0
288,240,35723,1,0
200,288,36087,1,0
200,336,36269,1,0
200,384,36450,1,0
376,296,37178,5,0
360,248,37360,1,0
208,256,37905,1,0
184,296,38087,1,0
296,200,38632,5,0
264,160,38814,1,0
216,144,38996,1,0
168,152,39178,1,0
128,176,39360,1,0
96,216,39541,1,0
80,264,39723,1,0
80,312,39905,1,0
104,352,40087,1,0
152,368,40269,1,0
232,240,40814,5,0
192,208,40996,1,0
192,104,41360,1,0
240,80,41541,1,0
296,160,41905,1,0
344,160,42087,1,0
240,200,54087,5,0
200,160,54269,1,0
152,144,54450,1,0
104,160,54632,1,0
72,200,54814,1,0
152,256,55178,1,0
200,344,55541,1,0
152,360,55723,1,0
104,336,55905,1,0
152,256,56269,5,0
248,264,56632,1,0
296,264,56814,1,0
392,240,57178,1,0
352,208,57360,1,0
248,200,57723,1,0
248,96,58087,1,0
336,144,58450,1,0
352,96,58632,1,0
336,48,58814,1,0
248,96,59178,5,0
160,48,59541,1,0
248,96,59905,1,0
216,136,60087,1,0
208,184,60269,1,0
288,240,60632,1,0
376,184,60996,1,0
328,272,61360,1,0
376,288,61541,1,0
424,272,61723,1,0
376,184,62087,5,0
376,80,62450,1,0
376,32,62632,1,0
272,32,62996,1,0
272,80,63178,1,0
168,80,63541,1,0
168,32,63723,1,0
168,184,64269,5,0
200,224,64450,1,0
248,240,64632,1,0
296,240,64814,1,0
384,192,65178,1,0
344,168,65360,1,0
296,168,65541,1,0
256,184,68632,5,0
152,184,68996,1,0
200,112,69314,1,0
96,112,69678,1,0
152,16,70087,1,0
240,16,70405,1,0
288,16,70587,1,0
344,112,70996,1,0
344,208,71360,2,0,B|304:248|208:272|160:248,1,187.5
80,208,72405,5,0
144,208,72632,1,0
144,160,72814,1,0
144,112,72996,1,0
240,112,73360,1,0
240,160,73541,1,0
240,256,73905,1,0
288,256,74087,1,0
336,256,74269,1,0
424,112,75360,5,0
376,128,75541,1,0
376,176,75723,1,0
336,208,75905,1,0
336,304,76269,1,0
296,328,76450,1,0
192,328,76814,5,0
192,224,77178,1,0
192,176,77360,1,0
96,200,77723,1,0
24,272,78087,5,0
72,288,78269,1,0
120,272,78450,1,0
160,240,78632,1,0
192,200,78814,1,0
232,104,79178,5,0
320,56,79541,1,0
400,112,79905,1,0
400,208,80269,1,0
320,264,80632,5,0
232,216,80996,1,0
152,160,81360,1,0
64,216,81723,1,0
64,304,82041,1,0
112,344,82269,1,0
200,344,82587,1,0
288,272,82996,2,0,B|272:184|224:144|160:152,1,187.5
56,152,84087,5,0
104,152,84269,1,0
152,152,84450,1,0
200,152,84632,1,0
128,224,84996,1,0
128,272,85178,1,0
128,168,85541,1,0
128,64,85905,2,0,B|200:88|232:88|256:144,1,150
280,176,86632,6,0,B|304:232,2,50
280,136,87132,1,0
280,24,87541,1,0
376,32,87905,5,0
376,32,87996,1,0
376,32,88087,1,0
408,72,88269,1,0
424,120,88450,1,0
424,168,88632,1,0
408,216,88814,1,0
368,248,88996,1,0
272,264,89360,6,0,B|216:272,5,50
176,280,90450,1,0
128,272,90632,1,0
96,232,90814,1,0
80,184,90996,1,0
96,136,91178,1,0
128,104,91360,1,0
176,88,91541,1,0
