osu file format v5

[General]
AudioFilename: rosin_yuukai.mp3
AudioLeadIn: 0
PreviewTime: -1
Countdown: 1
SampleSet: Soft
StackLeniency: 0.7
Mode: 0
LetterboxInBreaks: 1
EditorBookmarks: 33727,34454
EditorDistanceSpacing: 1

[Metadata]
Title:Meltdown
Artist:Kagamine Rin
Creator:N0mad
Version:Hard
Source:Nico
Tags:

[Difficulty]
HPDrainRate:7
CircleSize:6
OverallDifficulty:7
SliderMultiplier:0.999999999999999
SliderTickRate:1

[Events]
//Background and Video events
Video,0,"meltdown.avi"
0,0,"20090124_meltdown_005.jpg"
//Break Periods
2,43378,53187
2,91741,101187
//Storyboard Layer 0 (Background)
//Storyboard Layer 1 (Fail)
//Storyboard Layer 2 (Pass)
//Storyboard Layer 3 (Foreground)
//Storyboard Sound Samples
//Background Colour Transformations
3,100,163,162,255

[TimingPoints]
7360,363.636363636364,4,2,0,100,1,0

[HitObjects]
256,96,8269,2,0,B|352:112|352:144,1,99.9999999999999
352,184,8814,2,0,B|272:248|256:216,1,99.9999999999999
216,224,9360,1,0
216,176,9541,1,0
232,128,9723,1,2
160,96,10087,5,0
160,96,10178,1,0
160,96,10269,1,0
112,96,10450,1,8
40,168,10814,1,0
40,168,10905,1,0
40,168,10996,1,0
40,216,11178,6,8,B|120:264|152:232,1,99.9999999999999,8|0
184,232,11723,2,0,B|272:192|288:240,1,99.9999999999999
328,240,12269,1,0
344,192,12450,1,0
352,144,12632,1,2
352,40,12996,5,0
352,40,13087,1,0
352,40,13178,1,0
304,48,13359,1,8
208,88,13723,1,0
208,88,13814,1,0
208,88,13905,1,0
160,112,14087,1,8
56,112,14450,5,0
56,208,14814,1,0
40,256,14996,1,0
56,304,15178,1,8
152,304,15541,5,2
216,232,15905,1,2
280,304,16269,1,0
312,264,16450,1,0
320,216,16632,1,0
248,152,16996,5,2
320,88,17360,1,2
240,24,17723,1,0
200,48,17905,1,0
176,88,18087,1,0
112,184,18450,5,2
48,112,18814,1,2
120,40,19178,5,0
216,40,19541,1,0
312,40,19905,2,0,B|384:40,1,50
408,40,20269,1,4
480,168,20814,5,0
480,264,21178,1,0
424,344,21541,1,0
328,344,21905,1,0
376,344,22087,1,0
424,264,22450,1,0
424,168,22814,1,0
424,216,22996,1,0
256,96,23723,5,2
168,144,24087,1,2
256,184,24450,1,2
344,144,24814,1,0
296,144,24996,1,0
192,144,25360,1,0
96,144,25723,1,4
144,144,25905,1,4
312,48,26632,5,2
400,96,26996,1,2
456,176,27360,1,2
464,272,27723,1,0
416,272,27905,1,0
320,248,28269,1,0
320,144,28632,1,0
288,104,28814,1,0
240,96,28996,1,0
160,40,29360,5,0
112,56,29541,1,0
72,88,29723,1,0
72,184,30087,5,0
96,176,30178,1,0
120,168,30269,1,0
144,160,30360,1,0
168,152,30450,1,0
216,152,30632,1,4
264,152,30814,1,4
344,88,31360,5,0
296,88,31541,1,0
152,144,32087,1,0
104,144,32269,1,0
240,200,32814,1,0
288,216,32996,1,0
336,224,33178,1,0
384,200,33359,1,0
424,168,33541,1,0
424,120,33723,2,0,B|424:104|392:72|344:104|344:120,1,99.9999999999999
312,152,34269,5,2
272,184,34450,1,2
136,200,34996,1,2
136,152,35178,1,2
176,56,35541,1,0
200,96,35723,2,0,B|256:56|200:8|192:8,1,99.9999999999999
152,16,36269,1,0
104,16,36450,1,0
40,224,37178,5,2
88,240,37360,1,2
96,88,37905,5,2
144,104,38087,1,2
280,32,38632,5,0
240,56,38814,1,0
200,80,38996,1,0
240,112,39178,2,0,B|288:80,2,50
200,136,39723,1,0
160,160,39905,1,0
200,184,40087,1,0
160,208,40269,1,0
384,288,40814,5,0
336,288,40996,2,0,B|280:224|256:224|248:264,1,99.9999999999999
216,272,41541,2,0,B|152:304|128:304|128:264,1,99.9999999999999
104,232,42087,1,0
8,200,42450,1,0
8,200,42541,1,0
8,200,42632,1,0
8,248,42814,2,0,B|8:280,2,25
56,248,43178,5,4
296,160,54269,5,0
304,208,54450,1,0
264,240,54632,1,0
216,216,54814,2,0,B|192:184|224:128|264:144,1,99.9999999999999
296,144,55360,5,0
344,160,55541,1,0
392,144,55723,1,0
440,128,55905,1,0
488,144,56087,1,0
440,128,56269,1,0
392,144,56450,1,0
344,160,56632,1,0
296,144,56814,1,0
296,48,57178,5,0
296,96,57360,1,0
296,144,57541,1,0
296,192,57723,5,4
192,192,58087,1,8
192,96,58450,1,0
152,128,58632,1,0
112,160,58814,1,0
80,120,58996,2,0,B|176:40,1,99.9999999999999,8|8
192,96,59541,5,0
152,128,59723,1,0
112,160,59905,1,0
144,200,60087,1,0
184,168,60269,1,0
224,136,60450,1,0
256,96,60632,6,8,B|336:88|336:128|320:160,1,99.9999999999999
328,240,61360,1,0
288,216,61541,1,0
288,168,61723,1,0
384,168,62087,1,8
384,264,62450,1,4
432,248,62632,1,4
448,152,62996,5,0
432,104,63178,1,0
392,72,63360,1,0
344,72,63541,1,0
240,72,63905,6,0,B|144:136,1,99.9999999999999
120,160,64450,1,0
80,192,64632,1,0
120,224,64814,2,0,B|216:280,1,99.9999999999999,0|4
256,296,65360,1,0
256,192,65541,12,0,67905
88,72,68632,5,8
152,144,68996,1,8
152,240,69360,1,8
88,312,69723,1,8
88,208,70087,6,0,B|104:160|152:184|192:168,1,99.9999999999999
224,176,70632,1,2
320,176,70996,1,2
288,80,71360,2,0,B|256:40|224:16|184:32|152:64,1,150,2|0
72,176,72450,5,0
96,216,72632,1,0
144,216,72814,1,0
192,216,72996,1,0
96,216,73360,2,0,B|40:216,1,50
192,216,73905,1,0
240,216,74087,1,0
288,216,74269,2,2,B|312:224|336:160|392:248|440:200,1,150
456,56,75360,1,0
400,56,75541,1,0
352,72,75723,1,0
312,104,75905,2,0,B|294:109|248:136|224:184,1,99.9999999999999
216,208,76450,1,0
120,184,76814,5,8
88,280,77178,1,2
128,304,77360,1,2
224,304,77723,1,0
184,280,77905,1,0
144,248,78087,1,0
112,208,78269,1,0
96,160,78450,1,0
88,112,78632,1,0
136,112,78814,6,0,B|184:96,1,50
232,88,79178,2,0,B|304:104,1,50
328,104,79541,2,0,B|376:88,1,50
424,80,79905,1,4
392,184,80269,5,0
320,120,80632,1,0
248,48,80996,1,0
248,144,81360,1,0
248,240,81723,2,0,B|176:248|168:192|184:168,1,99.9999999999999
176,136,82269,1,0
176,32,82632,1,0
80,72,82996,6,0,B|136:80|48:152|104:208,1,150
224,288,84087,5,0
248,248,84269,1,0
232,200,84450,1,0
216,152,84632,2,0,B|192:128|192:80|232:48,1,99.9999999999999
240,16,85178,1,2
336,24,85541,1,2
408,96,85905,2,0,B|440:144|440:192|392:240,1,150,2|0
264,160,86996,5,0
248,112,87178,1,0
232,64,87360,1,0
248,112,87541,1,0
216,16,87905,1,0
168,32,88087,1,0
128,96,88450,5,0
88,120,88632,1,0
128,144,88814,1,0
168,168,88996,1,0
88,232,89360,5,0
48,256,89541,1,0
88,280,89723,1,0
128,304,89905,1,0
168,328,90087,1,0
208,352,90269,1,0
256,336,90450,2,8,B|312:336,1,50
256,288,90814,2,8,B|200:288,1,50
256,240,91178,2,8,B|312:240,1,50
256,192,91541,1,4
120,128,102087,5,6
168,128,102269,1,6
168,80,102450,1,6
216,80,102632,1,6
376,192,103360,5,8
328,176,103541,1,8
336,312,104087,1,8
288,296,104269,1,8
136,280,104814,6,8,B|64:280,1,50
40,280,105178,1,10
40,232,105360,2,8,B|104:232,1,50
136,232,105723,1,2
184,224,105905,1,2
224,200,106087,1,2
264,176,106269,2,4,B|312:128,1,50
152,112,106996,5,2
104,112,107178,1,2
48,32,107541,1,0
96,32,107723,2,0,B|216:32,1,99.9999999999999
248,32,108269,1,0
296,32,108450,1,0
344,32,108632,2,0,B|392:32,2,25
304,120,109178,5,2
264,96,109360,1,2
152,104,109905,1,2
104,112,110087,1,2
64,256,110632,5,0
112,240,110814,1,0
160,224,110996,1,0
120,192,111178,1,0
168,176,111360,1,0
208,208,111541,2,0,B|272:216,1,50
272,168,111905,2,0,B|208:160,1,50
184,128,112269,1,4
280,88,112632,5,0
328,72,112814,1,0
376,56,112996,1,0
280,88,113360,1,0
232,112,113541,2,0,B|200:96|128:160|216:160,1,99.9999999999999
232,184,114087,2,0,B|296:176|288:224|240:240,1,99.9999999999999
232,256,114541,1,0
232,256,114632,1,0
192,280,114814,1,0
192,280,114905,1,0
192,280,114996,1,0
184,232,115178,5,4
104,184,115541,1,0
64,152,115723,1,0
56,200,115905,1,0
104,184,116087,1,0
112,136,116269,1,0
144,160,116450,2,0,B|192:112|110:77|96:88,1,99.9999999999999
208,56,117178,5,2
248,40,117360,1,2
256,136,117723,1,8
256,232,118087,1,2
296,216,118269,1,2
296,264,118450,5,2
216,320,118814,1,0
168,312,118996,1,0
136,272,119178,2,0,B|88:264|128:224,1,50
208,200,119723,1,0
168,168,119905,1,0
136,128,120087,2,0,B|88:184|152:224|168:216,1,99.9999999999999
192,232,120632,1,0
240,232,120814,1,0
272,192,120996,1,0
328,112,121360,5,0
240,48,121723,1,0
192,32,121905,1,0
144,32,122087,1,0
48,56,122450,1,0
144,80,122814,5,0
144,80,122905,1,0
144,80,122996,1,0
96,88,123178,1,0
56,120,123360,1,0
40,168,123541,1,0
40,168,123632,1,0
40,168,123723,1,0
48,216,123905,5,0
112,296,124269,1,0
208,328,124632,1,0
256,312,124814,1,0
288,272,124996,1,0
312,224,125178,1,0
224,280,125541,1,0
192,240,125723,1,0
192,192,125905,1,0
288,176,126269,5,0
280,128,126450,1,0
240,96,126632,1,0
192,88,126814,1,0
144,176,127178,5,0
136,128,127360,1,0
144,80,127541,1,0
176,40,127723,1,0
216,16,127905,1,0
264,8,128087,1,0
312,16,128269,2,0,B|376:56,1,50
336,80,128632,2,0,B|376:136,1,50
464,120,129178,5,0
424,152,129360,1,0
376,168,129541,1,0
328,160,129723,1,0
280,72,130087,5,0
280,168,130450,1,0
280,216,130632,1,0
280,264,130814,1,0
280,312,130996,2,0,B|272:368|240:368|224:304,1,99.9999999999999
224,264,131541,1,0
152,192,131905,6,0,B|144:136,1,50
96,152,132269,2,0,B|104:216,1,50
112,248,132632,6,0,B|152:248|192:256|208:200,1,99.9999999999999
240,184,133178,1,0
264,144,133360,1,0
312,136,133541,1,0
352,160,133723,1,0
392,192,133905,2,0,B|456:272|344:224|368:264|400:320,1,150
408,360,134632,1,0
360,360,134814,5,0
360,360,134905,1,0
360,360,134996,1,0
312,352,135178,1,0
312,352,135269,1,0
312,352,135360,1,0
264,328,135541,1,0
232,288,135723,1,0
208,248,135905,5,0
128,304,136269,1,0
136,256,136450,1,0
168,216,136632,1,0
208,192,136814,1,0
256,192,136996,1,0
296,216,137178,1,0
328,256,137360,1,0
256,192,137541,12,0,138996
