osu file format v9

[General]
AudioFilename: ____________.mp3
AudioLeadIn: 0
PreviewTime: 138687
Countdown: 0
SampleSet: Normal
StackLeniency: 0.7
Mode: 0
LetterboxInBreaks: 1

[Editor]
Bookmarks: 138770
DistanceSpacing: 1
BeatDivisor: 4
GridSize: 4

[Metadata]
Title:Meltdown (EXIT TRANCE remix)
Artist:Kagamine Rin
Creator:galvenize
Version:Insane
Source:
Tags:OnosakiHito

[Difficulty]
HPDrainRate:7
CircleSize:4
OverallDifficulty:8
ApproachRate:9
SliderMultiplier:1.8
SliderTickRate:1

[Events]
//Background and Video events
0,0,"MD3.jpg"
//Break Periods
2,51070,60937
2,105737,114937
//Storyboard Layer 0 (Background)
//Storyboard Layer 1 (Fail)
//Storyboard Layer 2 (Pass)
//Storyboard Layer 3 (Foreground)
//Storyboard Sound Samples
//Background Colour Transformations
3,100,163,162,255

[TimingPoints]
204,333.333333333333,4,1,0,60,1,0
6669,-100,4,2,0,60,0,0
18669,-100,4,1,0,60,0,0
62669,-133.333333333333,4,2,0,60,0,0
83336,-100,4,1,0,60,0,0
105169,-200,4,1,0,60,0,0
115503,-100,4,1,0,60,0,0
138836,-100,4,1,0,60,0,1
181437,-100,4,1,0,60,0,0

[Colours]
Combo1 : 243,240,105
Combo2 : 68,198,221
Combo3 : 228,172,240

[HitObjects]
256,192,4870,12,0,6537
256,32,6870,6,0,B|256:168,1,135
220,224,7203,2,0,B|192:284|192:284|224:356,1,135
292,348,7537,2,0,B|319:285|319:285|291:225,1,135
256,168,7870,2,0,B|256:108,3,45
256,80,8203,5,0
196,148,8370,1,0
48,92,8537,1,0
136,68,8703,2,0,B|96:152|144:256,1,180,2|0
180,324,9203,1,0
220,244,9370,6,0,B|256:216|304:204,1,90
392,200,9703,1,0
472,256,9870,1,0
448,344,10037,1,2
380,284,10203,2,0,B|336:312|272:300,1,90
132,100,10537,2,0,B|176:72|240:84,1,90
272,156,10870,5,0
184,172,11037,2,0,B|112:236|92:344,2,180,0|2|0
396,92,11870,5,0
320,44,12037,2,0,B|300:132|372:208,1,180
436,272,12537,1,0
392,352,12704,1,2
336,280,12870,2,0,B|224:300|152:260,2,180
284,208,13704,5,0
264,120,13870,2,0,B|192:180,1,90,0|2
112,208,14204,1,0
112,300,14370,1,0
112,208,14537,1,0
112,300,14704,2,0,B|196:344|296:312,1,180
480,224,15204,1,0
396,192,15370,1,2
420,280,15537,2,0,B|428:336|464:372,1,90
340,248,15870,2,0,B|332:196|272:160,1,90
240,56,16204,5,0
240,56,16370,2,0,B|212:148|108:180,1,180,0|2
88,292,16870,2,0,B|116:248|184:236,1,90
76,204,17204,1,0
168,324,17370,2,0,B|244:376|356:348,1,180
428,324,17870,1,0
384,244,18037,1,2
456,192,18204,1,0
56,192,18537,1,0
56,192,18870,6,0,B|96:152|96:100,1,90,4|0
120,24,19203,1,8
180,92,19370,1,0
180,92,19453,1,0
180,92,19537,2,0,B|208:40|256:20,1,90
280,108,19870,1,8
340,40,20037,6,0,B|432:84,1,90
500,124,20370,1,0
420,164,20537,2,0,B|456:208|516:208,1,90,8|0
360,228,20870,1,0
360,228,21037,1,0
432,280,21203,2,0,B|356:336|236:300,1,180,8|0
88,228,21703,5,0
144,300,21870,2,0,B|148:236|204:192,1,90,8|0
264,200,22203,1,0
304,120,22370,2,0,B|216:128,1,90,0|8
360,88,22703,2,0,B|332:188|364:276,1,180
320,348,23203,1,8
184,248,23370,1,0
256,216,23537,2,0,B|276:264|256:312,1,90
110,280,23870,2,0,B|86:228|118:164,1,90,8|0
40,40,24203,5,0
104,104,24370,2,0,B|128:148|96:220,1,90,0|8
106,191,24703,1,0
196,204,24870,2,0,B|176:252|120:268,1,90
130,263,25203,1,8
196,120,25370,2,0,B|280:88|392:112,1,180
456,148,25870,1,8
384,204,26037,1,0
456,148,26203,1,0
308,252,26537,1,8
183,66,26870,5,0
225,166,27037,1,0
144,239,27203,1,8
52,184,27370,1,0
74,76,27537,2,0,B|57:56,16,22.5
256,36,28870,5,0
256,348,29203,1,0
296,268,29370,1,0
208,280,29537,2,0,B|176:184|224:88,1,180,4|8
256,24,30037,1,0
168,44,30203,2,0,B|232:108|344:96,1,180,0|8
460,96,30703,1,0
384,148,30870,5,0
416,232,31037,1,0
336,272,31203,1,8
296,192,31370,1,0
336,272,31537,5,0
476,160,31703,1,0
338,43,31870,1,8
195,152,32037,1,0
107,136,32203,6,0,B|119:84|183:56,1,90
195,152,32537,1,8
107,136,32703,1,0
195,152,32870,2,0,B|176:204|124:220,1,90
48,244,33203,1,8
135,215,33370,2,0,B|144:268|116:304,2,90
48,244,33870,5,8
264,192,34037,1,0
212,264,34203,6,0,B|186:324|245:365|313:341|309:260,2,180,0|8|0
264,192,35037,1,0
352,168,35203,1,8
240,32,35370,1,0
328,44,35537,2,0,B|320:100|252:124,1,90
140,176,35870,2,0,B|148:120|216:96,1,90,8|0
228,188,36203,5,0
168,260,36370,1,0
140,176,36537,1,8
228,188,36703,1,0
140,176,36870,5,0
122,310,37037,1,0
276,220,37203,1,8
280,40,37370,1,0
192,68,37537,6,0,B|200:120|248:140,1,90
308,200,37870,1,8
324,288,38037,1,0
240,256,38203,2,0,B|201:215|140:213,1,90
40,112,38537,1,8
12,188,38703,6,0,B|64:204|116:152,1,90
192,44,39037,1,0
112,88,39203,1,8
152,168,39370,1,0
235,135,39537,2,0,B|331:111,1,90
456,32,39870,2,0,B|380:96,1,90,8|0
304,52,40204,6,0,B|276:144|344:228,1,180,4|8
396,288,40704,1,0
432,204,40870,1,0
492,268,41037,1,0
320,324,41204,1,8
212,180,41370,6,0,B|136:260|140:380,1,180
28,200,41870,2,0,B|100:132|108:40,1,180,8|0
200,36,42370,5,0
380,48,42537,1,8
244,164,42704,1,0
380,48,42870,2,0,B|332:72|268:64,1,90
468,20,43204,2,0,B|396:80|404:188,1,180,8|0
448,260,43704,1,0
360,240,43870,1,8
392,324,44037,2,0,B|340:344|276:296,1,90
184,184,44370,6,0,B|144:96,2,90,0|8|0
96,196,44870,2,0,B|100:256|152:272,1,90
280,172,45204,2,0,B|276:112|224:96,1,90,8|0
148,44,45537,1,0
148,44,45870,5,8
60,148,46037,1,0
112,272,46204,1,0
248,288,46370,1,0
320,172,46537,1,8
264,48,46704,1,0
188,160,47037,5,0
188,160,47370,1,0
188,160,47704,5,0
224,288,47870,1,0
312,188,48037,1,0
276,60,48204,1,0
276,60,48537,1,8
276,60,48870,5,0
256,192,49037,1,0
384,144,49204,1,8
256,192,49370,1,0
120,176,49537,1,0
140,308,49704,1,0
276,320,49870,1,8
276,320,50037,1,0
276,320,50370,5,0
204,204,50537,1,8
304,112,50704,1,0
376,224,50870,1,4
60,188,61537,5,0
160,172,61704,1,0
256,200,61870,1,0
356,176,62037,1,0
456,196,62204,1,0
112,68,62870,6,0,B|180:124|180:212,2,134.999995976687,0|0|0
48,188,63870,1,2
84,320,64204,2,0,B|152:292|240:320,1,134.999995976687
284,324,64704,2,0,B|360:344|432:312,1,134.999995976687
468,276,65204,1,2
460,48,65370,6,0,B|412:104|324:112,1,134.999995976687
276,120,65870,1,0
240,64,66037,2,0,B|172:36|104:64,1,134.999995976687
56,104,66537,1,2
60,172,66704,1,0
128,184,66870,6,0,B|192:200|264:184,1,134.999995976687
376,256,67370,2,0,B|312:240|240:256,1,134.999995976687
176,272,67870,2,0,B|104:272,2,67.4999979883433,2|0|0
296,336,68537,1,0
296,336,68704,2,0,B|272:272|296:200,1,134.999995976687
360,208,69204,2,0,B|360:136,1,67.4999979883433,2|0
408,96,69537,2,0,B|408:56|360:40|304:56|312:104,1,134.999995976687
288,152,70037,2,0,B|256:220|168:224,2,134.999995976687
256,96,70870,6,0,B|216:96|184:72,1,67.4999979883433
128,48,71204,1,0
128,48,71370,1,0
128,112,71537,2,0,B|136:152|104:184,1,67.4999979883433
74,230,71870,2,0,B|82:198|114:174,1,67.4999979883433,2|0
111,175,72204,5,0
168,216,72370,1,0
232,200,72537,1,0
296,216,72704,1,0
360,192,72870,2,0,B|440:192,2,67.4999979883433,0|0|2
184,296,73537,6,0,B|120:336|24:320,2,134.999995976687
256,184,74537,1,2
344,80,74870,6,0,B|312:144|344:216,1,134.999995976687
400,88,75370,2,0,B|328:112|256:88,2,134.999995976687,0|0|0
456,56,76204,6,0,B|416:128|424:208,1,134.999995976687
424,184,76704,2,0,B|432:256|408:320,2,134.999995976687
388,244,77537,6,0,B|316:228|316:260|228:244,1,134.999995976687
186,255,78037,2,0,B|182:247|174:199|230:163|282:179,1,134.999995976687
336,168,78537,1,2
400,148,78703,1,0
388,80,78870,6,0,B|308:48|236:88,1,134.999995976687
124,80,79370,2,0,B|204:48|276:88,1,134.999995976687
255,78,79870,5,2
256,144,80037,1,0
256,144,80203,2,0,B|256:228,2,67.4999979883433
188,276,80703,2,0,B|276:292|352:268,1,134.999995976687
324,344,81203,5,2
256,356,81370,1,0
188,344,81537,2,0,B|104:340|56:268,1,134.999995976687
36,192,82037,1,0
80,104,82203,1,0
172,60,82370,2,0,B|268:60,2,67.4999979883433,0|2|0
172,60,82870,1,0
256,192,83537,5,0
256,192,83703,1,0
256,192,83870,1,0
256,192,83953,1,0
256,192,84037,1,0
176,56,84203,5,4
176,176,84370,1,0
104,32,84537,1,8
104,200,84703,1,0
32,56,84870,1,0
32,176,85037,1,0
108,120,85203,2,0,B|212:120,1,90,8|0
336,56,85537,5,0
336,176,85703,1,0
408,32,85870,1,8
408,200,86037,1,0
480,56,86203,1,0
480,176,86370,1,0
404,120,86537,2,0,B|300:120,1,90,8|8
400,264,86870,5,0
308,364,87037,1,0
256,240,87203,1,8
400,264,87370,1,0
308,364,87537,1,0
256,240,87703,1,0
256,48,87870,2,0,B|256:140,1,90,8|0
112,264,88203,5,0
200,364,88370,1,0
256,240,88537,1,8
112,264,88703,1,0
200,364,88870,1,0
256,240,89037,1,0
56,72,89203,5,8
120,136,89370,1,8
120,136,89453,1,0
120,136,89537,6,0,B|208:64,1,90,0|0
392,136,89870,2,0,B|304:64,1,90,8|0
112,264,90203,2,0,B|176:192,1,90
400,264,90537,2,0,B|336:192,1,90,8|0
256,348,90870,2,0,B|256:252,1,90
256,32,91203,1,8
256,32,91370,1,0
256,32,91703,5,0
344,32,91870,1,8
296,112,92037,1,0
344,208,92203,5,0
448,248,92370,1,0
408,352,92537,1,8
303,312,92703,1,0
168,208,92870,5,0
64,248,93037,1,0
104,352,93203,1,8
209,312,93370,1,0
208,312,93453,1,0
208,312,93537,1,0
304,312,93703,5,0
176,232,93870,1,0
336,232,94037,1,0
144,152,94203,1,0
368,152,94370,1,0
256,104,94537,1,0
256,192,94703,1,0
256,192,94787,1,0
256,192,94870,6,0,B|204:263,1,90,4|0
228,93,95203,2,0,B|285:15,1,90,8|0
126,97,95537,2,0,B|74:169,1,90
64,304,95870,1,8
64,304,96037,1,0
256,192,96203,6,0,B|307:263,1,90
283,93,96537,2,0,B|226:15,1,90,8|0
385,97,96870,2,0,B|437:169,1,90
448,304,97203,1,8
448,304,97370,1,8
344,228,97537,6,0,B|292:280|256:284,1,90
256,192,97870,1,8
168,156,98037,2,0,B|220:104|256:100,1,90
328,124,98370,5,0
256,288,98537,1,8
184,124,98703,1,0
272,136,98870,6,0,B|256:200|192:216,1,90
88,304,99203,1,8
88,304,99370,2,0,B|144:296|176:232,1,90
100,192,99703,5,0
256,332,99870,1,8
412,192,100037,1,0
384,48,100203,5,0
296,112,100370,1,0
336,216,100537,1,8
440,216,100703,1,0
480,112,100870,1,0
384,48,101037,1,0
296,112,101203,2,0,B|264:152|204:152,1,90,8|0
256,232,101537,5,0
320,296,101703,1,0
256,360,101870,1,8
192,296,102037,1,0
192,296,102370,5,0
104,192,102537,1,8
192,88,102703,1,0
280,192,102870,2,0,B|384:192,1,90
464,288,103203,1,8
464,288,103370,2,0,B|448:240|464:192,1,90
480,40,103703,2,0,B|488:88|472:128,1,90,0|8
392,88,104037,5,0
392,88,104120,1,0
392,88,104203,1,0
384,176,104370,1,0
384,176,104537,1,0
284,88,104703,1,0
284,88,104870,1,0
248,236,105037,1,0
248,236,105203,1,0
132,64,105370,1,0
132,64,105537,1,4
108,68,115537,5,2
108,68,115870,1,2
132,156,116037,1,0
224,32,116203,6,0,B|196:124|236:216,1,180,4|8
324,64,116703,2,0,B|352:116|416:128,1,90
408,32,117037,1,0
308,180,117203,1,8
392,212,117370,2,0,B|356:272|296:264,1,90
308,180,117703,1,0
224,152,117870,1,8
196,236,118037,1,0
280,264,118203,1,0
336,92,118370,6,0,B|344:44|376:8,2,90,0|8|0
252,60,118870,2,0,B|240:116|280:156,1,90
472,64,119203,6,0,B|420:136|416:236,1,180,8|0
424,324,119703,1,0
340,292,119870,1,8
156,328,120037,6,0,B|252:288|288:204,1,180
204,172,120537,1,8
328,44,120703,1,0
240,60,120870,2,0,B|256:112|304:128,1,90
124,40,121203,2,0,B|120:108|156:140,1,90,8|0
24,168,121537,6,0,B|32:272|136:328,1,180,4|8
204,308,122037,1,0
280,264,122203,1,0
224,192,122370,1,0
224,192,122537,1,8
280,264,122703,2,0,B|328:176|296:72,1,180
368,28,123203,1,8
472,32,123370,2,0,B|432:68|432:120,1,90
416,200,123703,5,0
496,168,123870,1,8
320,192,124037,1,0
424,336,124203,1,4
424,336,124537,2,0,B|368:320|296:336,1,90,8|0
160,296,124870,1,0
232,352,125037,2,0,B|264:296|232:232,1,90,0|8
176,208,125370,1,0
160,296,125537,5,4
332,345,125703,1,0
280,176,125870,1,8
160,296,126037,1,0
424,80,126370,5,0
352,132,126537,1,8
432,172,126703,1,0
352,132,126870,2,0,B|336:192|372:228,1,90,4|0
440,328,127203,2,0,B|392:300|336:316,1,90,8|0
224,344,127537,2,0,B|176:372|120:356,1,90
48,256,127870,2,8,B|64:196|36:144,1,90,8|0
68,72,128203,5,0
148,32,128370,1,0
228,76,128537,1,8
316,60,128703,1,0
340,328,129037,5,0
380,248,129203,1,8
460,288,129370,1,0
420,368,129537,2,0,B|376:360|336:324,1,90
300,176,129870,2,0,B|272:268|168:304,1,180,8|0
128,228,130370,1,0
8,356,130537,1,8
96,356,130703,6,0,B|40:288|52:184,1,180
128,24,131203,2,0,B|144:80|132:116,1,90,8|0
208,268,131537,2,0,B|196:220|208:168,1,90
284,16,131870,2,0,B|272:64|288:120,1,90,8|0
348,272,132203,1,0
348,272,132537,5,8
308,192,132703,1,0
344,108,132870,2,0,B|388:120|440:108,2,90,0|0|8
256,80,133370,1,0
172,44,133537,2,0,B|124:32|76:44,2,90,0|0|8
256,80,134037,1,0
256,80,134370,5,0
256,172,134537,1,8
204,248,134703,1,0
136,304,134870,2,0,B|100:336|48:336,1,90
128,220,135203,6,0,B|208:264|312:244,1,180,8|0
352,172,135703,1,0
303,245,135870,2,0,B|332:299|399:297|443:257|424:184,1,180,8|0
368,92,136370,1,0
256,168,136537,1,8
156,76,136703,1,0
56,168,136870,1,0
56,168,137203,1,8
432,304,137537,5,0
344,292,137703,1,0
256,312,137870,1,8
168,292,138037,1,0
80,312,138203,1,0
204,144,138870,6,0,B|180:192|212:236,1,90
308,240,139203,2,0,B|332:192|300:148,1,90,8|0
128,144,139537,2,0,B|104:192|136:236,1,90
384,240,139870,2,0,B|408:192|376:148,1,90,8|0
304,108,140203,1,0
228,156,140370,1,0
276,232,140537,1,8
352,184,140703,1,0
472,28,140870,5,0
380,28,141037,1,0
380,116,141203,1,8
472,112,141370,1,8
316,64,141537,6,0,B|260:76|212:64,1,90
348,160,141870,2,0,B|296:192|256:192,1,90,8|0
408,244,142203,2,0,B|384:280|336:304,1,90
60,300,142537,5,8
148,316,142703,1,0
232,284,142870,2,0,B|212:232|148:224,1,90
16,64,143203,1,8
32,152,143370,2,0,B|80:140|104:92,1,90
16,64,143703,5,0
124,208,143870,1,8
228,60,144037,1,8
164,124,144203,6,0,B|256:184,1,90
424,204,144537,2,0,B|344:156,2,90,8|0|0
468,32,145037,2,0,B|472:76|456:124,1,90,0|8
424,204,145370,1,0
396,32,145537,6,0,B|400:124|328:204,1,180,0|8
180,292,146037,2,0,B|268:232|276:116,1,180
276,52,146537,1,8
212,112,146703,1,8
204,24,146870,2,0,B|144:32|128:96,1,90
212,112,147203,1,8
64,192,147370,1,0
120,120,147537,2,0,B|172:164|152:216,1,90
132,280,147870,2,0,B|124:228|164:192,1,90,8|0
248,184,148203,5,0
324,232,148370,1,0
284,312,148537,1,8
208,264,148703,1,0
344,144,148870,5,0
284,312,149037,1,0
142,192,149203,2,0,B|50:192,1,90,8|0
52,192,149453,1,0
52,192,149537,6,0,B|64:92,1,90,4|0
140,56,149870,2,0,B|129:145,1,90,8|0
208,264,150203,6,0,B|256:280|296:264,1,90
296,172,150537,2,0,B|252:156|208:172,1,90,8|0
132,220,150870,1,0
56,268,151037,1,0
24,184,151203,1,8
96,132,151370,2,0,B|104:80|140:48,1,90,0|0
188,128,151703,1,0
236,52,151870,1,8
188,128,152037,6,0,B|236:148|292:124,2,90
236,52,152537,1,8
324,28,152703,1,0
364,108,152870,1,0
276,132,153037,1,0
236,52,153203,5,8
416,28,153370,1,0
360,200,153537,2,0,B|352:248|372:288,1,90
284,276,153870,1,8
216,336,154037,2,0,B|252:368|312:364,1,90
284,276,154370,5,0
200,172,154537,1,8
116,200,154703,1,8
136,112,154870,2,0,B|188:28,1,90
48,140,155203,2,0,B|0:216,1,90,8|0
52,288,155537,1,0
140,276,155703,5,0
228,264,155870,1,8
52,288,156037,1,0
140,276,156203,6,0,B|176:184|144:76,1,180,0|8
372,108,156703,2,0,B|336:200|368:308,1,180
256,84,157203,5,8
256,176,157370,1,8
176,136,157537,1,0
176,136,157704,1,0
180,228,157870,1,8
180,228,158037,1,0
256,276,158204,1,0
256,276,158370,1,0
332,228,158537,1,8
336,136,158704,1,0
336,136,158787,1,0
336,136,158870,5,0
396,200,159037,1,0
264,136,159204,1,8
396,272,159370,1,0
192,136,159537,1,0
396,344,159704,1,0
256,260,159870,5,8
256,260,159954,1,0
256,260,160037,1,0
256,260,160120,1,0
256,260,160204,6,0,B|140:260,1,90,4|0
84,176,160537,1,8
84,176,160704,2,0,B|188:176,1,90
96,88,161037,2,0,B|-4:88,2,90,0|8|0
256,260,161537,6,0,B|372:260,1,90
408,192,161870,1,8
300,52,162037,2,0,B|312:112|348:136,1,90
408,192,162370,1,0
412,100,162537,5,8
388,280,162704,1,8
408,192,162870,2,0,B|504:192,1,90
308,320,163204,1,8
388,280,163370,2,0,B|332:268|320:204,1,90
248,176,163704,1,0
200,252,163870,5,8
136,316,164037,1,0
200,252,164204,2,0,B|232:292|220:344,1,90
44,292,164537,1,8
136,316,164704,2,0,B|108:272|128:216,1,90
139,140,165037,5,0
44,292,165204,1,8
273,326,165370,1,8
200,252,165537,6,0,B|232:212|284:208,1,90
272,72,165870,2,0,B|312:104|316:156,1,90,8|0
452,144,166204,2,0,B|420:184|368:188,1,90
380,324,166537,2,0,B|340:292|336:240,1,90,8|0
272,72,166870,5,0
132,184,167204,1,8
132,184,167370,1,0
140,84,167704,5,0
28,228,167870,1,8
208,248,168037,1,0
300,92,168204,6,0,B|256:172,1,90
208,248,168537,1,8
388,240,168704,2,0,B|296:244,1,90
208,248,169037,1,0
144,308,169204,1,8
120,220,169370,1,0
120,220,169454,1,0
120,220,169537,6,0,B|92:104,1,90
160,44,169870,2,0,B|184:148,1,90
392,220,170204,2,0,B|420:104,1,90
352,44,170537,2,0,B|328:148,1,90
332,132,170870,5,4
400,76,171037,1,0
456,144,171204,1,8
384,200,171370,2,0,B|368:264|400:308,1,90
424,372,171704,1,0
476,300,171870,1,8
272,268,172037,1,0
356,304,172204,6,0,B|312:364|248:352,1,90
192,348,172537,1,8
40,308,172704,2,0,B|68:344|124:344,1,90
152,260,173037,2,0,B|152:168,2,90,0|8|8
152,88,173537,5,0
224,32,173704,1,0
312,52,173870,1,8
224,32,174037,2,0,B|220:80|252:128,1,90
312,52,174370,5,0
152,88,174537,1,8
260,208,174704,1,0
244,120,174870,2,0,B|192:140|176:200,1,90
260,208,175204,1,8
182,181,175370,2,0,B|168:232|212:276,1,90
152,88,175704,5,0
260,208,175870,1,8
468,84,176037,1,8
324,80,176204,6,0,B|421:9,1,90
468,84,176537,1,8
392,128,176704,2,0,B|436:176|496:160,1,90
392,324,177037,2,0,B|376:284|392:228,1,90,0|8
468,280,177370,1,0
204,328,177537,5,0
204,328,177870,1,8
92,284,178037,2,0,B|168:248|224:160,1,180
264,84,178537,1,8
264,84,178704,1,8
344,228,178870,6,0,B|344:180|304:144,1,90
256,224,179204,2,0,B|256:288|320:320,1,90,8|0
168,228,179537,2,0,B|168:180|208:144,1,90
256,224,179870,2,0,B|256:288|192:320,1,90,8|0
208,312,180120,1,0
196,320,180204,5,0
108,332,180370,1,0
44,272,180537,1,8
40,164,180704,1,0
136,80,180870,1,0
268,112,181037,1,0
290,253,181204,1,8
164,212,181370,1,0
164,212,181454,1,0
164,212,181537,1,4
