osu file format v9

[General]
AudioFilename: Melancholic.mp3
AudioLeadIn: 2015
PreviewTime: 71041
Countdown: 0
SampleSet: Normal
StackLeniency: 0.7
Mode: 1
LetterboxInBreaks: 0

[Editor]
Bookmarks: 756,7613,14470,28184,35470,41898,49184,57327,64184,71041,84756
DistanceSpacing: 1
BeatDivisor: 4
GridSize: 8

[Metadata]
Title:Melancholic
Artist:Kagamine Rin
Creator:dioric
Version:Taiko
Source:Vocaloid
Tags:eldnl winber1

[Difficulty]
HPDrainRate:5
CircleSize:5
OverallDifficulty:5
ApproachRate:5
SliderMultiplier:1.6
SliderTickRate:2

[Events]
//Background and Video events
0,0,"rin.jpg"
//Break Periods
//Storyboard Layer 0 (Background)
//Storyboard Layer 1 (Fail)
//Storyboard Layer 2 (Pass)
//Storyboard Layer 3 (Foreground)
//Storyboard Sound Samples
//Background Colour Transformations
3,100,255,255,255

[TimingPoints]
756,428.571428571429,4,2,2,90,1,0
71042,-100,4,1,2,85,0,1
98470,-100,4,1,2,85,0,0

[Colours]
Combo1 : 255,85,170
Combo2 : 98,255,255
Combo3 : 255,255,26

[HitObjects]
256,80,756,1,0
160,112,970,1,0
120,200,1184,1,8
200,264,1398,1,0
296,232,1613,1,0
368,160,1827,1,0
368,64,2041,1,8
440,136,2256,1,0
448,232,2470,1,0
400,320,2684,1,0
304,328,2898,1,8
208,344,3113,1,8
120,296,3327,1,8
80,200,3541,1,0
56,104,3756,1,8
152,104,3970,1,0
240,152,4184,1,0
304,80,4398,1,0
408,80,4613,1,8
392,176,4827,1,0
328,256,5041,1,0
232,288,5256,1,0
136,272,5470,1,8
168,176,5684,1,0
72,168,5898,1,0
40,264,6113,1,0
104,336,6327,1,8
168,256,6541,1,0
264,224,6756,1,0
352,176,6970,1,0
296,96,7184,1,8
200,80,7398,1,0
104,104,7613,1,8
104,200,7827,1,8
184,256,8041,1,8
280,280,8256,1,0
328,288,8363,1,0
376,272,8470,1,8
424,184,8684,1,0
368,104,8898,1,8
272,88,9113,1,0
72,104,9541,1,8
56,152,9648,1,8
88,192,9756,1,0
160,264,9970,1,0
200,176,10184,1,8
280,232,10398,1,0
312,136,10613,1,0
408,160,10827,1,8
440,200,10934,1,8
408,240,11041,1,8
336,312,11256,1,0
240,328,11470,1,8
144,320,11684,1,0
96,232,11898,1,8
112,136,12113,1,0
144,96,12220,1,0
192,88,12327,1,8
288,80,12541,1,0
336,80,12648,1,0
384,96,12756,1,8
408,192,12970,1,0
400,288,13184,1,8
312,240,13398,1,0
208,304,13613,1,0
160,304,13720,1,0
112,304,13827,1,8
64,280,13934,1,8
56,232,14041,1,0
96,200,14148,1,0
144,192,14256,1,8
184,168,14363,1,8
232,152,14470,1,0
432,136,14898,1,8
304,288,15327,1,0
400,288,15541,1,0
344,208,15756,1,8
192,80,16184,1,0
104,264,16613,1,8
264,144,17041,1,0
224,240,17256,1,0
136,192,17470,1,8
96,104,17684,1,8
144,80,17791,1,8
192,80,17898,1,0
288,56,18113,1,0
384,80,18327,1,8
440,216,18648,1,8
408,256,18756,1,0
320,296,18970,1,0
224,288,19184,1,8
64,168,19613,1,0
152,128,19827,1,0
248,112,20041,1,8
400,120,20363,1,8
384,168,20470,1,0
352,208,20577,1,0
304,232,20684,1,8
256,248,20791,1,8
208,264,20898,1,0
160,280,21006,1,0
112,280,21113,1,8
64,264,21220,1,8
48,216,21327,1,8
96,128,21541,1,8
184,80,21756,1,8
280,72,21970,1,8
328,72,22077,1,8
376,72,22184,1,0
440,144,22398,1,0
448,248,22613,1,8
352,280,22827,1,0
152,256,23256,1,8
104,264,23363,1,8
56,248,23470,1,0
96,160,23684,1,8
144,152,23791,1,8
192,160,23898,1,0
272,96,24113,1,0
368,80,24327,1,8
424,160,24541,1,0
368,240,24756,1,4
176,280,25184,1,12
288,120,25613,1,4
88,144,26041,1,12
272,216,26470,1,0
360,264,26684,1,0
456,224,26898,1,8
384,152,27113,1,0
336,64,27327,1,0
240,80,27541,1,0
144,48,27756,1,8
160,144,27970,1,0
112,112,28184,5,0
208,112,28398,1,0
304,104,28613,1,0
392,144,28827,1,0
392,240,29041,1,2
296,272,29256,1,2
200,256,29470,1,2
104,256,29684,1,2
96,160,29898,1,0
192,144,30113,1,0
288,112,30327,1,0
384,72,30541,1,0
424,160,30756,1,2
368,240,30970,1,2
296,304,31184,1,2
200,288,31398,1,2
104,256,31613,1,0
128,160,31827,1,0
152,120,31934,1,0
192,88,32041,1,8
288,120,32256,1,0
384,120,32470,1,8
440,312,32898,1,2
344,328,33113,1,2
248,312,33327,1,0
152,288,33541,1,0
72,232,33756,1,0
160,176,33970,1,0
256,136,34184,1,2
304,120,34291,1,2
352,112,34398,1,2
400,200,34613,1,2
424,296,34827,1,2
376,320,34934,1,2
328,328,35041,1,0
152,232,35470,1,0
80,168,35684,1,0
152,104,35898,1,8
256,112,36113,1,8
344,160,36327,1,0
432,208,36541,1,0
352,264,36756,1,8
160,312,37184,1,8
96,232,37398,1,0
104,136,37613,1,0
200,128,37827,1,0
296,128,38041,1,2
376,192,38256,1,0
416,216,38363,1,0
424,264,38470,1,2
328,296,38684,1,0
232,296,38898,1,8
152,240,39113,1,0
72,184,39327,1,8
168,160,39541,1,0
264,128,39756,1,8
352,80,39970,1,0
432,136,40184,1,8
408,232,40398,1,8
320,280,40613,1,8
224,264,40827,1,12
128,248,41041,1,8
128,144,41256,1,12
224,112,41470,1,0
320,80,41684,1,0
400,328,41898,1,4
304,352,42113,1,0
208,328,42327,1,8
112,320,42541,1,0
56,240,42756,1,0
104,152,42970,1,0
200,152,43184,1,8
296,168,43398,1,0
344,160,43506,1,0
384,136,43613,1,0
400,232,43827,1,0
312,272,44041,1,8
216,296,44256,1,0
168,312,44363,1,0
120,312,44470,1,8
80,280,44577,1,8
64,232,44684,1,0
72,184,44791,1,0
88,136,44898,1,8
136,128,45006,1,8
184,128,45113,1,0
232,128,45220,1,0
280,136,45327,1,8
416,280,45756,1,0
392,80,46184,1,8
192,64,46613,1,0
112,128,46827,1,8
80,160,46934,1,8
104,200,47041,1,0
192,256,47256,1,0
264,328,47470,1,8
400,248,47684,1,0
352,256,47791,1,8
312,224,47898,1,0
296,176,48006,1,8
344,168,48113,1,0
392,80,48327,1,8
296,40,48541,1,0
200,64,48756,5,0
104,96,48970,1,0
96,192,49184,1,8
176,256,49398,1,0
216,288,49506,1,8
264,280,49613,1,0
312,192,49827,1,0
408,216,50041,1,8
456,128,50256,1,0
408,104,50363,1,8
360,96,50470,1,0
312,88,50577,1,8
264,88,50684,1,0
168,112,50898,1,8
112,200,51113,1,0
120,248,51220,1,8
160,272,51327,1,0
256,248,51541,1,0
360,248,51756,1,8
384,152,51970,1,0
296,96,52184,1,4
96,80,52613,1,4
144,272,53041,1,4
336,336,53470,1,4
408,264,53684,1,0
416,216,53791,1,0
408,168,53898,1,0
344,96,54113,1,0
248,104,54327,1,8
104,128,54648,1,8
88,176,54756,1,0
152,248,54970,1,0
248,272,55184,1,8
344,240,55506,1,8
440,248,55613,1,0
440,200,55720,1,0
416,160,55827,1,0
328,104,56041,1,8
136,56,56470,1,0
88,144,56684,1,0
168,200,56898,1,8
256,248,57113,1,8
344,208,57327,1,0
384,184,57434,1,0
400,136,57541,1,8
352,120,57648,1,0
304,104,57756,1,0
264,72,57863,1,0
216,80,57970,1,8
168,88,58077,1,0
136,128,58184,1,0
112,168,58291,1,0
136,216,58398,1,8
200,296,58613,1,8
320,296,58827,1,0
368,296,58934,1,0
416,280,59041,1,8
384,184,59256,1,8
336,160,59363,1,0
288,176,59470,1,0
240,264,59684,1,0
200,296,59791,1,8
152,312,59898,1,0
120,272,60006,1,0
88,240,60113,1,8
104,192,60220,1,8
152,176,60327,1,0
192,88,60541,1,0
240,80,60648,1,0
288,72,60756,2,0,B|408:56|456:296|312:328|312:328,1,320
248,312,61613,1,0
144,280,61827,1,0
112,184,62041,1,8
176,104,62256,1,0
272,104,62470,1,0
368,104,62684,1,0
440,168,62898,1,8
304,224,63220,1,8
264,248,63327,1,8
224,280,63434,1,8
128,256,63648,1,8
80,256,63756,1,8
96,160,63970,1,8
136,136,64077,1,8
184,120,64184,1,0
272,72,64398,1,0
320,80,64506,1,0
360,104,64613,1,8
416,184,64827,1,0
424,232,64934,1,8
400,280,65041,1,0
296,280,65256,1,0
248,288,65363,1,0
200,288,65470,1,8
120,232,65684,1,0
144,136,65898,1,4
232,88,66113,1,8
280,88,66220,1,8
328,96,66327,1,8
360,192,66541,1,8
368,240,66648,1,0
360,288,66756,1,8
264,304,66970,1,0
216,304,67077,1,0
176,280,67184,1,8
136,248,67291,1,8
112,208,67398,1,0
88,160,67506,1,8
96,112,67613,1,4
240,88,67934,1,8
392,104,68256,1,8
424,200,68470,1,8
136,296,69113,1,8
184,208,69327,1,12
280,200,69541,1,12
376,224,69756,1,12
440,144,69970,1,12
344,128,70184,1,4
144,112,70613,1,4
256,280,71041,1,4
160,256,71256,1,0
208,168,71470,1,8
264,88,71684,1,0
304,64,71791,1,8
352,56,71898,1,0
424,128,72113,1,0
440,224,72327,1,8
360,280,72541,1,0
256,304,72756,1,0
160,288,72970,1,0
104,208,73184,1,8
136,112,73398,1,0
184,104,73506,1,8
232,104,73613,1,0
280,104,73720,1,8
328,104,73827,1,0
424,136,74041,1,8
416,232,74256,1,0
400,280,74363,1,8
352,304,74470,1,0
256,264,74684,1,0
160,288,74898,1,8
96,152,75220,1,8
144,128,75327,1,0
232,88,75541,1,0
328,112,75756,1,8
408,176,75970,1,0
392,272,76184,1,0
248,296,76398,1,0
160,248,76613,1,0
232,184,76827,1,0
328,216,77041,1,0
376,232,77148,1,8
424,224,77256,1,0
456,192,77363,1,0
456,144,77470,1,8
408,128,77577,1,8
360,136,77684,1,0
320,112,77791,1,0
272,96,77898,1,0
176,72,78113,1,0
88,120,78327,1,0
88,272,78540,1,0
136,280,78648,1,8
232,288,78862,1,8
280,280,78969,1,0
368,224,79184,1,8
432,152,79398,1,0
360,80,79613,1,0
256,56,79827,2,0,B|104:96|104:96|120:240|120:240,1,300
216,208,80684,1,8
264,208,80791,1,8
312,224,80898,1,0
400,176,81113,1,0
384,80,81327,1,12
184,80,81756,1,4
96,256,82184,1,12
288,312,82613,1,0
400,144,83041,1,12
304,112,83256,1,0
256,120,83363,1,8
208,120,83470,1,0
136,192,83684,1,0
216,256,83898,1,8
264,272,84006,1,8
312,288,84113,1,0
360,288,84220,1,0
408,280,84327,1,8
456,280,84434,1,8
472,232,84541,1,0
424,216,84648,1,8
376,200,84756,1,0
296,136,84970,1,0
184,88,85184,1,4
112,152,85398,1,0
136,280,85613,1,0
232,248,85827,1,0
280,232,85934,1,0
320,208,86041,1,8
352,112,86256,1,0
152,88,86684,1,0
88,168,86898,1,0
160,240,87113,1,8
224,168,87327,1,8
368,216,87648,1,8
408,248,87756,1,0
472,168,87970,1,0
408,88,88184,1,12
208,80,88613,1,12
32,176,89041,1,0
56,216,89148,1,0
88,248,89256,1,8
136,256,89363,1,8
184,264,89470,1,0
280,264,89684,1,0
392,104,90113,1,8
360,144,90220,1,8
312,144,90327,1,8
216,104,90541,1,8
368,232,90970,1,0
304,304,91184,1,8
208,288,91398,1,0
136,216,91613,1,4
80,128,91827,1,0
168,72,92041,1,4
264,112,92256,1,0
312,128,92363,1,0
360,144,92470,1,8
392,240,92684,1,8
296,240,92898,1,0
208,200,93113,1,8
72,56,93541,1,0
104,96,93648,1,8
128,144,93756,1,0
120,240,93970,1,0
136,288,94077,1,0
184,304,94184,1,8
280,304,94398,1,0
376,272,94613,1,8
416,184,94827,1,0
360,104,95041,1,4
160,104,95470,1,4
344,192,95898,1,4
152,264,96327,1,0
248,88,96756,1,0
240,184,96970,1,0
240,232,97077,1,0
272,272,97184,1,8
336,192,97398,1,0
408,120,97613,1,8
424,168,97720,1,8
424,216,97827,1,0
424,264,97934,1,0
384,288,98041,1,8
344,320,98148,1,8
296,336,98256,1,0
248,328,98363,1,8
200,312,98470,1,0
