osu file format v14

[General]
AudioFilename: Kagamine Rin - The Lost One's Weeping ().mp3
AudioLeadIn: 0
PreviewTime: 75660
Countdown: 0
SampleSet: Normal
StackLeniency: 0.7
Mode: 3
LetterboxInBreaks: 0
SpecialStyle: 1
WidescreenStoryboard: 1
SamplesMatchPlaybackRate: 1

[Editor]
DistanceSpacing: 0.9
BeatDivisor: 2
GridSize: 4
TimelineZoom: 1

[Metadata]
Title:Lost One no Goukoku
TitleUnicode:ロストワンの号哭
Artist:Kagamine Rin
ArtistUnicode:鏡音リン
Creator:HardAkito
Version:Easy
Source:Neru
Tags:neru lost one no goukoku kagamine rin vocaloid weeping
BeatmapID:683450
BeatmapSetID:305135

[Difficulty]
HPDrainRate:2
CircleSize:4
OverallDifficulty:5
ApproachRate:5
SliderMultiplier:1.4
SliderTickRate:1

[Events]
//Background and Video events
0,0,"262.PNG",0,0
//Break Periods
//Storyboard Layer 0 (Background)
//Storyboard Layer 1 (Fail)
//Storyboard Layer 2 (Pass)
//Storyboard Layer 3 (Foreground)
//Storyboard Sound Samples

[TimingPoints]
1586,370.37037037037,4,1,1,35,1,0
28067,-100,4,1,1,35,0,0
75660,-100,4,1,1,35,0,1
99826,-100,4,1,1,35,0,0
111030,-100,4,1,1,35,0,0
170567,-100,4,1,1,35,0,1
182974,-100,4,1,1,35,0,0
213067,-100,4,1,1,35,0,0

[HitObjects]
64,192,1586,5,0,1:2:0:0:
192,192,1771,1,0,1:2:0:0:
448,192,1956,1,0,1:2:0:0:
320,192,1956,1,0,1:2:0:0:
64,192,2326,1,0,1:2:0:0:
192,192,2511,1,0,1:2:0:0:
320,192,2697,1,0,1:2:0:0:
448,192,2697,1,0,1:2:0:0:
64,192,3067,1,0,1:2:0:0:
192,192,3252,1,0,1:2:0:0:
320,192,3437,1,0,1:2:0:0:
448,192,3808,1,0,1:2:0:0:
64,192,3808,1,0,1:2:0:0:
448,192,4178,1,0,1:2:0:0:
448,192,4548,1,0,1:2:0:0:
320,192,4734,1,0,1:2:0:0:
192,192,4919,1,0,1:2:0:0:
64,192,4919,1,0,1:2:0:0:
448,192,5289,1,0,1:2:0:0:
320,192,5474,1,0,1:2:0:0:
64,192,5660,1,0,1:2:0:0:
192,192,5660,1,0,1:2:0:0:
448,192,6030,1,0,1:2:0:0:
320,192,6215,1,0,1:2:0:0:
192,192,6400,1,0,1:2:0:0:
64,192,6400,1,0,1:2:0:0:
320,192,6771,1,0,1:2:0:0:
192,192,6956,1,0,1:2:0:0:
320,192,7141,1,0,1:2:0:0:
448,192,7511,1,0,1:2:0:0:
320,192,7697,1,0,1:2:0:0:
192,192,7882,1,0,1:2:0:0:
64,192,7882,1,0,1:2:0:0:
448,192,8252,1,0,1:2:0:0:
320,192,8437,1,0,1:2:0:0:
64,192,8623,1,0,1:2:0:0:
192,192,8623,1,0,1:2:0:0:
448,192,8993,1,0,1:2:0:0:
320,192,9178,1,0,1:2:0:0:
192,192,9363,1,0,1:2:0:0:
64,192,9363,1,0,1:2:0:0:
192,192,9734,1,0,1:2:0:0:
320,192,9919,1,0,1:2:0:0:
192,192,10104,1,0,1:2:0:0:
448,192,10474,1,0,1:2:0:0:
64,192,10660,1,0,1:2:0:0:
448,192,10845,1,0,1:2:0:0:
64,192,11030,1,0,1:2:0:0:
320,192,11215,1,0,1:2:0:0:
192,192,11400,1,0,1:2:0:0:
320,192,11585,1,0,1:2:0:0:
192,192,11771,1,0,1:2:0:0:
448,192,11956,1,0,1:2:0:0:
64,192,12141,1,0,1:2:0:0:
192,192,12326,1,0,1:2:0:0:
320,192,12511,1,0,1:2:0:0:
448,192,12697,1,0,1:2:0:0:
64,192,12882,1,0,1:2:0:0:
320,192,13067,1,0,1:2:0:0:
192,192,13437,1,0,1:2:0:0:
448,192,13623,1,0,1:2:0:0:
192,192,13808,1,0,1:2:0:0:
320,192,14178,1,0,1:2:0:0:
64,192,14363,1,0,1:2:0:0:
64,192,14734,1,0,1:2:0:0:
320,192,14919,1,0,1:2:0:0:
192,192,15289,1,0,1:2:0:0:
192,192,15660,128,0,16493:1:2:0:0:
320,192,16493,1,0,1:2:0:0:
64,192,16956,1,0,1:2:0:0:
448,192,17141,1,0,1:2:0:0:
320,192,17511,1,0,1:2:0:0:
192,192,17697,1,0,1:2:0:0:
320,192,17882,1,0,1:2:0:0:
64,192,18252,1,0,1:2:0:0:
448,192,18623,1,0,1:2:0:0:
192,192,18808,1,0,1:2:0:0:
320,192,18993,1,0,1:2:0:0:
320,192,19178,1,0,1:2:0:0:
448,192,19548,1,0,1:2:0:0:
320,192,19919,1,0,1:2:0:0:
192,192,20104,1,0,1:2:0:0:
64,192,20660,1,0,1:2:0:0:
320,192,20845,1,0,1:2:0:0:
448,192,21400,1,0,1:2:0:0:
320,192,21585,1,0,1:2:0:0:
64,192,22326,1,0,1:2:0:0:
192,192,22511,1,0,1:2:0:0:
320,192,22697,1,0,1:2:0:0:
448,192,23067,1,0,1:2:0:0:
320,192,23437,1,0,1:2:0:0:
192,192,23808,1,0,1:2:0:0:
64,192,24178,1,0,1:2:0:0:
192,192,24548,1,0,1:2:0:0:
320,192,24919,1,0,1:2:0:0:
448,192,25289,1,0,1:2:0:0:
320,192,25474,1,0,1:2:0:0:
320,192,25845,1,0,1:2:0:0:
192,192,26030,1,0,1:2:0:0:
320,192,26585,1,0,1:2:0:0:
64,192,26956,1,0,1:2:0:0:
448,192,27141,1,0,1:2:0:0:
192,192,27141,1,0,1:2:0:0:
320,192,27511,1,0,1:2:0:0:
192,192,27882,1,0,1:2:0:0:
64,192,28252,128,0,29734:1:2:0:0:
192,192,29734,128,0,31215:1:2:0:0:
320,192,31215,128,0,32697:1:2:0:0:
448,192,32697,128,0,34178:1:2:0:0:
320,192,34178,1,0,1:2:0:0:
64,192,34548,1,0,1:2:0:0:
320,192,34919,1,0,1:2:0:0:
192,192,35289,1,0,1:2:0:0:
448,192,35660,1,0,1:2:0:0:
64,192,36030,1,0,1:2:0:0:
320,192,36400,1,0,1:2:0:0:
192,192,36771,1,0,1:2:0:0:
448,192,37141,1,0,1:2:0:0:
320,192,37511,1,0,1:2:0:0:
64,192,37882,1,0,1:2:0:0:
448,192,38252,1,0,1:2:0:0:
320,192,38623,1,0,1:2:0:0:
192,192,38808,1,0,1:2:0:0:
448,192,38993,1,0,1:2:0:0:
64,192,39178,1,0,1:2:0:0:
320,192,39363,1,0,1:2:0:0:
192,192,40104,128,0,42882:1:2:0:0:
64,192,45289,1,0,1:2:0:0:
320,192,45660,1,0,1:2:0:0:
448,192,46030,128,0,48623:1:2:0:0:
192,192,51215,1,0,1:2:0:0:
320,192,51215,1,0,1:2:0:0:
448,192,51956,1,0,1:2:0:0:
64,192,52141,1,0,1:2:0:0:
192,192,52326,1,0,1:2:0:0:
320,192,52511,1,0,1:2:0:0:
448,192,52882,1,0,1:2:0:0:
320,192,53067,1,0,1:2:0:0:
192,192,53437,1,0,1:2:0:0:
64,192,53808,1,0,1:2:0:0:
320,192,54178,1,0,1:2:0:0:
192,192,54548,1,0,1:2:0:0:
448,192,54919,1,0,1:2:0:0:
64,192,55289,1,0,1:2:0:0:
320,192,55660,1,0,1:2:0:0:
192,192,56030,1,0,1:2:0:0:
448,192,56400,1,0,1:2:0:0:
64,192,56771,1,0,1:2:0:0:
320,192,57141,1,0,1:2:0:0:
192,192,57511,1,0,1:2:0:0:
320,192,57882,1,0,1:2:0:0:
448,192,58437,1,0,1:2:0:0:
320,192,58623,1,0,1:2:0:0:
192,192,58993,1,0,1:2:0:0:
448,192,59363,1,0,1:2:0:0:
64,192,59734,1,0,1:2:0:0:
320,192,60104,1,0,1:2:0:0:
192,192,60474,1,0,1:2:0:0:
192,192,60845,1,0,1:2:0:0:
320,192,61030,1,0,1:2:0:0:
192,192,61215,1,0,1:2:0:0:
320,192,61400,1,0,1:2:0:0:
64,192,61771,1,0,1:2:0:0:
448,192,61956,1,0,1:2:0:0:
64,192,62326,1,0,1:2:0:0:
320,192,62697,1,0,1:2:0:0:
192,192,62882,1,0,1:2:0:0:
448,192,63067,1,0,1:2:0:0:
64,192,63623,128,0,63993:1:2:0:0:
192,192,63993,1,0,1:2:0:0:
448,192,64363,128,0,64734:1:2:0:0:
320,192,64734,1,0,1:2:0:0:
192,192,65289,128,0,65660:1:2:0:0:
320,192,65660,1,0,1:2:0:0:
192,192,66215,1,0,1:2:0:0:
64,192,66215,1,0,1:2:0:0:
320,192,66771,128,0,67141:1:2:0:0:
192,192,67141,1,0,1:2:0:0:
320,192,67511,1,0,1:2:0:0:
448,192,67511,1,0,1:2:0:0:
64,192,67882,1,0,1:2:0:0:
448,192,68252,1,0,1:2:0:0:
192,192,68623,1,0,1:2:0:0:
320,192,68993,1,0,1:2:0:0:
64,192,69363,1,0,1:2:0:0:
320,192,69734,1,0,1:2:0:0:
448,192,69734,1,0,1:2:0:0:
320,192,69919,1,0,1:2:0:0:
448,192,70104,1,0,1:2:0:0:
192,192,70474,1,0,1:2:0:0:
320,192,70845,1,0,1:2:0:0:
64,192,71215,1,0,1:2:0:0:
448,192,71585,1,0,1:2:0:0:
192,192,71956,1,0,1:2:0:0:
320,192,72326,1,0,1:2:0:0:
64,192,72697,128,0,74178:1:2:0:0:
192,192,74178,128,0,75660:1:2:0:0:
320,192,75660,1,0,1:2:0:0:
448,192,76030,1,0,1:2:0:0:
320,192,76400,1,0,1:2:0:0:
192,192,76771,1,0,1:2:0:0:
64,192,76956,1,0,1:2:0:0:
448,192,77141,1,0,1:2:0:0:
320,192,77511,1,0,1:2:0:0:
192,192,77882,1,0,1:2:0:0:
448,192,78252,1,0,1:2:0:0:
64,192,78437,1,0,1:2:0:0:
320,192,78623,1,0,1:2:0:0:
192,192,78993,1,0,1:2:0:0:
320,192,79363,1,0,1:2:0:0:
64,192,79734,1,0,1:2:0:0:
448,192,80104,1,0,1:2:0:0:
192,192,80474,1,0,1:2:0:0:
320,192,80845,1,0,1:2:0:0:
64,192,81215,1,0,1:2:0:0:
320,192,81585,1,0,1:2:0:0:
192,192,81956,1,0,1:2:0:0:
320,192,82141,1,0,1:2:0:0:
192,192,82141,1,0,1:2:0:0:
320,192,82326,1,0,1:2:0:0:
192,192,82511,1,0,1:2:0:0:
448,192,82697,1,0,1:2:0:0:
64,192,83067,1,0,1:2:0:0:
320,192,83437,1,0,1:2:0:0:
192,192,83808,1,0,1:2:0:0:
320,192,84548,1,0,1:2:0:0:
448,192,84548,1,0,1:2:0:0:
192,192,84826,1,0,1:2:0:0:
64,192,84826,1,0,1:2:0:0:
448,192,85104,1,0,1:2:0:0:
320,192,85104,1,0,1:2:0:0:
64,192,85289,1,0,1:2:0:0:
192,192,85289,1,0,1:2:0:0:
320,192,86030,1,0,1:2:0:0:
192,192,86400,1,0,1:2:0:0:
320,192,86585,1,0,1:2:0:0:
448,192,86585,1,0,1:2:0:0:
320,192,86771,1,0,1:2:0:0:
448,192,86771,1,0,1:2:0:0:
320,192,87511,1,0,1:2:0:0:
192,192,87697,1,0,1:2:0:0:
448,192,87882,1,0,1:2:0:0:
64,192,88252,1,0,1:2:0:0:
320,192,88623,1,0,1:2:0:0:
192,192,88993,1,0,1:2:0:0:
448,192,89363,1,0,1:2:0:0:
64,192,89734,1,0,1:2:0:0:
320,192,90104,1,0,1:2:0:0:
192,192,90474,1,0,1:2:0:0:
448,192,90845,1,0,1:2:0:0:
64,192,91215,1,0,1:2:0:0:
320,192,91585,1,0,1:2:0:0:
192,192,91956,1,0,1:2:0:0:
448,192,92326,1,0,1:2:0:0:
64,192,92697,1,0,1:2:0:0:
320,192,93067,1,0,1:2:0:0:
192,192,93437,1,0,1:2:0:0:
448,192,93808,1,0,1:2:0:0:
64,192,94178,1,0,1:2:0:0:
320,192,94548,1,0,1:2:0:0:
192,192,94919,1,0,1:2:0:0:
448,192,95289,1,0,1:2:0:0:
64,192,95660,1,0,1:2:0:0:
320,192,96030,1,0,1:2:0:0:
192,192,96400,1,0,1:2:0:0:
448,192,96771,1,0,1:2:0:0:
64,192,96956,1,0,1:2:0:0:
320,192,97141,1,0,1:2:0:0:
192,192,97511,1,0,1:2:0:0:
448,192,97697,1,0,1:2:0:0:
64,192,97882,1,0,1:2:0:0:
320,192,98252,1,0,1:2:0:0:
192,192,98437,1,0,1:2:0:0:
448,192,98623,1,0,1:2:0:0:
320,192,98993,1,0,1:2:0:0:
192,192,99363,128,0,100104:1:2:0:0:
320,192,100104,1,0,1:2:0:0:
320,192,100845,128,0,101585:1:2:0:0:
192,192,101585,1,0,1:2:0:0:
448,192,101956,1,0,1:2:0:0:
64,192,102141,1,0,1:2:0:0:
320,192,102326,128,0,103067:1:2:0:0:
192,192,103067,1,0,1:2:0:0:
192,192,103808,128,0,104548:1:2:0:0:
320,192,104548,1,0,1:2:0:0:
448,192,104919,1,0,1:2:0:0:
192,192,105104,1,0,1:2:0:0:
320,192,105382,128,0,106030:1:2:0:0:
192,192,106030,1,0,1:2:0:0:
448,192,106400,128,0,106956:1:2:0:0:
320,192,106956,128,0,107511:1:2:0:0:
64,192,107511,1,0,1:2:0:0:
192,192,107882,1,0,1:2:0:0:
320,192,108067,1,0,1:2:0:0:
192,192,108252,1,0,1:2:0:0:
320,192,108437,1,0,1:2:0:0:
64,192,108623,1,0,1:2:0:0:
448,192,108993,1,0,1:2:0:0:
192,192,109178,1,0,1:2:0:0:
320,192,109363,1,0,1:2:0:0:
64,192,109363,1,0,1:2:0:0:
64,192,109734,128,0,110104:1:2:0:0:
192,192,110104,1,0,1:2:0:0:
320,192,110474,128,0,110845:1:2:0:0:
448,192,110845,1,0,1:2:0:0:
320,192,111215,1,0,1:2:0:0:
320,192,111956,1,0,1:2:0:0:
192,192,112326,1,0,1:2:0:0:
448,192,112511,1,0,1:2:0:0:
64,192,112697,1,0,1:2:0:0:
320,192,113067,1,0,1:2:0:0:
192,192,113437,1,0,1:2:0:0:
448,192,114178,1,0,1:2:0:0:
320,192,114919,1,0,1:2:0:0:
192,192,115104,1,0,1:2:0:0:
448,192,115474,1,0,1:2:0:0:
64,192,115660,1,0,1:2:0:0:
320,192,116030,1,0,1:2:0:0:
320,192,116400,1,0,1:2:0:0:
64,192,116400,1,0,1:2:0:0:
448,192,117141,1,0,1:2:0:0:
320,192,117882,1,0,1:2:0:0:
192,192,118623,1,0,1:2:0:0:
64,192,119363,1,0,1:2:0:0:
320,192,119734,1,0,1:2:0:0:
192,192,120104,128,0,121308:1:2:0:0:
320,192,122511,1,0,1:2:0:0:
448,192,122882,1,0,1:2:0:0:
320,192,123067,1,0,1:2:0:0:
192,192,123437,1,0,1:2:0:0:
64,192,123808,1,0,1:2:0:0:
320,192,124178,1,0,1:2:0:0:
192,192,124548,1,0,1:2:0:0:
448,192,124919,1,0,1:2:0:0:
64,192,125289,1,0,1:2:0:0:
320,192,125660,1,0,1:2:0:0:
448,192,126030,1,0,1:2:0:0:
320,192,126215,1,0,1:2:0:0:
192,192,126400,1,0,1:2:0:0:
64,192,126400,1,0,1:2:0:0:
448,192,126771,1,0,1:2:0:0:
320,192,126956,1,0,1:2:0:0:
192,192,127141,1,0,1:2:0:0:
64,192,127141,1,0,1:2:0:0:
448,192,127511,1,0,1:2:0:0:
320,192,127697,1,0,1:2:0:0:
192,192,127882,1,0,1:2:0:0:
64,192,127882,1,0,1:2:0:0:
64,192,128252,1,0,1:2:0:0:
320,192,128623,1,0,1:2:0:0:
448,192,128993,1,0,1:2:0:0:
192,192,129734,1,0,1:2:0:0:
64,192,130289,1,0,1:2:0:0:
192,192,130474,1,0,1:2:0:0:
320,192,130845,1,0,1:2:0:0:
448,192,131956,1,0,1:2:0:0:
320,192,132326,1,0,1:2:0:0:
192,192,132511,1,0,1:2:0:0:
64,192,132882,1,0,1:2:0:0:
64,192,133252,1,0,1:2:0:0:
192,192,133437,1,0,1:2:0:0:
320,192,133808,1,0,1:2:0:0:
448,192,133993,1,0,1:2:0:0:
448,192,134363,1,0,1:2:0:0:
320,192,134734,1,0,1:2:0:0:
192,192,134919,1,0,1:2:0:0:
448,192,135289,1,0,1:2:0:0:
64,192,135660,1,0,1:2:0:0:
320,192,136030,1,0,1:2:0:0:
192,192,136215,1,0,1:2:0:0:
320,192,136400,1,0,1:2:0:0:
192,192,136771,1,0,1:2:0:0:
448,192,137141,1,0,1:2:0:0:
64,192,137511,1,0,1:2:0:0:
320,192,137697,1,0,1:2:0:0:
192,192,137882,1,0,1:2:0:0:
320,192,137882,1,0,1:2:0:0:
192,192,138252,1,0,1:2:0:0:
448,192,138623,1,0,1:2:0:0:
64,192,138993,1,0,1:2:0:0:
320,192,138993,1,0,1:2:0:0:
192,192,139178,1,0,1:2:0:0:
320,192,139363,1,0,1:2:0:0:
192,192,139734,1,0,1:2:0:0:
448,192,140104,1,0,1:2:0:0:
64,192,140474,1,0,1:2:0:0:
320,192,140660,1,0,1:2:0:0:
192,192,140845,1,0,1:2:0:0:
448,192,141215,1,0,1:2:0:0:
64,192,141585,1,0,1:2:0:0:
320,192,141956,1,0,1:2:0:0:
192,192,142326,1,0,1:2:0:0:
448,192,142697,1,0,1:2:0:0:
64,192,143067,1,0,1:2:0:0:
320,192,143808,128,0,144548:1:2:0:0:
64,192,144548,1,0,1:2:0:0:
192,192,145289,128,0,146030:1:2:0:0:
448,192,146030,1,0,1:2:0:0:
448,192,146771,1,0,1:2:0:0:
320,192,147141,1,0,1:2:0:0:
192,192,147511,1,0,1:2:0:0:
64,192,147882,1,0,1:2:0:0:
320,192,148252,1,0,1:2:0:0:
192,192,148623,1,0,1:2:0:0:
448,192,148993,128,0,149734:1:2:0:0:
64,192,149734,1,0,1:2:0:0:
192,192,150104,1,0,1:2:0:0:
320,192,150474,1,0,1:2:0:0:
64,192,150845,1,0,1:2:0:0:
448,192,151215,1,0,1:2:0:0:
192,192,151585,1,0,1:2:0:0:
64,192,151956,128,0,152697:1:2:0:0:
448,192,152697,1,0,1:2:0:0:
320,192,153067,1,0,1:2:0:0:
192,192,153252,1,0,1:2:0:0:
448,192,153623,1,0,1:2:0:0:
64,192,153808,1,0,1:2:0:0:
320,192,154178,1,0,1:2:0:0:
192,192,154548,1,0,1:2:0:0:
192,192,154919,128,0,155660:1:2:0:0:
320,192,154919,128,0,155660:1:2:0:0:
448,192,155660,1,0,1:2:0:0:
448,192,156030,1,0,1:2:0:0:
64,192,156215,1,0,1:2:0:0:
320,192,156400,1,0,1:2:0:0:
192,192,157141,128,0,157882:1:2:0:0:
320,192,157141,128,0,157882:1:2:0:0:
64,192,157882,1,0,1:2:0:0:
64,192,158437,1,0,1:2:0:0:
448,192,158623,1,0,1:2:0:0:
192,192,158808,1,0,1:2:0:0:
320,192,159178,1,0,1:2:0:0:
64,192,159919,1,0,1:2:0:0:
192,192,159919,1,0,1:2:0:0:
320,192,160104,1,0,1:2:0:0:
64,192,160474,1,0,1:2:0:0:
448,192,160660,1,0,1:2:0:0:
192,192,160845,1,0,1:2:0:0:
320,192,161215,1,0,1:2:0:0:
64,192,161400,1,0,1:2:0:0:
320,192,161585,1,0,1:2:0:0:
320,192,162511,1,0,1:2:0:0:
192,192,162697,1,0,1:2:0:0:
448,192,163252,1,0,1:2:0:0:
64,192,163623,1,0,1:2:0:0:
320,192,163808,1,0,1:2:0:0:
192,192,164178,1,0,1:2:0:0:
448,192,164548,1,0,1:2:0:0:
64,192,164734,1,0,1:2:0:0:
320,192,164919,1,0,1:2:0:0:
192,192,165104,1,0,1:2:0:0:
448,192,165104,1,0,1:2:0:0:
64,192,165289,1,0,1:2:0:0:
320,192,165474,1,0,1:2:0:0:
192,192,165660,1,0,1:2:0:0:
192,192,166030,1,0,1:2:0:0:
64,192,166585,1,0,1:2:0:0:
320,192,166771,1,0,1:2:0:0:
448,192,167326,1,0,1:2:0:0:
320,192,167511,1,0,1:2:0:0:
320,192,168067,1,0,1:2:0:0:
320,192,168252,1,0,1:2:0:0:
192,192,168808,1,0,1:2:0:0:
192,192,168993,1,0,1:2:0:0:
64,192,169363,1,0,1:2:0:0:
448,192,169548,1,0,1:2:0:0:
64,192,169734,1,0,1:2:0:0:
320,192,170474,1,0,1:2:0:0:
192,192,170845,1,0,1:2:0:0:
448,192,171215,1,0,1:2:0:0:
64,192,171585,1,0,1:2:0:0:
320,192,171956,1,0,1:2:0:0:
192,192,172326,1,0,1:2:0:0:
448,192,172697,1,0,1:2:0:0:
64,192,173067,1,0,1:2:0:0:
320,192,173252,1,0,1:2:0:0:
192,192,173252,1,0,1:2:0:0:
320,192,173437,1,0,1:2:0:0:
64,192,173808,1,0,1:2:0:0:
448,192,174178,1,0,1:2:0:0:
192,192,174548,1,0,1:2:0:0:
320,192,174919,1,0,1:2:0:0:
64,192,175289,1,0,1:2:0:0:
448,192,175660,1,0,1:2:0:0:
192,192,175660,1,0,1:2:0:0:
448,192,176400,1,0,1:2:0:0:
64,192,176771,1,0,1:2:0:0:
320,192,177141,1,0,1:2:0:0:
192,192,177511,1,0,1:2:0:0:
448,192,177882,1,0,1:2:0:0:
64,192,178252,1,0,1:2:0:0:
320,192,178623,1,0,1:2:0:0:
320,192,179178,1,0,1:2:0:0:
320,192,179363,1,0,1:2:0:0:
192,192,179734,1,0,1:2:0:0:
448,192,179919,1,0,1:2:0:0:
64,192,180104,1,0,1:2:0:0:
320,192,180660,1,0,1:2:0:0:
192,192,180845,1,0,1:2:0:0:
448,192,181215,1,0,1:2:0:0:
64,192,181400,1,0,1:2:0:0:
320,192,181585,1,0,1:2:0:0:
192,192,181956,1,0,1:2:0:0:
448,192,182326,1,0,1:2:0:0:
64,192,182697,1,0,1:2:0:0:
320,192,183067,1,0,1:2:0:0:
192,192,183437,1,0,1:2:0:0:
448,192,183808,1,0,1:2:0:0:
320,192,183993,1,0,1:2:0:0:
320,192,184178,1,0,1:2:0:0:
192,192,184548,1,0,1:2:0:0:
320,192,184919,1,0,1:2:0:0:
64,192,185289,1,0,1:2:0:0:
448,192,185660,1,0,1:2:0:0:
192,192,186030,1,0,1:2:0:0:
320,192,186400,1,0,1:2:0:0:
64,192,186585,1,0,1:2:0:0:
320,192,186771,1,0,1:2:0:0:
192,192,186956,1,0,1:2:0:0:
448,192,187511,1,0,1:2:0:0:
192,192,188252,128,0,188993:1:2:0:0:
64,192,188993,1,0,1:2:0:0:
320,192,189363,1,0,1:2:0:0:
192,192,189548,1,0,1:2:0:0:
320,192,189734,1,0,1:2:0:0:
320,192,190474,128,0,191215:1:2:0:0:
448,192,191215,1,0,1:2:0:0:
320,192,191956,1,0,1:2:0:0:
192,192,192141,1,0,1:2:0:0:
448,192,192326,1,0,1:2:0:0:
64,192,192511,1,0,1:2:0:0:
320,192,192697,1,0,1:2:0:0:
192,192,193067,1,0,1:2:0:0:
448,192,193437,1,0,1:2:0:0:
64,192,193808,1,0,1:2:0:0:
320,192,194178,1,0,1:2:0:0:
192,192,194548,1,0,1:2:0:0:
448,192,194919,1,0,1:2:0:0:
64,192,195660,128,0,196400:1:2:0:0:
448,192,196400,1,0,1:2:0:0:
192,192,197141,128,0,197882:1:2:0:0:
320,192,197882,1,0,1:2:0:0:
320,192,198623,128,0,199363:1:2:0:0:
192,192,199363,1,0,1:2:0:0:
448,192,200104,128,0,200845:1:2:0:0:
64,192,200845,1,0,1:2:0:0:
448,192,201585,128,0,202326:1:2:0:0:
320,192,202326,128,0,203067:1:2:0:0:
192,192,203067,128,0,203808:1:2:0:0:
64,192,203808,1,0,1:2:0:0:
64,192,204548,1,0,1:2:0:0:
192,192,204734,1,0,1:2:0:0:
320,192,204919,1,0,1:2:0:0:
448,192,205289,1,0,1:2:0:0:
320,192,205474,1,0,1:2:0:0:
192,192,205660,1,0,1:2:0:0:
448,192,206030,1,0,1:2:0:0:
64,192,206400,1,0,1:2:0:0:
320,192,206771,1,0,1:2:0:0:
192,192,207141,1,0,1:2:0:0:
448,192,207511,128,2,208623:1:2:0:0:
320,192,208623,1,8,1:2:0:0:
64,192,208993,128,8,210104:1:2:0:0:
192,192,210104,1,2,1:2:0:0:
320,192,210474,128,2,211585:1:2:0:0:
448,192,211585,1,8,1:2:0:0:
192,192,211956,128,8,213067:1:2:0:0:
64,192,213067,1,2,1:2:0:0:
