osu file format v9

[General]
AudioFilename: Kokoro.mp3
AudioLeadIn: 0
PreviewTime: 94285
Countdown: 1
SampleSet: Normal
StackLeniency: 0.7
Mode: 0
LetterboxInBreaks: 1

[Editor]
Bookmarks: 22286,63429,92572,137143,164572
DistanceSpacing: 0.8
BeatDivisor: 2
GridSize: 8

[Metadata]
Title:Kokoro
Artist:Kagamine Rin
Creator:Miu Matsuoka
Version:Normal
Source:Toraboruta-P
Tags:ignorethis wmfchris vocaloid

[Difficulty]
HPDrainRate:3
CircleSize:4
OverallDifficulty:3
ApproachRate:4
SliderMultiplier:1
SliderTickRate:2

[Events]
//Background and Video events
0,0,"bg.jpg"
//Break Periods
2,22486,34680
2,92772,94680
2,123629,135823
2,178486,188966
//Storyboard Layer 0 (Background)
//Storyboard Layer 1 (Fail)
//Storyboard Layer 2 (Pass)
//Storyboard Layer 3 (Foreground)
//Storyboard Sound Samples
//Background Colour Transformations
3,100,163,162,255

[TimingPoints]
8572,428.571428571429,4,1,1,70,1,0
9429,-100,4,2,1,70,0,0
12000,-100,4,1,1,30,0,0
12857,-100,4,2,1,70,0,0
15429,-100,4,1,1,30,0,0
15857,-100,4,2,1,70,0,0
18857,-100,4,1,1,30,0,0
19072,-100,4,1,1,70,0,0
36000,-100,4,1,1,60,0,0
46286,-100,4,2,1,60,0,0
48857,-100,4,1,1,60,0,0
60429,-100,4,2,1,60,0,0
63429,-100,4,1,1,60,0,0
75000,-133.333333333333,4,2,1,60,0,0
76286,-100,4,2,1,60,0,0
77143,-100,4,1,1,60,0,0
83143,-100,4,2,1,60,0,0
84000,-100,4,1,1,60,0,0
87429,-100,4,1,1,100,0,0
89143,-100,4,1,1,70,0,0
89572,-100,4,1,1,60,0,0
90000,-100,4,1,1,49,0,0
90429,-100,4,1,1,39,0,0
90857,-100,4,1,1,30,0,0
91286,-100,4,1,1,20,0,0
91714,-100,4,1,1,11,0,0
92143,-100,4,1,1,0,0,0
92572,-100,4,2,1,0,0,0
96000,-66.6666666666667,4,2,1,100,0,1
123429,-66.6666666666667,4,1,1,70,0,0
137143,-100,4,1,1,70,0,0
148822,-100,4,2,1,70,0,0
149036,-100,4,1,1,70,0,0
154286,-100,4,2,1,70,0,0
159214,-66.6666666666667,4,2,1,70,0,0
161143,-100,4,1,1,70,0,0
163714,-100,4,2,1,70,0,0
178286,-100,4,1,1,70,0,0
190286,-133.333333333333,4,1,1,70,0,0
192000,-133.333333333333,4,2,1,70,0,0
193714,-66.6666666666667,4,2,1,80,0,0
205714,-66.6666666666667,4,2,1,30,0,0
206143,-66.6666666666667,4,2,1,45,0,0
206572,-66.6666666666667,4,2,1,60,0,0
207429,-66.6666666666667,4,2,1,70,0,0
215143,-66.6666666666667,4,2,1,50,0,0
215572,-66.6666666666667,4,2,1,55,0,0
216857,-66.6666666666667,4,2,1,50,0,0
217286,-66.6666666666667,4,2,1,55,0,0
219429,-66.6666666666667,4,2,1,60,0,0
219857,-66.6666666666667,4,2,1,65,0,0
220286,-66.6666666666667,4,2,1,70,0,0
220714,-66.6666666666667,4,2,1,75,0,0
221143,-66.6666666666667,4,2,1,80,0,1
227143,-66.6666666666667,4,2,1,60,0,1
227572,-66.6666666666667,4,2,1,70,0,1
233143,-66.6666666666667,4,2,1,31,0,1
233572,-66.6666666666667,4,2,1,40,0,1
234000,-66.6666666666667,4,2,1,50,0,1
234429,-66.6666666666667,4,2,1,61,0,1
234857,-66.6666666666667,4,2,1,70,0,1
246857,-66.6666666666667,4,1,1,70,0,0

[Colours]
Combo1 : 173,124,186
Combo2 : 99,197,112
Combo3 : 126,156,205
Combo4 : 150,145,105
SliderBorder : 255,255,128

[HitObjects]
56,72,8571,6,0,B|36:186|94:268,1,200,4|0
175,317,9857,1,0
236,237,10286,2,0,B|288:152|418:140,1,200,2|0
394,240,11572,1,0
394,240,12000,2,0,B|287:208|262:99,1,200,2|0
178,49,13286,5,0
79,66,13714,2,0,B|60:181,1,100,2|0
59,264,14572,1,0
59,264,15000,1,0
150,222,15429,6,0,B|260:196,2,100,4|0|0
201,307,16714,1,0
295,339,17143,2,0,B|397:314|462:230,1,200,2|0
410,145,18429,1,0
410,145,18857,1,2
256,192,19072,12,4,22286
336,74,36000,6,0,B|381:174,1,100,4|2
397,211,36643,1,0
416,256,36857,1,2
434,302,37072,1,2
339,334,37500,2,0,B|300:288|239:280,1,100,0|2
163,323,38357,2,0,B|118:290|123:221,1,100,0|2
28,200,39214,1,2
116,78,39857,6,0,B|159:42,3,50,0|0|2|2
219,122,40929,1,0
311,85,41357,1,2
340,180,41786,1,0
433,144,42214,2,0,B|488:163|508:216,1,100,2|2
386,300,43286,5,0
341,323,43500,1,0
296,346,43714,1,2
251,368,43929,1,2
209,277,44357,2,0,B|156:300|151:367,2,100,0|2|0
169,184,45643,1,0
169,184,46072,1,0
256,192,46286,12,2,48000
161,110,48857,5,0
124,144,49072,1,0
112,192,49286,1,0
124,240,49500,1,0
161,274,49715,1,4
224,192,50143,5,8
323,192,50572,1,0
424,192,51000,1,8
464,104,51429,6,0,B|352:64,1,100,0|8
322,53,52072,1,0
275,36,52286,2,0,B|211:12,2,50,0|0|8
259,134,53143,6,0,B|267:206|211:254,2,100,0|8|0
160,128,54429,1,8
160,128,54643,1,0
160,128,54857,2,0,B|55:85,1,100,0|8
59,189,55714,1,0
55,239,55929,1,8
51,288,56143,1,8
135,341,56572,6,0,B|168:296|230:299,1,100,2|8
309,347,57429,1,0
339,307,57643,1,0
369,267,57857,1,8
399,226,58072,1,0
432,184,58286,6,0,B|504:80,1,100,2|8
480,0,59143,1,0
442,33,59357,1,8
404,11,59572,1,10
308,41,60001,5,6
308,41,60429,2,0,B|308:100,1,50,0|2
208,80,61072,2,0,B|208:143,1,50,0|2
108,139,61714,5,2
52,222,62143,1,0
115,299,62572,1,2
208,264,63000,1,2
200,168,63429,6,0,B|254:195|288:140,1,100,4|0
295,94,64072,1,0
303,44,64286,1,2
452,31,64929,6,0,B|468:150,1,100
468,179,65572,1,0
473,228,65786,1,0
477,277,66000,1,0
404,347,66429,1,2
320,291,66857,6,0,B|276:265|240:204,1,100
231,173,67500,1,0
220,124,67714,1,0
92,44,68357,2,0,B|68:142,1,100
55,189,69000,2,0,B|43:236,2,50
131,253,69857,1,2
204,322,70286,6,0,B|324:315,1,100,4|0
353,314,70929,1,0
402,311,71143,1,2
424,216,71572,1,0
416,168,71786,2,0,B|407:89|330:55,1,150,0|0
329,54,72857,1,2
135,72,73714,6,0,B|141:136|100:197,1,100,2|0
124,218,74357,2,0,B|180:227|261:198,1,100,2|0
260,212,75000,6,0,B|215:341|368:368,1,224.999993294478,2|2
452,316,76714,1,2
452,316,77143,1,4
415,222,77572,2,0,B|468:165,2,50,2|0|0
327,173,78429,5,0
327,173,78643,2,0,B|284:66,1,100,2|0
250,49,79286,2,0,B|118:96,1,100,2|2
155,82,80143,1,8
216,161,80572,5,4
116,159,81000,1,2
119,208,81214,1,0
153,244,81429,1,2
280,164,82072,6,0,B|352:134|428:159,1,150,2|0
458,253,83143,1,2
458,253,83572,1,2
458,253,84000,1,4
368,297,84429,6,0,B|357:348,2,50,0|0|2
231,234,85500,1,2
137,270,85929,1,0
137,270,86143,1,2
81,186,86572,1,8
128,98,87000,1,8
218,140,87429,6,0,B|375:124,2,150,4|4|4
256,192,89143,12,0,92572
284,65,96000,6,0,B|215:108|132:78,1,149.999995529652,4|8
66,156,96857,1,0
139,231,97286,2,0,B|116:326,1,74.9999977648259,8|2
240,280,97929,2,0,B|263:185,1,74.9999977648259,0|8
358,243,98572,1,0
358,243,99000,1,8
366,347,99429,6,0,B|444:329|456:241,1,149.999995529652,4|8
391,157,100286,2,0,B|310:140|308:45,1,149.999995529652,0|8
230,118,101143,2,0,B|82:156,2,149.999995529652,2|8|0
280,104,102214,1,10
331,91,102429,1,10
416,151,102857,6,0,B|408:232|432:320,1,149.999995529652,4|8
426,299,103714,1,0
333,251,104143,1,8
333,251,104357,1,0
251,317,104786,1,2
251,317,105000,1,8
170,249,105429,1,0
170,249,105857,1,8
85,311,106286,6,0,B|27:176,2,74.9999977648259,0|2|8
170,249,107143,2,0,B|228:138,2,74.9999977648259,0|2|8
240,327,108000,2,0,B|417:288,1,149.999995529652,4|8
342,199,108857,1,4
393,182,109072,1,0
432,146,109286,1,4
443,95,109500,1,0
432,43,109714,6,0,B|392:13|338:79|286:60,1,149.999995529652,4|8
191,101,110572,1,0
101,46,111000,1,8
101,46,111214,2,0,B|24:84|0:161|42:237,1,224.999993294478,0|8
142,205,112286,1,0
142,205,112714,1,8
121,308,113143,6,0,B|276:342,1,149.999995529652,4|8
351,277,114000,2,0,B|383:351,2,74.9999977648259,0|0|8
452,248,114857,2,0,B|504:183|456:101,1,149.999995529652,0|8
357,131,115714,1,0
305,142,115929,1,8
254,154,116143,1,8
203,166,116357,1,0
152,179,116572,1,4
77,105,117000,5,8
2,179,117429,2,0,B|32:257|31:333,1,149.999995529652,0|8
135,317,118286,5,0
183,337,118500,1,0
232,319,118714,2,0,B|272:289|326:355|378:336,2,149.999995529652,8|2|8
216,216,120000,6,0,B|264:145,1,74.9999977648259,4|0
304,200,120429,2,0,B|346:132,1,74.9999977648259,2|4
432,56,121072,1,2
432,56,121286,1,2
432,56,121500,1,4
256,192,121714,12,4,123429
151,201,137143,5,4
127,245,137357,2,0,B|88:308,2,50,0|2|0
206,306,138214,2,0,B|197:380,2,50,0|2|0
306,306,139072,2,0,B|315:380,2,50,0|2|0
385,245,139929,2,0,B|424:308,2,50,0|2|0
361,201,140572,1,4
256,192,141000,5,2
256,192,141214,1,0
256,192,141429,1,0
256,96,141857,1,2
353,72,142286,2,0,B|392:121|465:139,1,100,0|2
392,230,143143,1,2
355,263,143357,1,0
318,297,143572,1,2
281,331,143786,1,0
243,363,144000,6,0,B|111:363,1,100,4|2
78,286,144857,1,0
117,193,145286,1,2
117,193,145500,1,0
117,193,145714,1,0
69,104,146143,1,2
135,29,146572,1,0
221,79,147000,1,2
218,179,147429,6,0,B|305:248,1,100,4|2
209,291,148286,1,2
209,291,148500,1,0
282,358,148929,1,4
381,347,149357,2,0,B|427:316,3,50,0|2|0|2
436,219,150429,1,2
394,128,150857,6,0,B|344:88|276:175|195:128,1,200,4|0
117,185,152143,1,2
201,252,152572,2,0,B|276:209|344:296|394:256,1,200,4|0
392,256,153643,1,0
392,256,153857,1,2
256,192,154286,12,4,157714
144,112,159214,6,0,B|258:42|339:172|461:76,2,299.999991059304,4|4|4
104,144,161143,1,2
88,192,161357,1,2
96,240,161572,1,2
120,280,161786,1,0
160,304,162000,2,0,B|208:312,4,50,2|2|0|2|4
57,134,163714,5,0
57,134,164143,1,0
57,134,164572,2,0,B|110:79|206:88,1,150,4|0
242,102,165429,1,2
190,242,166072,1,0
240,327,166500,1,0
335,295,166929,2,0,B|390:288,1,50,0|2
426,93,168000,6,0,B|439:177|355:211,1,150,0|0
305,209,168857,2,0,B|224:184|234:91,1,150,2|0
202,53,169714,2,0,B|132:68,2,50,2|0|0
251,43,170357,1,2
368,128,171000,1,4
276,155,171429,6,0,B|221:140|166:179,1,100,2|0
179,169,172072,1,0
179,169,172286,1,2
30,181,172929,2,0,B|13:244|36:298,2,100
30,181,174000,1,2
73,90,174429,1,2
168,60,174857,6,0,B|225:98|283:80,1,100,4|0
361,69,175714,1,2
443,126,176143,1,0
409,220,176572,2,0,B|398:285,2,50,4|0|0
309,206,177429,2,0,B|195:214,1,100,2|0
209,213,178286,1,4
104,192,190286,6,0,B|256:192|416:192,1,299.999991059304,4|2
256,192,192214,12,4,193714
282,56,194143,5,8
370,112,194572,1,0
340,155,194786,1,0
348,206,195000,1,8
411,290,195429,2,0,B|252:329,1,149.999995529652,0|8
214,339,196072,1,0
163,354,196286,1,0
92,274,196714,1,8
149,185,197143,6,0,B|224:216|295:165,1,149.999995529652,4|8
331,70,198000,2,0,B|383:11,2,74.9999977648259,0|0|8
417,129,198857,2,0,B|441:287,1,149.999995529652,0|8
348,329,199714,1,0
348,329,199929,1,0
348,329,200143,1,8
270,258,200572,6,0,B|321:194|269:114,1,149.999995529652,4|8
242,75,201214,1,0
206,36,201429,2,0,B|176:9|140:4,2,74.9999977648259,0|0|8
157,128,202286,2,0,B|70:265,1,149.999995529652,2|8
114,352,203143,1,0
114,352,203572,1,8
175,269,204000,5,4
255,201,204429,1,0
337,269,204857,1,4
418,202,205286,1,0
417,97,205714,1,4
324,47,206143,1,4
222,72,206572,2,0,B|142:88,2,74.9999977648259,4|0|4
258,170,207429,6,0,B|300:237|376:268,1,149.999995529652,4|8
421,278,208072,1,0
473,277,208286,1,2
245,332,209143,2,0,B|181:281|101:296,1,149.999995529652,0|8
52,301,209786,1,0
4,322,210000,1,2
78,125,210857,6,0,B|152:216,2,74.9999977648259,2|0|8
153,51,211714,1,2
153,51,211929,1,2
153,51,212143,1,8
252,86,212572,1,2
298,109,212786,1,2
344,132,213000,1,10
390,155,213214,1,0
436,180,213429,2,0,B|509:216,2,74.9999977648259,2|0|2
404,276,214286,6,0,B|368:358|280:334,1,149.999995529652,4|8
218,251,215143,2,2,B|136:208,2,74.9999977648259,2|2|10
277,164,216000,2,0,B|256:80|321:31,1,149.999995529652,4|8
216,28,216857,2,2,B|136:8,2,74.9999977648259,2|2|10
139,100,217714,6,0,B|84:168,1,74.9999977648259,4|0
60,200,218143,1,8
96,298,218572,1,8
137,329,218786,1,8
189,329,219000,1,8
283,284,219429,5,4
320,186,219857,1,4
359,283,220286,1,4
268,229,220714,1,0
373,228,221143,1,4
433,141,221572,5,8
361,64,222000,1,0
361,64,222214,1,0
361,64,222429,1,8
261,96,222857,1,0
165,53,223286,1,8
103,137,223714,1,0
103,137,223929,1,0
103,137,224143,1,8
166,221,224572,6,0,B|95:280|136:362,1,149.999995529652,0|8
228,312,225429,1,0
278,298,225643,1,0
328,284,225857,1,8
378,270,226072,1,0
428,256,226286,2,0,B|499:237,2,74.9999977648259,2|0|8
380,172,227143,1,4
380,172,227572,1,4
277,151,228000,6,0,B|314:81|428:69,1,149.999995529652,4|8
481,137,228857,1,0
481,137,229072,1,0
481,137,229286,1,8
412,215,229714,2,0,B|321:255|368:338,1,149.999995529652,0|8
268,374,230572,1,0
268,374,230786,1,0
268,374,231000,1,8
174,326,231429,6,0,B|107:275|123:179,1,149.999995529652,4|8
135,141,232072,1,0
164,97,232286,1,2
267,81,232714,1,2
368,53,233143,1,4
443,125,233572,1,4
383,211,234000,1,4
280,186,234429,1,4
267,81,234857,6,0,B|181:96|154:181,1,149.999995529652,4|8
55,198,235714,1,0
55,198,235929,1,0
55,198,236143,1,8
95,294,236572,2,0,B|175:268|256:305,1,149.999995529652,0|8
327,359,237429,1,2
327,359,237643,1,2
327,359,237857,1,8
385,271,238286,6,0,B|451:222|424:131,1,149.999995529652,4|8
346,67,239143,1,0
282,150,239572,1,8
282,150,239786,1,0
282,150,240000,2,0,B|154:227,1,149.999995529652,0|8
76,155,240857,5,2
42,114,241072,1,0
57,63,241286,1,2
106,45,241500,1,0
152,64,241714,1,4
258,63,242143,1,8
330,138,242572,1,0
330,138,243000,1,8
428,100,243429,6,0,B|471:173|447:261,1,149.999995529652,2|8
363,303,244286,2,0,B|298:260|211:266,1,149.999995529652,2|8
126,218,245143,5,8
89,180,245357,1,8
95,127,245572,1,8
140,101,245786,1,8
191,109,246000,2,0,B|263:136,4,74.9999977648259,8|8|8|8|4
