osu file format v9

[General]
AudioFilename: Kokoro.mp3
AudioLeadIn: 0
PreviewTime: 94285
Countdown: 1
SampleSet: Normal
StackLeniency: 0.7
Mode: 0
LetterboxInBreaks: 1

[Editor]
Bookmarks: 22286,36000,63429,77143,94286,137143,164572,178286,207429,221143
DistanceSpacing: 1
BeatDivisor: 4
GridSize: 8

[Metadata]
Title:Kokoro
Artist:Kagamine Rin
Creator:Miu Matsuoka
Version:Insane
Source:Toraboruta-P
Tags:ignorethis wmfchris vocaloid

[Difficulty]
HPDrainRate:7
CircleSize:4
OverallDifficulty:8
ApproachRate:8
SliderMultiplier:1.8
SliderTickRate:2

[Events]
//Background and Video events
0,0,"bg.jpg"
//Break Periods
2,22486,35250
2,88914,94179
2,123629,129536
2,164772,177536
//Storyboard Layer 0 (Background)
//Storyboard Layer 1 (Fail)
//Storyboard Layer 2 (Pass)
//Storyboard Layer 3 (Foreground)
//Storyboard Sound Samples
//Background Colour Transformations
3,100,163,162,255

[TimingPoints]
8572,428.571428571429,4,1,1,70,1,0
8786,-100,4,2,1,70,0,0
12000,-100,4,1,1,30,0,0
12214,-100,4,2,1,70,0,0
15429,-100,4,1,1,30,0,0
15643,-100,4,2,1,70,0,0
18857,-133.333333333333,4,1,1,30,0,0
19714,-133.333333333333,4,2,1,50,0,0
20572,-100,4,1,1,30,0,0
21000,-100,4,2,1,50,0,0
21214,-100,4,1,1,50,0,0
22286,-100,4,1,1,70,0,0
36000,-100,4,1,1,60,0,0
36429,-100,4,2,1,70,0,0
45214,-133.333333333333,4,2,1,70,0,0
46286,-100,4,2,1,60,0,0
49287,-100,4,1,1,60,0,0
50143,-100,4,2,1,60,0,0
53143,-100,4,1,1,30,0,0
53572,-100,4,2,1,60,0,0
56572,-100,4,1,1,30,0,0
57000,-100,4,2,1,60,0,0
60000,-100,4,1,1,30,0,0
60429,-100,4,2,1,60,0,0
61714,-100,4,1,1,60,0,0
62143,-100,4,2,1,60,0,0
62357,-100,4,1,1,60,0,0
63214,-100,4,2,1,60,0,0
63429,-133.333333333333,4,1,1,40,0,0
75000,-133.333333333333,4,2,1,40,0,0
75857,-100,4,2,1,40,0,0
76286,-100,4,2,1,60,0,0
77143,-133.333333333333,4,1,1,40,0,0
83572,-133.333333333333,4,2,1,60,0,0
84000,-133.333333333333,4,1,1,60,0,0
87429,-100,4,1,1,70,0,0
87643,-100,4,1,1,30,0,0
88072,-100,4,1,1,70,0,0
88286,-100,4,1,1,30,0,0
88714,-100,4,1,1,70,0,0
94929,-100,4,2,1,50,0,0
95143,-100,4,1,1,60,0,0
95572,-100,4,1,1,80,0,0
96000,-100,4,1,1,80,0,1
96429,-100,4,2,1,90,0,1
102857,-100,4,1,1,80,0,1
103286,-100,4,2,1,90,0,1
109714,-100,4,1,1,80,0,1
110143,-100,4,2,1,90,0,1
116572,-100,4,1,1,80,0,1
117000,-100,4,2,1,90,0,1
123429,-100,4,1,1,90,0,0
130286,-100,4,1,1,80,0,0
130500,-100,4,2,1,80,0,0
130714,-100,4,1,1,40,0,0
130929,-100,4,2,1,80,0,0
131143,-100,4,1,1,40,0,0
131357,-100,4,2,1,80,0,0
131572,-100,4,1,1,40,0,0
131786,-100,4,2,1,80,0,0
132000,-100,4,1,1,40,0,0
132214,-100,4,2,1,80,0,0
132429,-100,4,1,1,40,0,0
132643,-100,4,2,1,80,0,0
132857,-100,4,1,1,40,0,0
133072,-100,4,2,1,80,0,0
133286,-100,4,1,1,40,0,0
133500,-100,4,2,1,80,0,0
133714,-200,4,1,1,40,0,0
135429,-100,4,1,1,40,0,0
137143,-100,4,1,1,60,0,0
148822,-100,4,2,1,70,0,0
149036,-100,4,1,1,70,0,0
153857,-100,4,2,1,70,0,0
154286,-100,4,1,1,70,0,0
156643,-100,4,2,1,70,0,0
157072,-100,4,1,1,70,0,0
159214,-100,4,1,1,40,0,0
162857,-100,4,1,1,90,0,0
163714,-100,4,2,1,70,0,0
178286,-100,4,1,1,70,0,0
178714,-100,4,2,1,60,0,0
185143,-100,4,1,1,50,0,0
185357,-100,4,2,1,60,0,0
190286,-133.333333333333,4,1,1,70,0,0
192000,-133.333333333333,4,2,1,70,0,0
192857,-133.333333333333,4,1,1,50,0,0
193714,-100,4,2,1,80,0,0
205714,-100,4,2,1,50,0,0
206143,-100,4,2,1,60,0,0
206572,-100,4,2,1,70,0,0
207429,-100,4,1,1,80,0,0
207857,-100,4,2,1,60,0,0
215143,-100,4,2,1,40,0,0
215572,-100,4,2,1,70,0,0
216857,-100,4,2,1,40,0,0
217286,-100,4,2,1,70,0,0
219429,-100,4,1,1,30,0,0
219857,-100,4,1,1,40,0,0
220286,-100,4,1,1,50,0,0
220714,-100,4,1,1,60,0,0
221143,-100,4,1,1,80,0,1
221357,-100,4,2,1,90,0,1
227143,-100,4,2,1,100,0,1
228000,-100,4,1,1,80,0,1
228429,-100,4,2,1,100,0,1
233143,-100,4,2,1,31,0,1
233572,-100,4,2,1,40,0,1
234000,-100,4,2,1,50,0,1
234429,-100,4,2,1,61,0,1
234857,-100,4,1,1,70,0,1
235072,-100,4,2,1,70,0,1
243429,-133.333333333333,4,2,1,70,0,1
245143,-133.333333333333,4,1,1,100,0,1
246857,-100,4,1,1,70,0,0

[Colours]
Combo1 : 173,124,186
Combo2 : 99,197,112
Combo3 : 126,156,205
Combo4 : 150,145,105
SliderBorder : 255,255,128

[HitObjects]
256,48,8571,1,4
168,88,8786,2,0,B|144:128|88:136,2,90,2|0|2
104,256,9643,2,0,B|104:312|152:344,2,90,2|0|2
280,272,10500,2,0,B|248:312|256:368,2,90,2|0|2
351,216,11143,1,0
432,253,11357,1,2
504,199,11572,1,0
462,119,11786,5,2
462,119,11893,1,0
462,119,12000,2,0,B|446:69|395:44,1,90,0|2
316,52,12429,1,0
316,52,12643,1,2
140,92,13072,2,0,B|184:105|236:87,2,90,2|0|2
24,200,13929,5,2
76,271,14143,1,0
164,258,14357,1,2
185,170,14572,1,0
185,170,14679,1,0
185,170,14786,2,0,B|176:115|132:84,2,90,2|0|2
272,200,15429,5,4
314,120,15643,1,2
403,116,15857,2,0,B|440:152|493:155,1,90,0|2
414,320,16500,2,0,B|425:272|480:241,2,90,2|0|2
254,235,17357,1,2
198,306,17572,1,0
110,283,17786,1,2
99,193,18000,2,0,B|65:160|61:107,1,90,0|2
123,47,18429,1,0
123,47,18643,1,2
210,68,18857,6,0,B|351:-5|458:102,2,269.999991953373,0|0|0
158,141,20786,1,0
146,230,21000,1,2
217,284,21214,1,0
261,293,21322,1,0
304,283,21429,1,0
341,258,21536,1,0
365,220,21643,1,0
399,191,21750,1,0
443,184,21857,1,0
502,251,22072,1,0
502,251,22286,1,4
441,124,36000,6,0,B|384:48|273:52,1,180,4|2
194,72,36643,1,0
108,43,36857,1,0
41,104,37072,2,0,B|67:151|61:208,1,90,0|2
22,271,37500,2,0,B|104:320|212:304,1,180
265,251,38143,1,2
315,176,38357,2,0,B|376:97|476:100,1,180
480,189,39000,2,0,B|460:236|478:287,2,90,0|0|2
345,308,39857,5,0
277,247,40072,1,0
198,291,40286,1,0
128,234,40500,2,0,B|87:263|38:246,1,90,0|2
76,163,40929,2,0,B|-3:114|4:2,2,180
152,116,42000,1,0
152,116,42107,1,0
152,116,42214,2,0,B|96:80|90:35,2,90,2|0|2
237,145,42857,6,0,B|315:163|303:59|401:70,1,180,0|2
478,83,43500,1,0
498,170,43714,1,0
451,247,43929,2,0,B|398:241|356:275,1,90,0|2
426,333,44357,2,0,B|336:384|234:340,1,180,0|0
193,276,45000,1,2
105,294,45214,2,0,B|75:362|-6:358,2,134.999995976687
121,205,46286,5,0
109,115,46500,2,0,B|92:65|40:44,2,90,2|0|2
283,158,47357,2,0,B|256:198|203:203,2,90,2|0|2
351,98,48000,2,0,B|419:176|512:184,1,180,0|2
500,93,48643,2,0,B|413:140|366:248,1,180
290,241,49286,1,0
266,202,49393,1,0
226,180,49500,1,0
181,179,49607,1,0
139,195,49714,1,4
41,43,50143,5,2
124,76,50357,1,0
211,55,50572,1,0
290,97,50786,2,0,B|332:80|396:87,1,90,0|2
445,26,51214,2,0,B|486:110|464:201,1,180
423,281,51857,1,2
351,335,52072,2,0,B|260:359|161:335,1,180
215,258,52714,6,0,B|264:269|332:252,2,90,2|0|0
74,144,53357,1,0
246,91,53572,2,0,B|299:73|349:105,1,90,2|0
286,172,54000,5,0
286,172,54214,2,0,B|332:198|355:239,1,90,0|2
265,261,54643,1,0
265,261,55072,2,0,B|281:310|269:355,2,90,0|2|0
286,172,55714,1,0
264,80,55929,1,0
192,24,56143,1,2
192,24,56250,1,0
192,24,56357,1,0
104,32,56572,6,0,B|103:83|63:118,1,90,0|0
0,240,57000,1,2
104,340,57214,1,0
193,332,57429,6,0,B|236:316|292:322,1,90
368,342,57857,1,2
410,262,58072,1,0
369,181,58286,2,0,B|266:174|224:70,1,180,0|2
316,58,58929,2,0,B|308:161|231:214,1,180
145,228,59572,1,2
145,228,59786,1,0
86,160,60000,6,0,B|102:117|85:66,2,90,0|0|2
145,228,60643,2,0,B|240:212|256:96,1,180
205,26,61286,1,2
205,26,61500,1,0
255,102,61714,2,0,B|343:168|456:147,1,180,0|2
480,322,62357,2,0,B|405:263|296:268,1,180
219,266,63000,1,0
184,182,63214,5,2
184,182,63322,1,2
184,182,63429,2,0,B|133:124|57:119,1,134.999995976687,4|2
190,47,64286,1,0
190,47,64500,2,0,B|117:57|52:12,2,134.999995976687,2|0|0
257,37,65572,1,2
381,87,66000,1,0
404,110,66214,1,0
427,133,66429,1,2
450,156,66643,5,0
450,156,66750,1,0
450,156,66857,2,0,B|495:208|492:287,1,134.999995976687,4|0
363,322,67714,1,0
363,322,67929,2,0,B|299:360|223:331,1,134.999995976687,2|0
186,207,68786,1,0
126,175,69000,1,2
61,194,69214,1,0
42,259,69429,2,0,B|54:341|-27:358,2,134.999995976687,0|0|4
54,124,70714,5,2
160,207,71143,1,0
160,207,71357,1,2
188,339,71786,2,0,B|250:380|325:355,1,134.999995976687
380,334,72429,2,0,B|428:288|515:296,2,134.999995976687,0|0|2
404,271,73500,5,0
404,271,73607,1,0
404,271,73714,2,0,B|352:224|360:134,1,134.999995976687
432,184,74357,2,0,B|376:224|304:208,1,134.999995976687
336,264,75000,2,0,B|280:360|160:352,1,202.49999396503,0|2
138,286,75857,5,0
66,140,76072,1,2
209,214,76286,1,0
48,233,76500,1,2
169,126,76714,1,0
229,59,76929,5,0
229,59,77036,1,0
229,59,77143,2,0,B|295:37|367:49,1,134.999995976687,4|0
303,170,78000,1,0
303,170,78214,2,0,B|381:180|445:240,1,134.999995976687,2|0
302,279,79072,1,0
302,279,79286,2,0,B|334:301|344:355,2,67.4999979883433
175,325,80143,1,2
64,247,80572,6,0,B|25:184|57:118,1,134.999995976687
157,28,81429,1,0
187,42,81643,1,2
217,56,81857,1,0
247,71,82072,2,0,B|309:100|386:76,1,134.999995976687
411,71,82714,2,0,B|446:65|471:88|472:120|471:144|430:154,2,134.999995976687,0|0|2
297,168,84000,6,0,B|240:217|151:196,1,134.999995976687,4|0
77,101,84857,1,0
77,101,85072,2,0,B|17:155|43:233,1,134.999995976687,2|0
123,329,85929,1,0
123,329,86143,2,0,B|188:296|257:331,2,134.999995976687,0|0|2
161,153,87429,6,0,B|113:153|76:109,2,90,4|2|0
351,153,88072,2,0,B|399:153|436:109,2,90,4|0|2
256,216,88714,1,4
468,74,94929,5,0
456,93,95036,1,0
444,112,95143,1,0
432,131,95250,1,0
421,150,95357,1,0
410,169,95464,1,0
399,188,95572,1,0
388,207,95679,1,0
377,226,95786,1,0
366,246,95893,1,0
356,266,96000,6,0,B|263:268|189:331,1,180,4|8
115,280,96643,1,0
43,226,96857,2,0,B|15:139,2,90,0|0|8
115,173,97500,2,0,B|176:102|279:99,1,180
363,106,98143,1,8
363,106,98357,1,0
434,161,98572,2,0,B|470:129,2,45
421,250,99000,1,8
243,278,99429,6,0,B|256:183|168:118,1,180,4|8
100,68,100072,1,2
100,68,100179,1,0
100,68,100286,2,0,B|64:32|12:46,2,90,2|0|8
35,130,100929,1,0
56,217,101143,5,2
182,345,101357,1,0
225,155,101572,1,10
351,283,101786,1,0
392,89,102000,2,0,B|383:46,2,45
481,101,102429,2,0,B|493:37,2,45,10|0|0
441,181,102857,6,0,B|482:280|412:350,1,180,4|8
333,307,103500,1,2
333,307,103607,1,0
333,307,103714,2,0,B|242:280|146:330,1,180,2|8
94,259,104357,2,0,B|128:168|248:120,2,180
157,324,105429,1,2
157,324,105536,1,0
157,324,105643,2,0,B|111:349|55:340,2,90,2|8|2
217,256,106286,5,4
268,182,106500,1,0
304,264,106714,2,0,B|359:264|392:236,1,90,8|0
468,129,107143,5,4
501,45,107357,1,0
411,59,107572,2,0,B|363:73|316:60,1,90,8|0
190,31,108000,5,4
10,233,108429,1,4
274,282,108857,2,0,B|301:326,4,45,4|0|0|0|4
293,193,109500,1,0
367,142,109714,2,0,B|411:163|456:149|456:149|493:116|479:68,1,180,4|8
415,24,110357,1,0
325,32,110572,2,0,B|286:54|234:43,1,90
148,31,111000,1,8
148,31,111214,2,0,B|59:76|35:170,2,180
184,112,112286,2,0,B|136:136|122:192,2,90,2|2|8
88,264,113143,6,0,B|152:344|257:324,1,180,4|8
282,241,113786,1,2
282,241,113893,1,0
282,241,114000,2,0,B|294:148|398:112,1,180,2|8
464,170,114643,1,0
486,257,114857,6,0,B|468:304|412:313,1,90,0|0
331,329,115286,2,0,B|281:314|228:329,1,90,8|0
153,311,115714,1,2
162,295,115822,1,0
171,279,115929,1,0
88,243,116143,1,2
75,229,116250,1,0
62,215,116357,1,0
138,166,116572,6,0,B|242:210|304:109,1,180,4|8
353,53,117214,1,2
353,53,117429,2,0,B|402:40|455:51,2,90,2|0|8
295,122,118072,2,0,B|296:216|390:272,1,180,2|2
329,339,118714,1,8
249,295,118929,1,0
171,340,119143,2,0,B|129:352|77:337,2,90,2|2|8
86,180,120000,5,4
78,90,120214,2,0,B|28:86|-4:46,2,90,8|8|8
167,78,120857,1,8
167,78,120964,1,0
167,78,121072,2,0,B|214:63|263:72,2,90,8|8|8
256,192,121714,12,4,123429
202,49,130286,6,0,B|169:82|94:82,1,90,4|2
310,49,130714,2,0,B|343:82|418:82,1,90,0|2
184,165,131143,6,0,B|148:198|90:201,1,90,0|2
328,165,131572,2,0,B|364:198|422:201,1,90,0|2
362,276,132000,5,0
318,354,132214,1,2
256,280,132429,1,0
194,354,132643,1,2
150,276,132857,1,0
208,200,133072,1,2
256,280,133286,1,0
304,200,133500,1,2
362,276,133714,6,0,B|480:256|512:160|480:56|360:40,1,360
197,112,135857,1,0
36,192,136286,1,0
120,221,136500,1,0
126,310,136714,1,0
207,347,136929,1,0
289,311,137143,6,0,B|340:305|366:261,1,90,4|0
453,259,137572,1,2
463,169,137786,1,0
307,78,138214,2,0,B|336:43|388:36,2,90,0|2|0
223,43,138857,1,0
162,109,139072,1,0
210,184,139286,1,2
297,165,139500,1,0
307,350,139929,6,0,B|317:302|381:284,2,90,0|2|0
219,327,140572,2,0,B|181:296|127:310,1,90
46,328,141000,1,2
0,250,141214,1,0
47,172,141429,1,0
127,211,141643,1,0
127,211,142072,1,0
213,53,142500,6,0,B|164:67|119:45,2,90,0|2|0
288,104,143143,2,0,B|320:64|384:64,1,90,2|2
480,208,143572,2,0,B|448:248|384:248,1,90,2|2
285,354,144000,6,0,B|238:365|191:348,1,90,4|0
245,274,144429,1,2
245,274,144643,1,0
323,112,145072,1,0
279,33,145286,1,2
200,76,145500,1,0
200,76,145607,1,0
200,76,145714,2,0,B|160:103|109:97,1,90,0|0
40,45,146143,1,2
11,130,146357,1,0
90,291,146786,5,0
167,244,147000,1,2
243,291,147214,1,0
319,242,147429,2,0,B|363:263|413:240,1,90,4|0
364,163,147857,1,2
364,163,148072,1,0
320,84,148286,2,0,B|364:63|414:86,2,90
246,137,148929,1,4
354,280,149357,5,0
426,134,149572,1,2
283,208,149786,1,0
444,227,150000,1,2
323,120,150214,1,0
354,280,150429,1,0
354,280,150643,1,0
176,312,151072,5,0
88,344,151286,1,2
0,312,151500,1,0
0,72,151929,5,0
88,40,152143,1,2
176,72,152357,1,0
88,192,152786,5,0
176,192,153000,1,2
264,192,153214,1,0
448,192,153643,5,0
448,192,153857,1,4
256,144,154286,5,0
208,64,154500,1,0
256,56,154607,1,0
304,64,154714,1,2
256,144,154929,1,2
304,224,155143,1,0
256,232,155250,1,0
208,224,155357,1,2
256,144,155572,1,2
256,144,155786,1,2
168,296,156214,6,0,B|256:336|352:296,2,180,0|4|2
168,296,157500,1,4
256,192,159214,12,4,162857
256,152,163714,5,0
256,192,164143,1,0
256,232,164572,1,4
256,280,178286,5,4
168,192,178714,1,2
256,104,179143,1,2
344,192,179571,1,2
256,312,180000,5,0
136,192,180429,1,2
256,72,180857,1,2
376,192,181286,1,2
168,279,181714,5,4
168,104,182142,1,2
343,104,182571,1,2
343,279,182999,1,2
137,310,183428,5,0
137,73,183857,1,2
374,73,184285,1,2
374,310,184714,1,2
256,176,185143,6,0,B|256:264,2,90,4|0|0
256,88,185786,1,0
256,88,185893,1,0
256,88,186000,2,0,B|256:0,2,90,2|0|0
256,176,186643,2,0,B|168:208|64:176,2,180,2|0|0
256,176,187714,2,0,B|344:144|448:176,2,180,2|0|4
173,213,188786,5,0
86,187,189000,1,2
56,271,189214,1,0
142,297,189429,1,0
228,322,189643,2,0,B|267:293|318:294,2,90,0|2|0
228,322,190179,1,0
228,322,190286,1,4
256,192,190500,12,2,192000
256,80,192643,5,0
256,96,192750,1,0
256,112,192857,1,0
256,128,192964,1,0
256,144,193072,1,0
256,160,193179,1,0
256,176,193286,1,0
256,192,193393,1,0
256,208,193500,1,0
256,224,193607,1,0
256,240,193714,6,0,B|219:272|171:249,1,90,4|0
98,194,194143,1,8
11,218,194357,1,0
33,130,194572,1,2
33,130,194679,1,0
33,130,194786,2,0,B|53:91|39:42,2,90,2|8|2
120,107,195429,2,0,B|152:72|200:67,1,90
286,85,195857,1,8
286,85,196072,1,0
372,60,196286,2,0,B|401:96|448:105,1,90,2|2
476,190,196714,1,8
397,233,196929,5,2
397,233,197036,1,2
397,233,197143,2,0,B|373:334|248:324,1,180,4|8
284,237,197786,1,0
284,237,198000,2,0,B|196:252|123:167,1,180,0|8
199,118,198643,1,0
199,118,198857,2,0,B|233:219|137:273,1,180,2|8
320,272,199714,6,0,B|367:292,2,45,2|0|2
320,112,200143,2,0,B|367:92,2,45,2|0|2
278,191,200572,6,0,B|192:221|88:191,1,180,4|8
40,364,201429,1,2
40,364,201643,1,2
101,298,201857,2,0,B|151:276|196:305,1,90,8|0
218,332,202179,1,0
239,371,202286,1,2
343,226,202714,1,8
425,65,203143,2,0,B|468:48|514:55,2,90,2|2|8
339,93,203786,1,2
251,115,204000,6,0,B|149:148|76:88,1,180,4|8
33,168,204643,1,0
33,168,204750,1,0
33,168,204857,2,0,B|124:213|129:316,1,180,4|8
168,384,205500,1,0
248,352,205714,2,0,B|296:352|344:328,2,90,4|0|4
208,272,206357,1,2
208,272,206464,1,0
208,272,206572,2,0,B|248:248|264:200,2,90,4|2|4
118,264,207214,1,2
43,212,207429,6,0,B|37:101|165:93,1,180,4|8
218,152,208072,1,0
293,103,208286,2,0,B|334:210|468:161,1,180,0|8
444,255,208929,1,2
444,255,209036,1,0
444,255,209143,2,0,B|376:334|277:283,1,180,2|8
207,232,209786,1,0
207,232,210000,2,0,B|134:156|25:227,1,180,2|8
6,299,210643,1,0
44,322,210750,1,0
83,343,210857,6,0,B|127:329|174:340,1,90,4|0
256,326,211286,1,8
256,326,211500,1,0
344,341,211714,2,0,B|387:358|433:345,1,90,2|2
484,271,212143,1,8
431,198,212357,1,2
431,198,212464,1,0
431,198,212572,2,0,B|452:159|497:136,2,90,2|0|8
351,156,213214,1,0
271,112,213429,2,0,B|236:152|179:145,2,90,8|8|8
257,22,214072,1,8
257,22,214179,1,0
257,22,214286,1,4
175,59,214500,6,0,B|132:44|84:45,3,90,2|8|2|2
48,128,215357,5,2
136,144,215572,1,2
136,240,215786,1,2
48,256,216001,1,2
86,339,216214,6,0,B|128:344|174:316,3,90,2|8|2|2
136,240,217072,2,0,B|96:264|40:256,2,90,2|2|2
197,192,217714,5,4
239,112,217929,1,0
328,111,218143,1,0
380,37,218357,1,0
430,112,218572,2,0,B|475:204,1,90,4|0
379,194,219000,2,0,B|340:280,1,90
276,338,219429,5,0
264,324,219536,1,0
249,313,219643,1,0
231,309,219750,1,0
213,310,219857,1,0
195,314,219964,1,0
178,322,220072,1,0
163,332,220179,1,0
146,339,220286,5,0
128,343,220393,1,0
110,345,220500,1,0
92,341,220607,1,0
76,332,220714,1,0
63,318,220822,1,0
53,302,220929,1,0
48,284,221036,1,0
46,266,221143,1,4
67,178,221357,5,0
20,100,221572,2,0,B|56:69|108:73,1,90,8|0
190,95,222000,2,0,B|237:106|290:94,1,90,2|2
353,40,222429,1,8
437,70,222643,1,2
437,70,222750,1,0
437,70,222857,1,0
410,156,223072,1,0
472,220,223286,2,0,B|452:273|396:304,1,90,8|0
332,261,223714,5,2
186,189,223929,1,2
260,332,224143,1,8
279,171,224357,1,2
168,288,224572,2,0,B|73:340|-1:267,1,180,4|8
43,192,225214,1,2
43,192,225322,1,0
43,192,225429,2,0,B|59:150|34:106,1,90,2|0
91,36,225857,2,0,B|127:68|184:69,1,90,8|0
261,49,226286,5,2
350,37,226500,1,2
435,64,226714,1,8
466,148,226929,1,2
466,236,227143,5,0
435,320,227358,1,2
350,347,227572,1,8
261,335,227786,1,2
195,273,228000,6,0,B|137:204|32:216,1,180,4|8
62,301,228643,1,0
62,301,228857,2,0,B|164:237|117:123,1,180,2|8
211,120,229500,1,0
211,120,229607,1,0
211,120,229714,2,0,B|323:90|364:206,1,180,4|8
406,113,230357,1,0
406,113,230572,2,0,B|308:92|246:206,1,180,2|8
256,278,231214,5,0
256,278,231322,1,0
256,278,231429,1,4
170,192,231857,1,8
256,106,232286,1,4
342,192,232714,1,8
256,362,233143,5,4
85,191,233571,1,4
256,21,234000,1,4
426,191,234428,1,4
256,192,234857,5,4
256,192,235072,12,4,238286
256,248,238714,5,8
256,248,239143,2,0,B|256:336,2,90,2|2|8
256,160,239786,1,2
256,160,240000,2,0,B|176:104|80:168,2,180,2|8|2
256,160,240964,1,0
256,160,241072,1,0
192,224,241286,1,2
192,224,241393,1,0
192,224,241500,1,0
256,288,241714,6,0,B|329:345|432:320,1,180,4|8
480,240,242357,1,2
480,240,242464,1,0
480,240,242572,2,0,B|463:198|476:152,2,90,2|2|8
394,213,243214,1,2
351,134,243429,6,0,B|333:54|253:24|173:57|159:137,2,269.999991953373,4|4|4
256,192,245357,12,4,246857
