osu file format v9

[General]
AudioFilename: Kokoro.mp3
AudioLeadIn: 0
PreviewTime: 94285
Countdown: 1
SampleSet: Normal
StackLeniency: 0.7
Mode: 0
LetterboxInBreaks: 1

[Editor]
Bookmarks: 22286,36000,63429,92572,137143,164572
DistanceSpacing: 1
BeatDivisor: 4
GridSize: 8

[Metadata]
Title:Kokoro
Artist:Kagamine Rin
Creator:Miu Matsuoka
Version:Easy
Source:Toraboruta-P
Tags:ignorethis wmfchris vocaloid

[Difficulty]
HPDrainRate:2
CircleSize:3
OverallDifficulty:2
ApproachRate:2
SliderMultiplier:1
SliderTickRate:2

[Events]
//Background and Video events
0,0,"bg.jpg"
//Break Periods
2,22486,34869
2,88914,93583
2,123629,135583
2,164572,176726
//Storyboard Layer 0 (Background)
//Storyboard Layer 1 (Fail)
//Storyboard Layer 2 (Pass)
//Storyboard Layer 3 (Foreground)
//Storyboard Sound Samples
//Background Colour Transformations
3,100,163,162,255

[TimingPoints]
8572,428.571428571429,4,1,1,70,1,0
9429,-100,4,2,1,70,0,0
12000,-100,4,1,1,30,0,0
12857,-100,4,2,1,70,0,0
15429,-100,4,1,1,30,0,0
16286,-100,4,2,1,70,0,0
18857,-100,4,1,1,30,0,0
20786,-100,4,1,1,70,0,0
36000,-100,4,1,1,60,0,0
46286,-100,4,2,1,60,0,0
48857,-100,4,1,1,60,0,0
60429,-100,4,2,1,60,0,0
70286,-100,4,1,1,60,0,0
83143,-100,4,2,1,60,0,0
84000,-100,4,1,1,60,0,0
87429,-100,4,1,1,100,0,0
95143,-100,4,2,1,60,0,0
95572,-100,4,2,1,80,0,0
96000,-100,4,2,1,100,0,1
123429,-100,4,1,1,70,0,0
137143,-100,4,1,1,70,0,0
154286,-100,4,2,1,70,0,0
159214,-100,4,1,1,70,0,0
178286,-100,4,2,1,70,0,0
190286,-100,4,2,1,70,0,0
192000,-133.333333333333,4,2,1,70,0,0
193714,-100,4,2,1,70,0,0
219429,-100,4,2,1,50,0,0
220286,-100,4,2,1,60,0,0
221143,-100,4,2,1,70,0,1
233143,-100,4,2,1,31,0,1
233572,-100,4,2,1,40,0,1
234000,-100,4,2,1,50,0,1
234429,-100,4,2,1,61,0,1
234857,-100,4,2,1,70,0,1
246857,-100,4,1,1,70,0,0

[Colours]
Combo1 : 173,124,186
Combo2 : 99,197,112
Combo3 : 126,156,205
Combo4 : 150,145,105
SliderBorder : 255,255,128

[HitObjects]
176,136,8571,2,0,B|208:80|256:64|304:80|336:136,1,200,4|0
256,192,9857,1,0
334,251,10286,2,0,B|304:304|256:320|208:304|176:248,1,200,2|0
80,72,12000,6,0,B|184:48|288:72,2,200,0|0|2
80,272,14572,1,0
80,272,15000,1,0
80,272,15429,2,0,B|184:296|288:272,2,200,4|0|2
256,176,18000,5,0
384,24,18857,2,0,B|464:48|504:192|464:336|384:360,1,400,0|2
256,192,20786,12,4,22286
440,288,36429,5,0
440,288,36857,2,0,B|392:272|336:288,1,100,0|2
240,304,37714,2,0,B|136:328|24:304,2,200
168,104,40286,5,0
168,104,40714,1,2
168,104,41143,2,0,B|200:64|256:48|312:64|344:104,1,200
344,200,42429,1,0
344,200,42857,1,0
144,200,43714,5,0
88,280,44143,1,2
168,344,44572,2,0,B|208:304|256:288|304:304|344:344,1,200
424,280,45857,1,0
424,176,46286,6,0,B|424:120|448:64,2,100,2|0|2
224,176,48000,2,0,B|224:120|200:64,2,100,2|0|2
320,176,49286,1,2
416,176,49714,6,0,B|448:296|328:336,1,200,4|0
256,272,51000,1,2
177,333,51429,2,0,B|64:296|96:176,1,200
168,112,52714,1,2
256,72,53143,6,0,B|288:144|216:200|264:288,2,200
344,112,55286,1,0
416,177,55714,2,0,B|448:296|334:333,1,200
256,152,57429,1,2
177,333,58286,2,0,B|64:296|95:177,2,200,0|0|4
256,192,60214,12,4,63429
64,136,64286,5,0
160,128,64714,1,2
240,72,65143,2,0,B|272:32|312:72|336:40,2,100,0|0|2
384,216,66857,6,0,B|424:184|480:192,2,100,0|0|2
288,328,68357,2,0,B|200:352|104:312|96:208,1,250,0|2
80,120,69857,1,0
176,80,70286,6,0,B|224:72|272:40,2,100,4|0|2
296,168,71786,2,0,B|400:152|464:256|424:344,1,250,0|2
232,328,73714,6,0,B|232:216|56:216|56:96,2,300,0|2|2
328,336,76714,1,2
424,328,77143,6,0,B|464:224|424:120,1,200,4|2
296,56,78643,2,0,B|288:152|168:192|104:96,1,250,0|2
48,192,80143,1,0
80,288,80572,6,0,B|184:328|288:288,1,200,0|2
280,144,82072,2,0,B|280:48|408:8|472:104,1,250,0|2
472,192,83572,1,2
460,295,84000,6,0,B|400:376|288:344|280:240,1,250,4|2
240,152,85500,2,0,B|176:64|56:120|64:208,1,250,4|2
56,304,87000,1,2
152,288,87429,6,0,B|192:240|240:296|296:264,2,150,4|4|4
312,120,95143,5,4
328,248,95572,1,4
200,264,96000,6,0,B|184:328|128:336|64:328|48:264,1,200,4|0
32,176,97286,1,8
48,80,97714,2,0,B|61:24|125:16|181:24|197:88,1,200
256,168,99000,1,8
304,256,99429,6,0,B|344:304|408:304,1,100,2|8
488,272,100286,1,0
488,272,100714,1,8
456,176,101143,2,0,B|448:128|464:72,2,100,2|8|2
256,136,102857,6,0,B|200:80|120:128|64:64,2,200,4|0|0
296,224,105000,1,8
296,224,105429,1,0
152,88,106286,6,0,B|104:72,2,50,0|2|0
152,192,107143,2,0,B|104:192,2,50,0|2|0
152,296,108000,2,0,B|104:312,2,50,4|2|0
256,256,108857,1,4
256,256,109286,1,4
256,136,109714,6,0,B|312:80|392:128|448:64,2,200,4|0|0
216,224,111857,1,8
216,224,112286,1,0
216,224,112714,1,8
136,288,113143,6,0,B|80:288|48:232,1,100,0|8
53,143,114000,2,0,B|80:96|136:96,1,100,0|8
216,160,114857,1,0
312,120,115286,1,8
408,112,115714,2,0,B|464:104|504:56,2,100,0|8|4
344,304,117429,5,0
256,264,117857,1,8
160,272,118286,2,0,B|104:288|64:232,2,100,0|8|0
256,72,120000,6,0,B|288:144|216:200|264:288,2,200,4|4|4
256,192,121929,12,4,123429
176,248,137143,6,0,B|192:296|256:312|320:296|336:248,1,200,4|0
256,192,138429,1,2
336,136,138857,2,0,B|320:88|256:72|192:88|176:136,1,200
256,192,140143,5,2
256,192,140572,2,0,B|344:160|400:224|472:184,2,200,4|0|0
56,192,143143,1,0
88,96,143572,1,0
176,136,144000,6,0,B|192:88|256:72|320:88|336:136,1,200,4|0
256,192,145286,1,2
175,247,145714,2,0,B|192:296|256:312|320:296|336:247,1,200
256,192,147000,5,2
256,192,147429,2,0,B|168:160|112:224|40:184,2,200,4|0|0
456,192,150000,1,2
312,328,150857,6,0,B|272:240|128:208|40:280,1,300,4|0
48,168,152572,2,0,B|168:160|168:56|320:40,1,300,4|0
408,80,154286,5,2
488,144,154714,1,0
488,240,155143,1,2
408,304,155572,1,0
304,192,156214,2,0,B|200:192,3,100,0|4|0|4
256,192,159214,12,4,162857
176,80,178286,6,0,B|128:112|64:80,2,100,2|0|0
272,64,179572,1,0
368,40,180000,1,2
456,96,180429,1,0
488,192,180857,1,0
456,288,181286,1,0
368,344,181714,6,0,B|296:288|240:376|168:320,1,200,2|0
104,256,183000,1,0
64,160,183429,2,0,B|48:40|184:24,2,200,2|0|4
256,96,186000,6,0,B|256:208,2,100,0|0|2
408,224,187714,2,0,B|408:120,2,100,0|0|2
256,352,189429,1,0
88,240,190286,6,0,B|111:161|255:121|399:161|423:241,1,400,4|2
280,288,192857,1,2
280,288,193286,1,2
256,192,193714,6,0,B|216:232|160:232,2,100,4|8|0
352,160,195000,1,8
456,336,195857,1,8
456,336,196286,1,0
456,336,196714,1,8
440,240,197143,6,0,B|472:120|328:88,1,200
256,136,198429,1,8
166,92,198857,2,0,B|40:120|72:240,1,200
56,336,200143,1,8
56,336,200571,1,4
256,304,201429,6,0,B|320:256|368:344|456:312,2,200,2|2|2
184,240,203572,1,10
184,240,204000,1,4
96,56,204857,1,4
288,112,205714,6,0,B|328:80|400:64,1,100,4|0
464,128,206572,1,4
464,128,207000,1,4
440,224,207429,6,0,B|440:352|304:336,1,200,4|0
256,256,208714,1,8
199,336,209143,2,0,B|72:352|72:224,1,200,0|0
128,144,210429,1,8
184,64,210857,6,0,B|160:16,2,50,0|2|8
256,136,211714,2,0,B|256:200,2,50,0|2|8
328,64,212572,2,0,B|352:16,2,50,0|2|8
256,136,213429,1,4
256,136,213857,1,4
256,240,214286,6,0,B|176:200|128:272|48:216,1,200,4|2
256,240,216000,2,0,B|336:200|384:272|464:216,1,200,4|2
384,40,217714,5,0
304,96,218143,1,8
208,96,218572,1,0
128,40,219000,1,8
72,128,219429,2,0,B|112:168|128:216|112:264|72:304,2,200,4|4|4
256,192,221357,12,0,224572
80,312,225429,5,0
176,280,225857,1,8
272,312,226286,2,0,B|352:360|416:272|472:328,2,200,2|0|4
112,192,228857,5,2
112,192,229286,1,8
112,192,229714,1,4
256,48,230572,5,2
256,48,231001,1,8
256,48,231429,1,4
400,192,232286,5,4
256,336,233143,5,4
256,232,233572,2,0,B|256:128,3,100,4|4|4|4
256,192,235072,12,0,238286
256,72,239143,5,0
256,176,239572,1,8
256,272,240000,2,0,B|184:304|120:240|40:296,2,200,2|0|4
256,72,242572,5,0
256,72,243000,1,8
176,136,243429,2,0,B|200:184|256:208|312:184|336:136,1,200,4|4
96,168,245143,2,0,B|144:264|256:312|368:264|416:168,1,400,4|4
