osu file format v9

[General]
AudioFilename: Black_RebelPV.mp3
AudioLeadIn: 0
PreviewTime: 60277
Countdown: 0
SampleSet: Normal
StackLeniency: 0.7
Mode: 0
LetterboxInBreaks: 0

[Editor]
Bookmarks: 5217,11217,89067,132342
DistanceSpacing: 1
BeatDivisor: 2
GridSize: 8

[Metadata]
Title:Black Rebel
Artist:Kagamine Rin
Creator:val0108
Version:Normal
Source:MinusP
Tags:ebina Vocaloid Wonderful Opportunity!

[Difficulty]
HPDrainRate:1
CircleSize:3
OverallDifficulty:2
ApproachRate:3
SliderMultiplier:0.6
SliderTickRate:1

[Events]
//Background and Video events
Video,0,"Black_Rebelpv.AVI"
0,0,"BG2.jpg"
//Break Periods
2,79677,86587
2,98877,104587
2,120477,130837
//Storyboard Layer 0 (Background)
//Storyboard Layer 1 (Fail)
//Storyboard Layer 2 (Pass)
//Storyboard Layer 3 (Foreground)
//Storyboard Sound Samples
//Background Colour Transformations
3,100,163,162,255

[TimingPoints]
427,300,4,1,1,80,1,0
21492,-100,4,2,1,0,0,0
21642,-100,4,1,1,80,0,0
60277,-100,4,1,1,80,0,1
77077,-100,4,1,1,80,0,0
105942,-100,4,2,0,58,0,0
107142,-100,4,1,1,80,0,0
142242,-100,4,2,1,67,0,0
143077,-100,4,1,1,80,0,1
159877,-100,4,1,1,80,0,0
162277,-100,4,1,1,80,0,1
179077,-100,4,1,1,80,0,0

[Colours]
Combo1 : 0,128,0
Combo2 : 157,60,255
Combo3 : 240,0,0

[HitObjects]
98,329,5227,2,2,B|226:329,1,120
260,286,6127,1,8
314,260,6427,2,2,B|314:180|234:180,1,120
183,180,7327,1,8
123,180,7627,2,0,B|123:252,2,60,2|2|2
38,95,8827,2,0,B|38:23,2,60,2|2|2
128,95,9877,6,2,B|280:95,1,150,6|10
400,136,11227,2,2,B|448:176|400:216,1,90,2|10
404,332,12277,2,2,B|252:332,1,150,6|10
134,332,13627,2,2,B|38:332,1,90,2|10
44,272,14377,1,8
44,212,14677,6,2,B|204:212,1,150,6|10
288,136,16027,2,2,B|192:136,1,90,2|10
138,136,16777,1,8
136,80,17077,6,2,B|224:80,1,90,6|2
288,76,17827,1,10
408,104,18427,2,2,B|417:152|417:152|395:211|395:211|408:256,1,150,2|10
256,192,19477,12,0,21577
80,184,22327,6,2,B|104:120|160:88,1,120,2|10
216,96,23227,2,0,B|304:96,1,90,2|10
306,156,23977,2,6,B|378:156,1,60
376,248,24727,5,2
376,304,25027,2,2,B|304:304,1,60,2|10
256,304,25627,1,0
200,304,25927,1,8
112,304,26377,2,6,B|112:232,1,60
112,152,27127,5,2
112,152,27427,1,10
200,72,28027,2,2,B|296:72,1,90,2|10
290,132,28777,2,6,B|362:132,1,60,6|6
408,200,29527,5,10
352,200,29827,2,2,B|288:200,1,60,2|10
232,200,30427,2,2,B|200:232|88:152|24:200,1,210,0|6
88,264,31927,5,2
88,264,32227,1,10
176,344,32827,2,2,B|264:344,1,90,2|10
328,344,33577,1,4
384,344,33877,6,2,B|424:304|432:264,1,90,6|2
432,208,34627,2,0,B|360:208,1,60,2|8
312,208,35227,1,0
256,208,35527,1,8
192,144,35977,5,6
192,144,36277,1,6
152,64,36727,2,2,B|24:64,1,120,2|10
32,124,37627,1,0
32,184,37927,1,8
32,272,38377,6,6,B|104:272,1,60
171,230,39127,1,8
213,272,39427,2,2,B|285:272,1,60,2|10
336,272,40027,2,2,B|345:197|345:197|325:102|325:102|336:56,1,210,2|6
248,40,41527,6,0,B|216:64|160:56|128:72,1,120,0|8
96,112,42427,2,0,B|48:152,1,60,0|8
40,208,43027,2,2,B|136:208,1,90,2|6
144,296,43927,5,0
204,296,44227,1,8
320,296,44827,2,0,B|320:224,1,60,0|8
320,176,45427,2,2,B|224:176,1,90,2|6
112,80,46627,6,0,B|296:80,1,180
352,80,47827,2,0,B|416:80,1,60,10|10
448,128,48427,6,0,B|432:224|328:248,1,180,4|8
280,288,49627,2,0,B|216:288,1,60,10|0
192,232,50227,2,2,B|264:176,1,90,10|6
248,88,51127,6,0,B|152:56|64:112,1,180,0|8
80,224,52627,2,2,B|80:320,1,90,2|6
168,312,53527,2,0,B|232:312,1,60,0|8
338,357,54427,2,2,B|402:357,1,60,2|10
449,326,55027,2,2,B|449:230,1,90,2|6
424,149,55927,6,2,B|368:77|248:29|112:37,1,330,10|10
47,80,58027,2,2,B|119:160|263:184,1,240,10|14
227,299,59827,1,0
136,304,60277,6,2,B|88:264|64:232,1,90,6|2
71,181,61027,1,10
192,208,61627,2,2,B|255:228|320:208,1,120,10|2
344,128,62677,6,2,B|256:128,1,90,6|2
254,68,63427,1,10
134,68,64027,2,2,B|62:92|23:169|46:236,1,210,10|6
128,272,65527,6,0,B|176:296|248:304,1,120,8|8
303,303,66427,1,0
423,303,67027,2,2,B|424:208,1,90
423,92,68077,1,8
304,72,68677,2,2,B|224:88|120:80|40:62,1,240,6|4
56,160,70327,6,0,B|56:224,2,60,10|0|0
112,168,71227,2,0,B|168:200|288:200,1,180,14|0
320,248,72427,2,0,B|280:304,2,60,10|2|2
424,192,73627,2,0,B|488:192,2,60,10|2|2
368,192,74527,1,8
368,128,74827,6,2,B|120:128,1,240,6|10
112,200,76327,2,0,B|112:264,2,60,8|0|8
256,192,77077,12,4,79477
160,192,88027,6,2,B|216:152|304:152|360:192,1,210,6|6
384,280,89527,5,2
384,280,89827,1,10
272,328,90427,2,2,B|176:328,1,90,2|10
120,328,91177,2,6,B|56:328,1,60,6|6
60,238,91927,5,2
60,178,92227,2,0,B|140:178,1,60,2|8
152,232,92827,2,2,B|248:232,1,90,2|10
304,232,93577,1,6
304,232,93877,1,6
304,144,94327,6,0,B|368:144,2,60,2|2|8
248,144,95227,2,2,B|160:144,1,90,2|10
96,144,95977,1,6
96,144,96277,1,6
96,54,96727,5,2
156,54,97027,2,2,B|216:54,1,60,2|10
272,56,97627,2,2,B|384:64|440:184,1,210,6|4
256,112,106027,5,2
256,232,106627,1,2
136,202,107227,6,0,B|136:272,1,60,14|8
136,322,107827,2,2,B|224:322,1,90,14|6
312,320,108727,5,0
312,320,109027,1,8
416,264,109627,2,2,B|416:200|320:144,1,150,2|14
269,149,110677,1,6
176,152,111127,5,0
120,152,111427,2,0,B|120:216,1,60,0|10
120,272,112027,2,0,B|120:312|88:320,2,60,2|8|2
176,272,112927,1,0
176,208,113227,6,2,B|176:80,1,120,6|2
216,48,114127,1,8
264,88,114427,2,2,B|384:88,1,120,2|2
424,128,115327,1,8
408,184,115627,2,4,B|280:184,1,120,4|6
264,240,116527,1,10
264,304,116827,1,2
208,304,117127,2,0,B|144:304,2,60
256,192,117877,12,4,120277
414,55,132277,6,2,B|248:40,1,150,2|10
253,100,133327,1,0
198,124,133627,2,0,B|198:204|278:204,1,120,2|10
329,204,134527,1,0
389,204,134827,2,0,B|389:132,2,60,6|10|10
474,289,136027,2,0,B|474:361,2,60,2|10|10
384,289,137077,6,2,B|232:289,1,150,6|10
128,240,138427,2,0,B|64:240,1,60,2|8
68,180,139027,1,0
68,120,139327,1,2
68,60,139627,2,2,B|156:60,1,90,14|10
308,60,140827,2,0,B|391:60,1,60,6|8
368,120,141427,2,0,B|368:184,2,60,8|8|0
424,120,142327,5,2
424,120,142627,1,2
424,210,143077,6,2,B|407:232|359:272,1,90,6|2
317,230,143827,1,10
232,145,144427,2,0,B|169:125|104:145,1,120,2|10
139,228,145477,6,2,B|227:228,1,90,6|2
254,282,146227,1,10
367,320,146827,2,0,B|439:296|478:219|455:152,1,210,2|4
379,103,148327,6,2,B|331:79|259:71,1,120,2|10
263,131,149227,1,0
203,131,149527,2,0,B|139:131,2,60,2|8|10
203,191,150427,2,2,B|131:191,1,60,6|10
143,251,151027,2,2,B|215:251,1,60,6|10
226,306,151627,2,2,B|294:286|374:286|438:310,1,210,6|4
456,224,153127,6,0,B|456:160,2,60,10|0|10
400,216,154027,2,2,B|344:184|224:184,1,180,6|2
192,136,155227,2,0,B|232:80,2,60,6|2|10
88,192,156427,2,0,B|24:192,2,60,2|2|10
144,192,157327,1,0
144,256,157627,6,2,B|392:256,1,240,6|2
400,184,159127,2,0,B|400:120,2,60,8|0|8
256,192,159877,12,4,162277
88,144,163027,6,2,B|168:144,1,60,2|10
148,204,163627,2,2,B|164:260|228:292,1,120,2|10
320,296,164677,6,2,B|416:296,1,90,6|2
472,296,165427,1,10
472,176,166027,2,0,B|432:160|424:128,1,60,2|8
368,136,166627,2,2,B|264:136,1,90,2|6
192,136,167527,6,0,B|120:136,2,60,10|0|10
192,192,168427,1,0
192,252,168727,2,0,B|232:284|264:284,2,60,10|0|10
136,280,169627,6,2,B|48:208|56:72,1,210,6|6
144,80,171127,2,0,B|216:80,1,60,2|0
264,80,171727,1,10
320,88,172027,6,2,B|392:136|424:240,1,180,6|10
416,288,173227,2,2,B|224:288,1,180,6|10
176,288,174427,2,2,B|80:232|64:128,1,180,6|10
128,128,175627,2,2,B|232:128|336:72,1,210,6|10
352,224,177427,2,0,B|352:296,2,60,10|10|10
352,160,178327,5,8
296,160,178627,1,0
240,160,178927,1,8
256,192,179077,12,4,181477
