osu file format v9

[General]
AudioFilename: Black_RebelPV.mp3
AudioLeadIn: 0
PreviewTime: 60277
Countdown: 0
SampleSet: Normal
StackLeniency: 0.7
Mode: 0
LetterboxInBreaks: 0

[Editor]
Bookmarks: 5217,11217,89067,132342
DistanceSpacing: 1
BeatDivisor: 4
GridSize: 8

[Metadata]
Title:Black Rebel
Artist:Kagamine Rin
Creator:val0108
Version:Hard
Source:MinusP
Tags:ebina Vocaloid Wonderful Opportunity!

[Difficulty]
HPDrainRate:3
CircleSize:3
OverallDifficulty:3
ApproachRate:4
SliderMultiplier:0.9
SliderTickRate:1

[Events]
//Background and Video events
Video,0,"Black_Rebelpv.AVI"
0,0,"BG2.jpg"
//Break Periods
2,19677,20557
2,79677,86707
2,98877,104707
2,120477,130507
//Storyboard Layer 0 (Background)
//Storyboard Layer 1 (Fail)
//Storyboard Layer 2 (Pass)
//Storyboard Layer 3 (Foreground)
//Storyboard Sound Samples
//Background Colour Transformations
3,100,163,162,255

[TimingPoints]
427,300,4,1,1,80,1,0
60277,-100,4,1,1,80,0,1
77077,-100,4,1,1,70,0,0
105942,-133.333333333333,4,2,0,58,0,0
107142,-100,4,1,1,80,0,0
142242,-100,4,2,1,67,0,0
143077,-100,4,1,1,80,0,1
159877,-100,4,1,1,80,0,0
162277,-100,4,1,1,80,0,1
179077,-100,4,1,1,80,0,0

[Colours]
Combo1 : 0,128,0
Combo2 : 157,60,255
Combo3 : 240,0,0

[HitObjects]
88,120,5227,2,2,B|192:120,1,90,2|10
248,176,5827,1,2
200,248,6127,1,8
120,296,6427,2,2,B|120:200,1,90,2|10
88,120,7027,2,2,B|192:120,1,90,2|10
268,120,7627,6,2,B|324:120|364:160,1,90,2|10
351,238,8227,1,2
261,238,8527,1,8
261,328,8827,2,2,B|365:328,1,90,2|10
441,328,9427,2,2,B|441:224,1,90,2|10
440,192,9877,6,0,B|398:186|398:186|340:198|340:198|288:192,1,135,4|8
229,239,10627,2,0,B|180:240,2,45,2|2|10
249,329,11227,2,2,B|209:322|209:322|162:334|162:334|105:329,1,135,2|10
114,238,11977,1,2
114,148,12277,6,2,B|158:140|158:140|211:154|211:154|250:148,1,135,6|10
339,148,13027,2,2,B|339:97,2,45,2|2|10
336,240,13627,2,2,B|373:230|373:230|433:242|433:242|472:240,1,135,2|10
471,149,14377,1,2
471,59,14677,6,2,B|431:54|431:54|373:62|373:62|327:59,1,135,6|10
252,92,15427,2,0,B|260:116|292:124,2,45,2|2|10
224,176,16027,2,2,B|181:172|181:172|132:183|132:183|80:176,1,135,2|10
16,128,16777,1,2
79,64,17077,6,2,B|119:58|119:58|176:66|176:66|223:64,1,135,6|10
304,64,17827,2,0,B|304:16,2,45,2|2|10
394,64,18427,1,2
394,154,18727,2,0,B|330:154,1,45,10|2
259,154,19177,1,2
169,154,19477,1,4
56,120,21877,6,0,B|208:120,1,135,4|10
281,120,22627,1,2
253,205,22927,1,0
208,280,23227,2,0,B|256:280,3,45,2|8|10|2
336,320,23977,2,0,B|379:310|379:310|440:320,1,90,6|14
472,192,24727,5,2
472,104,25027,2,0,B|472:56,2,45,2|2|10
384,112,25627,2,2,B|337:100|295:122|240:112,1,135,2|10
240,200,26377,2,0,B|192:210|192:210|136:200,1,90,6|14
64,96,27127,6,0,B|152:96,1,90,2|2
244,96,27727,1,8
336,96,28027,2,0,B|384:96,3,45,2|0|10|2
456,144,28777,2,0,B|466:191|466:191|456:248,1,90,6|14
344,312,29527,5,10
256,312,29827,2,2,B|209:314|209:314|168:312,1,90,2|10
80,280,30427,1,12
80,280,30727,1,8
160,240,31027,2,2,B|160:144,1,90,10|2
160,105,31477,6,0,B|120:57|72:41,1,90,4|0
45,48,31927,2,0,B|45:136,1,90,10|2
45,228,32527,1,8
45,318,32827,2,0,B|101:318,3,45,2|0|10|2
176,352,33577,2,0,B|223:361|223:361|272:352,1,90,6|14
396,326,34327,5,2
342,252,34627,2,0,B|238:252,1,90,2|10
184,192,35227,2,0,B|128:192,3,45,2|0|10|2
80,128,35977,2,4,B|123:117|123:117|176:128,1,90,6|14
280,48,36727,5,2
368,48,37027,2,0,B|464:48,1,90,2|8
456,136,37627,1,2
456,224,37927,2,0,B|456:272,1,45,10|2
365,269,38377,2,0,B|319:260|319:260|269:269,1,90,6|14
136,272,39127,5,2
192,344,39427,2,0,B|288:344,1,90,0|10
372,344,40027,1,8
372,344,40327,1,8
368,256,40627,2,0,B|424:256,3,45,0|0|0|4
328,152,41527,5,0
240,144,41827,2,0,B|144:144,1,90,0|8
112,224,42427,2,0,B|208:224,1,90,0|8
176,312,43027,2,0,B|128:312,2,45,2|2|8
221,312,43477,6,2,B|259:304|259:304|319:315|319:315|360:312,1,135,6|8
416,248,44227,1,2
352,192,44527,1,8
416,128,44827,2,0,B|376:104|312:96,1,90,2|8
240,96,45427,2,0,B|240:40,2,45,0|2|8
240,144,45877,2,2,B|244:186|244:186|231:242|231:242|240:288,1,135,6|10
160,312,46627,6,0,B|120:288|96:248,1,90,0|10
184,232,47227,2,0,B|224:200|288:208,1,90,0|10
248,296,47827,2,0,B|272:320|288:328,1,45,0|2
368,344,48277,1,0
368,344,48427,2,0,B|380:301|380:301|376:256,3,90,2|8|2|10
424,176,49627,2,8,B|464:144,2,45,10|8|8
392,144,50077,1,0
360,112,50227,2,8,B|320:144,2,45,10|8|8
328,80,50677,6,2,B|285:70|285:70|240:88|240:88|192:80,1,135,6|10
112,112,51427,1,2
40,168,51727,1,8
112,216,52027,2,0,B|208:216,1,90,2|8
208,304,52627,2,0,B|160:304,2,45,0|2|8
208,304,53077,6,2,B|256:294|256:294|298:306|298:306|352:304,1,135,6|10
344,216,53827,2,0,B|432:216,1,90,2|8
432,128,54427,1,2
342,128,54727,1,8
256,128,55027,2,0,B|200:128,3,45,0|0|0|2
200,264,55927,6,0,B|152:280|152:280|112:264,1,90,8|2
46,210,56527,2,0,B|72:168|72:168|118:162,1,90,8|2
200,160,57127,1,8
200,160,57277,2,2,B|304:160,1,90,2|10
380,160,57877,1,0
380,160,58027,2,2,B|380:256,1,90,6|0
380,340,58627,2,2,B|336:352|336:352|284:340,1,90,2|0
208,344,59227,5,0
208,256,59527,1,8
208,168,59827,1,8
208,80,60127,1,8
208,80,60277,6,2,B|251:73|251:73|304:88|304:88|360:80,1,135,6|10
416,128,61027,1,2
376,208,61327,1,8
432,280,61627,2,0,B|472:304,2,45,2|0|8
360,328,62227,2,0,B|328:360,2,45,0|2|8
360,328,62677,6,2,B|288:304|272:264|272:264|232:248,1,135,6|10
163,279,63427,1,2
74,260,63727,1,8
53,172,64027,2,0,B|53:124,2,45,2|0|8
144,184,64627,2,0,B|192:184,2,45,0|2|8
144,184,65077,1,4
144,48,65527,6,0,B|232:48,1,90,10|0
283,123,66127,2,0,B|387:123,1,90,10|0
405,206,66727,2,0,B|309:206,1,90,10|0
264,280,67327,1,8
264,280,67477,6,2,B|168:280,1,90,6|2
174,280,67927,1,0
174,280,68077,2,2,B|72:264,1,90,14|2
85,266,68527,1,0
85,266,68677,2,0,B|48:176,1,90,14|0
50,182,69127,2,0,B|48:80,2,90,0|0|8
50,182,69877,6,2,B|89:178|89:178|116:186|116:186|137:180|137:180|166:190|166:190|192:184,1,135,6|10
184,96,70627,2,0,B|136:96,2,45,2|0|8
184,96,71077,2,2,B|212:91|212:91|242:97|242:97|267:88|267:88|289:98|289:98|320:96,1,135,6|10
384,160,71827,2,0,B|440:160,2,45,2|0|8
384,160,72277,2,2,B|392:192|392:192|384:216|384:216|392:248|392:248|384:272|384:272|392:304,1,135,6|10
296,296,73027,2,0,B|248:296,2,45,2|0|8
296,296,73477,2,2,B|301:256|301:256|294:226|294:226|300:203|300:203|296:144,1,135,6|10
208,160,74227,6,8,B|162:149|162:149|104:160,1,90,10|8
119,157,74677,2,2,B|137:285|265:341|385:285|401:157,1,405,6|2
400,88,76327,1,8
310,88,76627,1,0
220,88,76927,1,8
256,192,77077,12,4,79477
240,152,88027,6,0,B|336:152,1,90,10|8
352,240,88627,2,2,B|216:240,1,135,10|6
80,248,89527,6,0,B|80:152,1,90,10|2
80,72,90127,1,8
168,72,90427,2,0,B|216:72,3,45,2|0|10|2
304,72,91177,2,0,B|352:80|352:80|392:120,1,90,6|14
384,248,91927,5,2
320,312,92227,2,2,B|224:304,1,90,2|10
152,256,92827,2,0,B|96:256,3,45,2|0|10|2
80,168,93577,1,6
80,168,93877,1,14
216,168,94327,6,0,B|312:168,1,90,10|2
396,168,94927,1,8
348,91,95227,1,2
258,91,95527,2,0,B|210:91,1,45,2|2
123,91,95977,2,0,B|117:137|117:137|123:195,1,90,6|14
123,316,96727,5,2
212,316,97027,2,0,B|308:316,1,90,2|10
365,252,97627,1,12
365,252,97927,1,8
336,168,98227,2,8,B|400:168,2,45
288,168,98677,1,4
216,120,106027,6,0,B|216:192,1,67.4999979883433,0|2
296,248,106627,2,0,B|296:168,1,67.4999979883433,0|2
296,88,107227,6,0,B|400:88,1,90,6|8
386,178,107827,2,2,B|388:210|388:210|360:256|386:322,1,135,6|6
248,312,108727,5,8
158,312,109027,1,2
68,312,109327,1,8
34,228,109627,2,0,B|47:178|47:178|74:148,1,90,2|8
160,176,110227,2,0,B|208:176,2,45,0|2|8
160,176,110677,6,2,B|172:131|172:131|194:99|194:99|216:48,1,135,6|10
296,96,111427,1,2
376,56,111727,1,8
448,112,112027,2,0,B|480:144,2,45,2|0|8
408,192,112627,2,0,B|408:248,2,45,0|2|8
408,192,113077,6,2,B|373:183|373:183|325:196|325:196|272:192,1,135,6|10
185,192,113827,1,2
231,269,114127,1,8
320,280,114427,2,0,B|363:268|363:268|430:280,1,90,2|0
376,360,115027,2,0,B|432:360,2,45,0|2|8
376,360,115477,6,2,B|334:353|334:353|283:365|283:365|232:360,1,135,6|10
160,320,116227,1,0
96,256,116527,1,8
96,166,116827,1,0
159,102,117127,1,8
249,102,117427,2,0,B|353:102,1,90,0|8
256,192,117877,12,4,120277
256,192,131827,6,8,B|256:256,2,45,8|0|8
256,192,132277,6,2,B|259:150|259:150|246:107|246:107|256:56,1,135,6|10
165,57,133027,1,2
75,57,133327,1,8
72,144,133627,2,0,B|72:240,1,90,2|8
72,328,134227,2,0,B|16:328,2,45,0|2|8
72,328,134677,6,2,B|108:322|108:322|160:334|160:334|208:328,1,135,6|10
207,237,135427,1,2
297,237,135727,1,8
297,327,136027,2,0,B|332:332|332:332|360:324|360:324|393:327,1,90,2|8
448,256,136627,2,0,B|464:304,2,45,0|2|8
448,256,137077,6,2,B|452:218|452:218|442:175|442:175|448:120,1,135,6|10
376,64,137827,1,2
288,64,138127,1,8
288,152,138427,2,0,B|246:156|246:156|200:152,1,90,2|8
144,80,139027,2,0,B|192:64,2,45,0|2|8
144,80,139477,6,2,B|80:128|88:200,1,135,6|10
88,240,140077,2,2,B|96:320|152:368,1,135,6|10
232,344,140827,1,0
280,264,141127,1,8
216,200,141427,1,0
264,120,141727,1,8
264,120,141877,1,0
376,48,142327,5,2
376,48,142627,1,2
376,184,143077,6,2,B|339:178|339:178|279:189|279:189|224:184,1,135,6|10
176,248,143827,1,2
104,192,144127,1,8
80,104,144427,2,0,B|40:80,2,45,2|0|8
154,52,145027,2,0,B|186:20,2,45,0|2|8
154,52,145477,6,2,B|168:88|168:88|208:120|272:120,1,135,6|10
347,119,146227,1,2
437,119,146527,1,8
454,207,146827,2,0,B|454:255,2,45,2|0|8
362,197,147427,2,0,B|314:197,2,45,0|2|8
362,197,147877,1,4
368,336,148327,6,0,B|327:344|327:344|280:336,1,90,8|2
229,260,148927,2,0,B|183:246|183:246|125:260,1,90,8|2
104,173,149527,2,0,B|144:165|144:165|200:173,1,90,8|2
248,104,150127,1,8
248,104,150277,6,2,B|344:104,1,90,6|2
338,104,150727,1,0
338,104,150877,2,2,B|440:120,1,90,14|2
427,118,151327,1,0
427,118,151477,2,0,B|464:208,1,90,14|0
462,202,151927,2,0,B|464:304,2,90,0|0|8
462,202,152677,6,2,B|428:197|428:197|400:200|400:200|370:194|370:194|320:200,1,135,6|10
328,288,153427,2,0,B|376:288,2,45,2|0|8
328,288,153877,2,2,B|291:281|291:281|263:292|263:292|238:284|238:284|192:288,1,135,6|10
128,224,154627,2,0,B|72:224,2,45,2|2|8
128,224,155077,2,2,B|136:192|136:192|120:160|120:160|136:112|136:112|128:88,1,135,6|10
216,88,155827,2,0,B|264:88,2,45,2|0|8
216,88,156277,2,2,B|219:129|219:129|210:150|210:150|223:188|223:188|216:240,1,135,6|10
304,224,157027,6,0,B|408:224,1,90,2|8
394,224,157477,2,2,B|376:96|248:40|128:96|112:224,1,405,6|2
112,296,159127,1,8
202,296,159427,1,0
292,296,159727,1,8
336,296,159877,6,0,B|336:184|259:157|259:157|240:160|240:160|234:140|234:140|208:104,1,225
160,48,160927,1,0
160,48,161077,2,0,B|264:48|303:115|303:115|320:128|320:128|324:111|324:111|360:112,1,225
256,192,162277,6,2,B|219:185|219:185|155:196|155:196|120:192,1,135,6|10
40,152,163027,2,0,B|40:256,1,90,2|8
40,332,163627,1,2
40,332,163927,1,8
128,312,164227,2,0,B|128:360,2,45,0|2|8
128,312,164677,6,2,B|171:306|171:306|225:316|225:316|272:312,1,135,6|10
264,224,165427,1,2
320,152,165727,1,8
352,240,166027,2,0,B|408:224|424:168,1,90,2|8
418,93,166627,2,0,B|418:45,2,45,0|2|8
418,93,167077,1,4
289,52,167527,6,0,B|265:84|201:100,1,90,8|2
144,152,168127,2,0,B|96:146|96:146|48:152,1,90,8|2
56,240,168727,2,0,B|100:245|100:245|152:240,1,90,8|2
216,296,169327,1,8
216,296,169477,6,2,B|312:296,1,90,6|2
360,224,170077,2,0,B|464:224,2,90,6|0|6
304,152,170977,1,0
289,109,171127,2,0,B|288:16,2,90,8|0|0
243,109,171877,6,2,B|209:103|209:103|178:108|178:108|143:101|143:101|91:109,1,135,6|10
56,184,172627,2,0,B|56:240,2,45,2|0|8
56,184,173077,2,2,B|97:179|97:179|118:185|118:185|145:178|145:178|208:184,1,135,6|10
256,240,173827,2,0,B|256:296,2,45,2|0|8
256,240,174277,2,2,B|299:233|299:233|328:240|328:240|351:233|351:233|408:240,1,135,6|10
392,328,175027,2,0,B|448:328,2,45,2|0|8
392,328,175477,2,2,B|397:281|397:281|393:262|393:262|400:240|400:240|392:176,1,135,6|10
469,147,176227,1,2
392,102,176527,1,8
392,102,176677,6,2,B|336:240|160:-16|16:104,1,405,6|2
96,160,178327,2,0,B|72:208|32:232,2,90,8|0|8
256,192,179077,12,4,181477
