osu file format v9

[General]
AudioFilename: Black_RebelPV.mp3
AudioLeadIn: 0
PreviewTime: 60277
Countdown: 0
SampleSet: Normal
StackLeniency: 0.7
Mode: 0
LetterboxInBreaks: 0

[Editor]
Bookmarks: 11217,89067,132342
DistanceSpacing: 1
BeatDivisor: 4
GridSize: 8

[Metadata]
Title:Black Rebel
Artist:Kagamine Rin
Creator:val0108
Version:0108 Rebel
Source:MinusP
Tags:ebina Vocalod Wonderful Opportunity!

[Difficulty]
HPDrainRate:6
CircleSize:4
OverallDifficulty:8
ApproachRate:9
SliderMultiplier:2
SliderTickRate:1

[Events]
//Background and Video events
Video,0,"Black_Rebelpv.AVI"
0,0,"BG2.jpg"
//Break Periods
2,79677,87427
2,98877,105427
2,120477,131227
//Storyboard Layer 0 (Background)
//Storyboard Layer 1 (Fail)
//Storyboard Layer 2 (Pass)
//Storyboard Layer 3 (Foreground)
//Storyboard Sound Samples
//Background Colour Transformations
3,100,163,162,255

[TimingPoints]
427,300,4,1,1,80,1,0
21502,-100,4,2,1,0,0,0
21652,-100,4,1,1,80,0,0
60277,-100,4,1,1,80,0,1
77077,-100,4,1,1,80,0,0
78127,-100,4,1,1,5,0,0
78277,-100,4,1,1,80,0,0
105942,-133.333333333333,4,2,1,58,0,0
107142,-100,4,1,1,80,0,0
142242,-100,4,2,1,67,0,0
143077,-100,4,1,1,80,0,1
159877,-100,4,1,1,80,0,0
162277,-100,4,1,1,80,0,1
179077,-100,4,1,1,80,0,0

[Colours]
Combo1 : 0,128,0
Combo2 : 157,60,255
Combo3 : 240,0,0

[HitObjects]
256,76,5227,1,2
256,76,5377,1,2
256,176,5527,2,0,B|256:280,1,100,8|0
156,276,5827,1,0
208,360,5977,1,0
308,360,6127,1,8
359,274,6277,1,0
256,276,6427,6,2,B|256:64,1,200,2|10
160,96,6877,2,0,B|136:128|136:128|104:128|104:128|80:160,1,100,2|0
80,56,7177,1,2
152,192,7327,1,10
264,96,7477,1,2
320,232,7627,5,4
320,232,7777,1,0
448,96,7927,2,2,B|448:136|424:168|384:192,1,100,10|2
451,373,8227,2,0,B|451:333|427:301|387:277,1,100,0|2
336,160,8527,1,8
336,312,8677,1,0
256,248,8827,5,2
160,272,8977,1,0
80,328,9127,1,8
224,288,9277,5,2
152,216,9427,1,0
96,136,9577,1,2
112,232,9727,5,8
160,144,9877,2,2,B|376:144,1,200,6|2
456,144,10327,1,10
456,144,10477,1,0
384,72,10627,5,2
344,216,10777,1,0
264,72,10927,1,8
224,216,11077,1,0
120,72,11227,5,2
160,216,11377,1,0
240,72,11527,1,10
280,216,11677,1,2
328,72,11827,5,0
376,160,11977,1,10
408,200,12052,1,0
416,248,12127,1,8
432,296,12202,1,0
432,346,12277,2,2,B|232:346,1,200,6|2
320,272,12727,6,0,B|328:224|328:224|352:216|376:192,1,100,10|0
192,272,13027,2,0,B|184:224|184:224|160:216|136:192,1,100,2|2
256,72,13327,2,0,B|266:107|266:107|247:139|247:139|256:172,1,100,10|0
208,0,13627,5,2
308,0,13777,1,0
168,96,13927,1,10
344,96,14077,1,2
208,192,14227,1,0
304,192,14377,1,2
256,280,14527,1,8
0,104,14677,6,2,B|200:104,1,200,6|2
356,192,15127,2,0,B|252:192,1,100,10|0
128,272,15427,1,2
224,272,15577,1,2
360,336,15727,1,8
264,336,15877,1,0
400,264,16027,6,0,B|456:264|456:264|512:232,2,100,2|0|8
304,224,16477,1,2
224,168,16627,1,0
232,264,16777,1,10
280,272,16852,1,0
328,264,16927,1,8
352,220,17002,1,0
360,168,17077,6,2,B|160:168,1,200,14|2
256,56,17527,1,10
256,56,17677,1,0
256,156,17827,2,2,B|256:292,1,100,2|2
207,343,18127,1,8
307,343,18277,1,0
192,248,18427,5,2
320,176,18577,1,0
192,96,18727,1,10
328,40,18877,2,0,B|297:80|297:80|248:120,1,100,2|0
192,304,19177,2,0,B|233:268|233:268|272:224,1,100,2|8
256,192,19477,12,0,21577
360,120,21877,6,0,B|328:64|328:64|264:24|168:56,1,200,4|0
97,27,22327,1,10
97,27,22477,1,0
80,128,22627,2,0,B|64:176|64:176|80:240,1,100,2|0
224,360,22927,2,0,B|240:312|240:312|216:264,1,100,8|0
168,184,23227,1,2
272,72,23377,1,0
300,219,23527,1,10
408,112,23677,1,10
408,112,23752,1,0
408,112,23827,1,8
408,112,23902,1,0
408,112,23977,6,10,B|411:148|411:148|404:189|404:189|408:224,1,100,14|0
472,384,24277,2,2,B|477:317|477:317|464:232|464:232|472:160,1,200,6|2
472,84,24727,1,10
472,84,24877,1,0
400,152,25027,1,2
368,248,25177,1,2
356,296,25252,1,0
328,336,25327,2,0,B|293:295|293:295|264:240,1,100,10|0
201,182,25627,5,2
201,334,25777,1,0
125,204,25927,1,10
125,354,26077,1,10
125,354,26152,1,0
125,354,26227,1,8
125,354,26302,1,0
125,354,26377,6,2,B|131:314|131:314|120:275|120:275|125:222,1,100,14|0
48,72,26677,2,6,B|54:129|54:129|37:232|37:232|48:288,1,200,6|2
48,72,27127,2,0,B|72:24|72:24|128:0,1,100,10|0
160,128,27427,2,0,B|272:128,1,100,2|0
352,256,27727,2,0,B|240:256,1,100,8|0
408,360,28027,2,2,B|451:342|451:342|475:294,1,100,2|0
446,198,28327,1,10
296,184,28477,1,10
296,184,28552,1,0
296,184,28627,1,8
296,184,28702,1,0
296,184,28777,6,2,B|264:181|264:181|230:188|230:188|188:184,1,100,14|0
32,120,29077,2,2,B|85:110|85:110|175:126|175:126|232:120,1,200,6|2
256,306,29527,5,10
256,306,29677,1,0
179,179,29827,1,2
329,179,29977,1,2
255,48,30127,2,0,B|255:152,1,100,10|0
152,320,30427,6,0,B|173:296|173:296|216:280|224:240,1,100,6|0
360,320,30727,2,0,B|336:299|336:299|296:279|288:240,1,100,8|0
168,160,31027,1,10
256,40,31177,1,8
344,160,31327,1,8
256,272,31477,6,0,B|464:272,1,200,4|0
392,200,31927,2,0,B|312:112,1,100,10|0
256,200,32227,2,0,B|192:122,1,100,2|0
104,176,32527,1,8
104,176,32677,1,0
75,323,32827,5,2
160,200,32977,1,0
272,301,33127,1,10
248,152,33277,1,10
248,152,33352,1,0
248,152,33427,1,8
248,152,33502,1,0
248,152,33577,6,0,B|277:155|277:155|320:144|320:144|360:152,1,100,14|0
510,74,33877,2,2,B|468:67|468:67|367:81|367:81|302:74,1,200,6|2
180,225,34327,2,0,B|248:152,1,100,10|0
48,272,34627,1,2
160,128,34777,1,2
13,178,34927,2,2,B|80:104,1,100,10|0
112,200,35227,5,2
216,56,35377,1,0
288,224,35527,1,10
384,72,35677,1,10
384,72,35752,1,0
384,72,35827,1,8
384,72,35902,1,0
384,72,35977,6,2,B|391:114|391:114|373:140|373:140|384:184,1,100,14|0
448,336,36277,2,2,B|454:281|454:281|441:195|441:195|448:120,1,200,6|2
384,280,36727,2,0,B|320:200,1,100,10|0
264,288,37027,2,0,B|200:208,1,100,2|0
104,216,37327,1,8
104,216,37477,1,0
192,312,37627,5,2
336,344,37777,1,0
376,200,37927,1,10
232,168,38077,1,10
232,168,38152,1,0
232,168,38227,1,8
232,168,38302,1,0
232,168,38377,2,0,B|202:137|202:137|174:129|144:96,1,100,14|0
256,192,38677,12,4,41077
440,144,41377,5,0
360,88,41527,2,0,B|320:48|320:48|264:48,1,100,8|0
280,144,41827,2,0,B|264:216|264:216|288:272|344:288|384:248,1,200,0|8
360,160,42277,1,0
442,211,42427,2,0,B|413:253|413:253|338:267,1,100
144,224,42727,2,0,B|176:184|176:184|248:160,1,100,8|0
280,248,43027,1,0
248,344,43177,2,2,B|192:336|192:336|168:280,1,100,2|8
248,344,43477,6,2,B|464:344,1,200,6|2
440,248,43927,1,8
440,148,44077,1,0
392,64,44227,1,0
320,136,44377,1,0
270,136,44452,1,0
224,136,44527,1,8
128,136,44677,1,0
56,256,44827,6,0,B|64:320|64:320|48:368,2,100,0|0|10
152,288,45277,1,0
272,192,45427,1,0
120,176,45577,1,2
232,72,45727,1,10
80,72,45877,6,2,B|115:67|115:67|151:75|151:75|191:65|191:65|241:76|241:76|304:72,1,200,6|0
360,136,46327,2,0,B|248:136,1,100,8|0
184,200,46627,2,0,B|224:256|272:264,1,100
357,277,46927,2,0,B|309:253|260:261,1,100,8|0
169,301,47227,2,0,B|207:294|260:260,1,100
340,202,47527,2,0,B|295:222|260:260,1,100,8|0
238,366,47827,1,0
336,352,47977,1,10
336,352,48277,5,0
336,352,48352,1,0
336,352,48427,2,0,B|416:336|448:272|448:272|448:192,1,200,4|8
400,120,48877,1,0
312,80,49027,2,0,B|272:40|224:8,1,100
224,120,49327,2,0,B|184:80|136:48,1,100,8|0
96,144,49627,6,0,B|80:216|136:232|144:304|224:296,1,200,6|8
256,216,50077,1,0
416,144,50227,2,0,B|432:216|376:224|368:304|288:296,1,200,6|8
256,216,50677,2,2,B|256:88,1,100,6|0
312,32,50977,5,0
192,160,51127,1,8
192,72,51277,1,0
312,208,51427,1,0
312,120,51577,1,0
192,256,51727,1,8
192,160,51877,1,0
312,288,52027,1,0
256,368,52177,5,0
128,296,52327,1,8
256,216,52477,1,2
128,144,52627,1,2
264,80,52777,2,2,B|192:72|129:90|64:80,1,200,6|6
408,312,53377,6,0,B|352:288|352:288|328:216,2,100,0|8|0
408,216,53827,1,0
264,264,53977,1,0
328,128,54127,1,8
184,168,54277,1,0
200,64,54427,6,0,B|230:96|230:96|231:120|231:120|272:168,2,100,2|2|10
288,48,54877,1,0
384,80,55027,1,0
448,152,55177,1,10
464,200,55252,1,0
448,248,55327,1,8
464,296,55402,1,0
456,344,55477,2,0,B|344:344,2,100,14|0|0
128,112,55927,6,0,B|240:112,1,100,10|0
376,112,56227,2,0,B|256:112,1,100,2|0
64,176,56527,2,0,B|176:176,1,100,10|0
448,176,56827,2,0,B|336:176,1,100,2|0
256,296,57127,1,8
256,144,57277,2,0,B|256:256,2,100,2|0|10
488,208,57877,5,0
488,208,58027,2,2,B|416:160|424:80|424:80|336:48,1,200,6|8
352,160,58477,1,0
320,256,58627,2,2,B|278:289|222:265|214:225|214:225|214:153,1,200,6|8
216,56,59077,1,0
256,192,59227,12,0,60127
64,40,60277,6,2,B|104:112|64:160|64:160|48:176|48:176|64:192|64:192|64:240,1,200,6|2
240,304,60727,1,8
144,336,60877,1,0
48,320,61027,1,0
128,256,61177,1,0
168,224,61252,1,0
200,184,61327,1,8
229,87,61477,1,0
304,152,61627,6,0,B|352:168|352:168|384:224,2,100,2|0|8
248,232,62077,1,2
152,120,62227,1,2
296,80,62377,2,0,B|344:64|344:64|376:0,1,100,2|8
448,40,62677,6,2,B|408:112|448:160|448:160|464:176|464:176|448:192|448:192|448:240,1,200,6|2
424,320,63127,1,8
328,360,63277,1,0
240,312,63427,1,0
336,280,63577,1,0
296,248,63652,1,0
248,240,63727,1,8
152,272,63877,1,0
112,176,64027,6,0,B|152:216|152:216|216:216,1,100,2|0
120,88,64327,2,0,B|16:88,2,100,10|0|2
420,88,64777,2,2,B|220:88,1,200
184,123,65152,1,0
148,158,65227,1,0
123,201,65302,1,0
105,247,65377,1,0
114,296,65452,1,0
149,331,65527,6,0,B|197:299|213:251,1,100,4|0
362,329,65827,2,0,B|314:297|298:249,1,100
88,192,66127,2,0,B|208:192,1,100,8|0
424,192,66427,2,0,B|304:192,1,100
176,104,66727,2,0,B|203:65|256:48|256:48|304:64|352:120,2,200,8|0|8
256,160,67477,2,2,B|256:280,1,100,2|2
344,304,67777,5,0
256,352,67927,1,8
168,304,68077,1,6
304,248,68227,5,0
200,360,68377,1,2
80,264,68527,1,8
72,112,68677,2,2,B|57:55|57:55|59:-1,1,100,6|2
160,24,68977,1,0
184,120,69127,2,2,B|208:72|256:48|256:48|312:80|328:128,1,200,10|2
345,135,69502,1,0
362,152,69577,1,0
379,169,69652,1,8
389,191,69727,1,8
400,213,69802,1,8
408,236,69877,6,2,B|320:232|272:312|272:312|224:284,1,200,6|2
48,336,70327,2,0,B|112:312|112:312|128:264,1,100,10|0
120,184,70627,1,2
128,136,70702,1,0
104,88,70777,1,0
64,64,70852,1,8
32,96,70927,1,8
8,144,71002,1,8
16,192,71077,6,2,B|48:200|48:200|80:224|80:224|120:224|120:224|152:240|152:240|192:240|192:240|224:256,1,200,6|2
280,120,71527,2,0,B|336:120|336:120|352:104|336:64,1,100,8|0
432,40,71827,1,2
448,88,71902,1,0
432,136,71977,1,8
448,184,72052,1,8
432,232,72127,1,8
368,320,72277,6,2,B|312:352|312:352|304:272|304:272|224:216,1,200,6|2
188,169,72727,1,10
176,272,72877,1,0
152,368,73027,1,0
128,320,73102,1,0
88,288,73177,1,8
72,240,73252,1,8
40,200,73327,1,8
72,104,73477,6,2,B|54:68|54:68|162:15|162:15|179:51,1,200,6|2
216,143,73927,2,0,B|240:191|296:191,1,100,10|0
399,188,74227,1,2
447,204,74302,1,0
487,236,74377,1,8
447,268,74452,1,8
407,292,74527,1,8
256,192,74677,12,4,76027
176,280,76327,6,0,B|216:344|304:344|344:272,2,200,8|0|8
256,208,77077,1,4
256,192,77227,12,0,78202
256,192,78277,12,4,79477
120,96,88027,6,0,B|160:48|160:48|188:58|216:48,1,100,10|0
392,96,88327,2,0,B|352:48|352:48|324:56|296:48,1,100,8|0
256,128,88627,1,10
256,178,88702,1,0
256,228,88777,1,8
256,278,88852,1,0
256,328,88927,1,8
352,168,89077,6,0,B|152:168,1,200,4|0
64,128,89527,2,0,B|80:80|80:80|128:32,1,100,2|0
200,96,89827,2,0,B|224:48|224:48|272:8,1,100,2|0
352,48,90127,1,0
352,48,90277,1,0
424,128,90427,5,2
384,272,90577,1,0
240,312,90727,1,2
352,216,90877,1,10
352,216,90952,1,0
352,216,91027,1,8
352,216,91102,1,0
352,216,91177,6,2,B|312:256|312:256|264:256,1,100,6|0
88,256,91477,2,2,B|152:184|152:184|280:184,1,200,14|0
192,264,91927,1,10
80,168,92077,1,0
216,104,92227,1,2
352,40,92377,1,2
392,64,92452,1,0
416,104,92527,2,0,B|371:119|371:119|316:104,1,100,10|0
176,112,92827,6,2,B|163:169|168:216,1,100,2|0
328,296,93127,2,2,B|345:246|336:192,1,100,10|8
336,197,93352,1,0
336,197,93427,1,8
336,197,93502,1,0
336,197,93577,6,2,B|291:156|291:156|235:156,1,100,6|8
72,152,93877,2,2,B|144:232|144:232|256:232,1,200,6|0
176,152,94327,2,0,B|128:96|128:96|128:48,1,100,10|0
176,304,94627,2,0,B|136:352|136:352|136:400,1,100,2|0
136,389,94852,1,0
136,389,94927,1,8
64,328,95077,1,0
56,232,95227,5,2
152,120,95377,1,0
272,216,95527,1,10
376,104,95677,1,10
376,104,95752,1,8
376,104,95827,1,8
376,104,95902,1,8
376,104,95977,6,2,B|416:136|416:136|416:184,1,100,6|0
416,364,96277,2,2,B|344:316|344:316|344:180,1,200,6|0
248,352,96727,2,2,B|272:304|272:304|272:256,1,100,10|0
272,160,97027,1,2
184,208,97177,1,0
184,208,97252,1,0
184,208,97327,2,2,B|112:288,1,100,10|0
224,80,97627,6,0,B|288:80|336:24,2,100,2|0|8
80,192,98077,1,0
223,297,98227,2,0,B|192:344|137:337,2,100,2|0|8
376,192,98677,1,4
96,120,106027,6,0,B|96:64|152:64|152:64|216:112,1,149.999995529652,0|2
416,264,106627,2,0,B|408:312|360:320|360:320|296:272,1,149.999995529652,0|2
256,192,107227,5,10
160,192,107377,2,0,B|48:192,2,100,0|0|8
256,192,107827,1,10
306,192,107902,1,8
352,192,107977,1,8
392,216,108052,1,8
392,264,108127,1,8
352,288,108202,1,8
304,288,108277,6,0,B|96:288,1,200,4|0
56,200,108727,1,8
16,104,108877,1,0
96,40,109027,1,0
152,120,109177,1,0
152,120,109252,1,0
152,120,109327,1,8
248,136,109477,1,0
248,40,109627,2,0,B|360:32,1,100,2|0
504,160,109927,2,0,B|392:168,1,100,10|0
376,264,110227,1,0
352,168,110377,6,2,B|341:144|341:144|311:121|311:121|288:88,1,100,6|8
120,152,110677,2,2,B|162:192|162:192|189:270|189:270|256:328,1,200,6|2
336,272,111127,1,8
264,200,111277,1,0
208,120,111427,1,0
304,128,111577,1,0
264,152,111652,1,0
224,176,111727,1,8
152,248,111877,1,0
184,344,112027,1,2
284,344,112177,6,0,B|388:344,2,100,0|8|2
184,344,112627,1,0
224,256,112777,2,2,B|257:249|257:249|300:263|300:263|336:256,1,100,6|8
240,96,113077,2,2,B|193:85|193:85|95:103|95:103|32:96,1,200,6|2
104,168,113527,1,8
56,256,113677,1,0
8,168,113827,1,0
152,248,113977,5,0
200,248,114052,1,0
248,248,114127,1,8
232,152,114277,1,0
318,195,114427,2,0,B|414:251,2,100,2|0|8
318,195,114877,1,2
208,304,115027,1,0
99,201,115177,1,6
208,96,115327,1,8
344,32,115477,6,2,B|392:56|392:56|416:104|416:104|456:144|456:144|472:200,1,200,6|2
336,112,115927,2,0,B|240:144,1,100,10|0
176,272,116227,2,0,B|272:240,1,100,2|0
184,112,116527,2,0,B|89:80,1,100,10|0
328,272,116827,2,0,B|422:303,1,100,2|0
256,304,117127,6,0,B|256:192,1,100,10|0
304,112,117427,1,8
304,64,117502,1,8
256,48,117577,1,8
208,64,117652,1,8
208,112,117727,1,8
256,192,117877,12,4,120277
256,56,131827,5,8
256,152,131977,1,8
256,248,132127,1,8
256,344,132277,1,8
176,200,132427,5,6
176,200,132577,1,2
88,248,132727,2,0,B|88:128,1,100,8|0
136,64,133027,2,0,B|184:40|232:32,1,100
280,48,133252,1,0
320,72,133327,1,8
390,142,133477,1,0
456,216,133627,2,0,B|424:272|424:272|352:272,2,100,2|0|8
376,160,134077,2,0,B|272:160,1,100,2|0
104,208,134377,6,2,B|224:208,1,100,6|0
368,280,134677,2,2,B|160:280,1,200,6|2
118,280,135052,1,0
68,280,135127,2,0,B|28:232|28:176,1,100,10|0
160,32,135427,2,0,B|192:72|208:136,1,100
288,304,135727,2,0,B|312:240|312:192,1,100,8|0
256,20,136027,6,0,B|256:140,1,100,2|0
256,372,136327,2,0,B|256:252,1,100,8|2
256,121,136627,1,8
256,271,136777,1,10
256,121,136927,1,8
256,271,137077,6,2,B|55:271,1,200,6|2
56,171,137527,2,0,B|160:171,1,100,8|0
256,171,137827,1,0
328,240,137977,1,0
368,272,138052,1,0
408,304,138127,1,8
502,270,138277,1,0
464,176,138427,6,0,B|376:104,1,100,2|0
351,77,138652,1,0
304,56,138727,1,8
204,62,138877,1,2
140,197,139027,1,0
272,272,139177,1,2
272,120,139327,1,0
140,197,139477,6,2,B|340:197,1,200,6|2
440,197,139927,1,0
440,197,140077,2,2,B|440:261|440:261|408:341|304:309,1,200
329,315,140452,1,0
329,315,140527,1,0
232,320,140677,1,0
72,264,140827,5,2
136,128,140977,1,0
227,252,141127,1,2
280,112,141277,1,0
400,240,141427,5,0
400,240,141502,1,0
400,240,141577,1,0
400,240,141652,1,0
400,240,141727,1,8
400,240,141802,1,8
400,240,141877,1,8
408,48,142327,5,2
408,48,142627,1,2
64,344,143077,6,2,B|104:280|64:224|64:224|48:208|48:208|64:192|64:192|64:144,1,200,6|2
240,128,143527,1,8
160,64,143677,1,0
64,48,143827,1,0
112,136,143977,1,0
120,184,144052,1,0
152,224,144127,1,8
208,304,144277,1,0
304,232,144427,5,2
352,88,144577,1,8
392,232,144727,1,0
272,136,144877,1,2
168,248,145027,1,2
256,336,145177,1,2
306,336,145252,1,0
356,336,145327,1,0
416,336,145402,1,0
464,336,145477,6,2,B|416:264|464:216|464:216|480:200|480:200|464:184|464:184|464:136,1,200,6|2
424,56,145927,1,8
328,24,146077,1,0
240,72,146227,1,0
72,48,146377,1,0
104,88,146452,1,0
152,104,146527,1,8
296,144,146677,1,0
149,191,146827,6,0,B|105:191|105:191|65:231,1,100,2|0
176,336,147127,2,0,B|72:336,2,100,8|2|0
446,265,147577,2,2,B|246:265,1,200
196,265,147952,1,0
151,242,148027,1,0
124,199,148102,1,0
135,150,148177,1,8
170,114,148252,1,0
214,91,148327,6,0,B|214:195,1,100,4|0
298,293,148627,2,0,B|298:189,1,100
125,16,148927,2,0,B|208:72,1,100,8|0
386,369,149227,2,0,B|304:312,1,100
304,72,149527,2,0,B|386:16,1,100,8|0
207,313,149827,2,0,B|125:369,2,100,0|0|8
312,192,150277,2,2,B|440:192,1,100,2|0
328,80,150577,5,0
256,147,150727,1,8
168,186,150877,1,6
271,39,151027,5,0
232,184,151177,1,2
112,94,151327,1,8
16,208,151477,2,2,B|48:248|48:248|88:280,1,100,6|0
128,184,151777,1,0
184,264,151927,2,2,B|184:299|208:320|256:320|256:320|304:320|328:288|328:264,1,200,10|2
339,244,152302,1,0
350,222,152377,1,0
362,200,152452,1,0
375,179,152527,1,8
392,161,152602,1,0
404,139,152677,6,2,B|312:128|312:128|256:72|256:72|220:91,1,200,6|2
142,47,153127,2,0,B|97:53|78:71|78:71|88:128,1,100,10|0
136,192,153427,1,2
160,240,153502,1,0
144,288,153577,1,0
96,304,153652,1,0
56,280,153727,1,8
24,240,153802,1,0
16,192,153877,6,2,B|72:200|72:200|176:184|176:184|224:192,1,200,6|2
280,264,154327,2,2,B|336:264|336:264|343:291|336:320,1,100,10|0
416,368,154627,1,2
432,320,154702,1,0
408,272,154777,1,8
424,224,154852,1,0
408,176,154927,1,8
424,128,155002,1,0
401,83,155077,6,2,B|377:35|377:35|336:136|264:128,1,200,6|2
221,212,155527,1,10
219,110,155677,1,0
219,9,155827,1,2
171,9,155902,1,0
125,29,155977,1,8
83,57,156052,1,0
47,92,156127,1,8
33,140,156202,1,0
33,190,156277,6,2,B|73:278|153:206|193:310,1,200,6|2
297,308,156727,2,2,B|321:260|385:244,1,100,10|0
473,247,157027,1,2
458,199,157102,1,0
434,154,157177,1,8
389,130,157252,1,0
340,116,157327,1,8
256,192,157477,12,4,158827
184,88,159127,6,0,B|192:56|192:56|256:24|320:56|320:56|328:96,2,200,8|0|8
256,152,159877,1,4
256,192,159952,12,0,162127
64,64,162277,6,2,B|105:57|105:57|210:70|210:70|288:64,1,200,6|2
440,160,162727,2,0,B|398:155|398:155|369:166|369:166|320:160,1,100,10|0
247,196,163027,1,0
144,208,163177,1,2
144,208,163252,1,0
144,208,163327,1,8
48,176,163477,1,0
75,294,163627,6,0,B|59:342|39:351|39:351|3:374,1,100,2|0
136,288,163927,2,2,B|160:320|180:338|180:338|224:352,1,100,10|2
192,200,164227,1,2
232,168,164302,1,0
280,160,164377,1,2
328,176,164452,1,0
360,216,164527,1,8
384,256,164602,1,0
384,306,164677,6,2,B|304:114,1,200,6|2
240,40,165127,1,8
192,128,165277,1,0
136,40,165427,1,2
104,136,165577,1,0
120,184,165652,1,0
144,232,165727,1,8
240,256,165877,1,0
256,152,166027,6,0,B|288:104|344:80,1,100,2|0
456,216,166327,2,0,B|432:264|368:296,2,100,10|0|2
416,120,166777,1,0
380,155,166852,1,0
344,190,166927,1,8
308,225,167002,1,0
272,260,167077,2,0,B|224:288|160:288,2,100,6|0|0
56,32,167527,6,0,B|52:78|80:104|80:104|80:136,1,100,10|0
456,32,167827,2,0,B|464:80|432:104|432:104|432:136,1,100,2|0
128,216,168127,2,0,B|160:264|160:264|208:264,1,100,10|0
384,216,168427,2,0,B|352:264|352:264|304:264,1,100,2|0
176,144,168727,2,2,B|208:192|256:208|256:208|304:192|336:136,2,200,10|2|10
256,64,169477,6,2,B|256:192,1,100,6|0
160,312,169777,2,0,B|232:216,1,100,0|8
352,312,170077,2,2,B|280:216,1,100,2|0
168,144,170377,1,2
348,144,170527,1,8
256,296,170677,6,2,B|256:184,1,100,2|2
256,96,170977,1,0
168,48,171127,1,10
80,96,171277,1,0
8,168,171427,1,2
8,218,171502,1,0
8,268,171577,1,0
34,310,171652,1,0
78,333,171727,1,8
128,333,171802,1,0
178,333,171877,6,2,B|202:333|202:333|230:325|230:325|262:342|262:342|292:331|292:331|329:343|329:343|374:331|374:331|410:333,1,200,6|2
317,195,172327,2,2,B|317:139|317:139|381:107,1,100,10|0
444,70,172627,1,2
444,120,172702,1,0
444,170,172777,1,0
418,212,172852,1,0
370,224,172927,1,8
320,224,173002,1,0
270,224,173077,6,2,B|224:216|224:216|197:226|197:226|160:216|160:216|130:227|130:227|96:216|96:216|46:224,1,200,6|2
208,144,173527,2,2,B|208:88|208:88|144:56,1,100,10|0
72,88,173827,1,2
88,136,173902,1,0
72,184,173977,1,0
88,232,174052,1,0
72,280,174127,1,8
88,328,174202,1,0
72,376,174277,6,2,B|109:373|109:373|141:381|141:381|170:374|170:374|208:383|208:383|240:372|240:372|277:382|277:382|296:376,1,200,6|2
232,232,174727,2,2,B|232:288|232:288|296:320,1,100,10|0
368,344,175027,1,2
403,308,175102,1,0
438,272,175177,1,0
402,236,175252,1,0
366,200,175327,1,8
401,164,175402,1,0
436,128,175477,6,2,B|400:123|400:123|368:128|368:128|335:123|335:123|307:129|307:129|270:122|270:122|238:132|238:132|212:128,1,200,6|2
96,64,175927,2,2,B|96:16|96:16|152:16,1,100,10|0
298,16,176227,1,2
348,16,176302,1,0
398,16,176377,1,8
448,16,176452,1,0
498,16,176527,1,0
256,192,176677,12,4,178027
256,56,178327,5,8
160,232,178627,1,0
360,232,178927,1,8
256,160,179077,1,4
256,192,179227,12,4,181477
