osu file format v9

[General]
AudioFilename: Amagasatojite.mp3
AudioLeadIn: 0
PreviewTime: 64995
Countdown: 0
SampleSet: Soft
StackLeniency: 0.7
Mode: 0
LetterboxInBreaks: 0

[Editor]
DistanceSpacing: 1.4
BeatDivisor: 4
GridSize: 8

[Metadata]
Title:Amagasa Tojite
Artist:Kagamine Rin
Creator:eveless
Version:Normal
Source:RamuneP
Tags:vocaloid nuz

[Difficulty]
HPDrainRate:3
CircleSize:3
OverallDifficulty:3
ApproachRate:4
SliderMultiplier:1
SliderTickRate:1

[Events]
//Background and Video events
0,0,"RIN.jpg"
//Break Periods
//Storyboard Layer 0 (Background)
//Storyboard Layer 1 (Fail)
//Storyboard Layer 2 (Pass)
//Storyboard Layer 3 (Foreground)
//Storyboard Sound Samples
//Background Colour Transformations
3,100,163,162,255

[TimingPoints]
2995,500,4,2,1,60,1,0
35245,-100,4,2,1,70,0,0
64995,-100,4,2,1,70,0,1
66995,-100,4,2,1,80,0,0
83245,-100,4,2,1,90,0,0
96995,-100,4,2,1,50,0,0
99245,-100,4,2,1,40,0,0
114870,-100,4,2,1,10,0,0

[Colours]
Combo1 : 152,147,251
Combo2 : 136,253,253

[HitObjects]
72,192,2995,2,0,B|120:184|192:192,1,100,0|2
270,91,3995,2,0,B|334:99|382:123,1,100,0|2
428,148,4745,1,0
320,240,5245,2,0,B|296:288|240:312,1,100,2|2
200,256,5995,2,0,B|136:248|88:272,1,100,0|2
136,128,6995,6,0,B|176:104|240:104,1,100,0|2
330,203,7995,2,0,B|384:220|444:203,1,100,0|2
478,157,8745,1,0
355,88,9245,6,0,B|294:94|256:136,1,100,0|2
252,269,10245,2,0,B|257:324,1,50,0|2
256,178,10995,6,0,B|205:88,3,100,4|8|0|8
330,157,12995,2,0,B|336:51,3,100,0|8|0|8
434,156,14995,2,0,B|431:272,1,100,0|8
291,255,15995,2,0,B|224:344,1,100,0|8
166,308,16745,1,0
166,168,17245,6,0,B|195:105,1,50,0|8
318,72,17995,2,0,B|314:126,2,50,0|0|8
445,136,18995,5,4
445,276,19495,1,8
346,177,19995,1,0
300,309,20495,1,8
201,210,20995,6,0,B|108:156,1,100,0|8
232,84,21995,2,0,B|342:115,1,100,0|8
427,210,22995,6,0,B|383:306,1,100,0|8
266,228,23995,2,0,B|164:191,1,100,0|8
108,318,24995,6,0,B|79:264|75:209,1,100,0|8
134,115,25995,2,0,B|174:93|233:98,2,100,0|8|0
256,183,27495,6,0,B|313:204|339:237,2,100,8|0|8
156,282,28995,1,0
57,183,29495,1,8
155,84,29995,2,0,B|224:77|259:85,1,100,0|8
379,144,30995,6,0,B|453:195|459:219,1,100,0|8
320,240,31995,2,0,B|333:299|316:351,1,100,0|8
319,339,32745,1,0
256,136,33495,5,8
135,65,33995,2,0,B|76:95|53:138,2,100,0|8|0
168,200,35495,5,8
297,252,35995,1,0
395,350,36495,2,0,B|443:318|451:254,1,100,8|0
344,168,37495,5,8
208,160,37995,1,0
88,232,38495,2,0,B|88:296|40:320,2,100,8|0|8
24,112,39995,2,0,B|32:56|80:24,1,100,0|8
184,112,40995,6,0,B|232:88|288:112,2,100,0|8|0
233,161,42245,1,0
233,231,42495,2,0,B|233:287|193:327,1,100,8|0
80,248,43495,5,8
136,120,43995,2,0,B|184:96|248:96,1,100,0|8
376,104,44995,5,0
376,104,45495,1,8
376,244,45995,1,0
376,244,46495,1,8
248,184,46995,2,0,B|144:208,3,100,0|8|0|8
80,224,48745,6,0,B|56:120|176:56|288:56|336:96|352:176,1,400,4|0
424,168,50995,6,0,B|456:208|464:264,1,100,4|8
320,272,51995,2,0,B|320:336|280:360,1,100,0|8
208,232,52995,2,0,B|144:248|96:224,1,100,0|8
109,229,53745,1,0
88,96,54245,2,0,B|120:104|144:104,1,50,0|8
208,104,54745,1,0
280,120,54995,6,0,B|336:128|360:192,1,100,0|8
360,248,55745,1,0
448,144,56245,2,0,B|456:112|448:80,2,50,0|8|0
448,216,56995,6,0,B|448:288|456:328,1,100,0|8
344,232,57995,2,0,B|304:288|304:344,1,100,0|8
240,200,58995,2,0,B|184:192|136:208,1,100,0|8
141,206,59745,1,0
40,312,60245,2,0,B|56:272|48:248,2,50,0|8|0
104,336,60995,6,0,B|152:304|160:240,2,100,0|8|0
176,336,62245,1,0
240,304,62495,1,8
288,256,62745,1,0
288,256,62995,2,0,B|352:208|432:224,1,150,0|8
330,124,64245,2,0,B|304:96|276:100,1,50,0|8
264,240,64995,6,0,B|200:216,1,50,4|0
152,248,65495,2,0,B|88:240,2,50,8|0|4
104,296,66245,2,0,B|56:320,2,50,0|4|0
168,312,66995,6,0,B|272:304,2,100,4|8|0
200,248,68245,1,0
136,216,68495,2,0,B|192:176,1,50,8|0
56,120,69245,2,0,B|80:56,2,50,0|8|0
192,128,70245,2,0,B|168:64,1,50,0|8
208,16,70745,1,0
280,40,70995,6,0,B|360:96|360:192|320:232|256:264|200:240,1,300,0|8
360,248,72995,2,0,B|328:144|216:88|96:128,1,300,0|8
16,216,74995,5,4
152,216,75495,2,0,B|192:248|192:320,2,100,8|0|8
112,272,76745,2,0,B|72:232|16:240,1,100
21,239,77495,1,8
70,189,77745,2,0,B|54:125|80:80,1,100
74,90,78495,1,8
208,56,78995,5,0
266,183,79495,1,8
376,96,79995,1,0
464,200,80495,1,8
464,200,80745,1,0
464,200,80995,6,0,B|376:280|280:248|208:216|192:152,1,300,0|4
136,48,82995,5,4
272,80,83495,1,8
144,136,83995,1,0
272,192,84495,1,8
280,264,84745,2,0,B|312:272|352:216|344:184,1,100
344,199,85495,1,8
376,136,85745,2,0,B|400:152|424:200|408:224,1,100
408,223,86495,1,8
320,328,86995,5,0
216,240,87495,1,8
344,184,87995,1,0
264,72,88495,1,8
128,72,88995,6,0,B|56:72,2,50,0|0|8
232,160,89995,2,0,B|296:160,3,50,0|0|8|0
352,160,90995,5,0
248,64,91495,1,8
208,200,91995,2,0,B|96:176,1,100,0|8
110,179,92745,1,0
136,320,93245,2,0,B|16:336,2,100,0|8|8
208,320,94495,1,8
256,184,94995,5,4
396,184,95495,1,8
396,324,95995,1,4
256,324,96495,1,8
256,324,96745,1,4
256,192,96995,12,0,98995
96,192,99495,6,0,B|56:176|48:152,2,50,0|2|0
236,192,100495,2,0,B|271:214|271:242,1,50,2|0
248,368,101245,5,2
304,328,101495,1,0
336,264,101745,2,0,B|368:200|424:192,2,100,2|0|2
264,256,102995,5,0
184,144,103495,2,0,B|128:136|80:184,2,100,2|0|2
200,80,104745,1,0
256,208,105245,1,2
248,280,105495,2,0,B|216:288|184:272,1,50,0|2
240,144,106245,5,0
312,152,106495,1,2
368,192,106745,1,0
400,256,106995,6,0,B|376:312|304:304,2,100,2|0|2
264,224,108495,2,0,B|208:224,1,50,0|2
288,104,109245,2,0,B|400:104,2,100,0|2|0
216,104,110495,1,2
240,240,110995,6,0,B|160:248|136:352,1,150,0|0
139,337,111995,1,2
128,192,112495,2,0,B|88:192|64:216,1,50,0|2
200,128,113245,5,0
249,177,113495,1,2
199,226,113745,1,0
135,196,113995,1,0
108,131,114245,1,2
135,66,114495,1,0
199,39,114745,1,2
265,61,114995,5,4
