osu file format v5

[General]
AudioFilename: 01.mp3
AudioLeadIn: 0
PreviewTime: -1
Countdown: 0
SampleSet: Soft
StackLeniency: 0.7
Mode: 0
LetterboxInBreaks: 1

[Metadata]
Title:Aku no Musume
Artist:Kagamine Rin
Creator:tom800510
Version:Easy
Source:
Tags:

[Difficulty]
HPDrainRate:2
CircleSize:3
OverallDifficulty:5
SliderMultiplier:1.2
SliderTickRate:2

[Events]
//Background and Video events
0,0,"BG.jpg"
//Break Periods
2,60212,60955
//Storyboard Layer 0 (Background)
//Storyboard Layer 1 (Failing)
//Storyboard Layer 2 (Passing)
//Storyboard Layer 3 (Foreground)
//Storyboard Sound Samples
//Background Colour Transformations
3,100,163,162,255

[TimingPoints]
3850,428.571428571429,4,2,0,90,1
75207,428.571428571429,4,1,0,90,1

[Colours]
Combo1 : 26,26,26
Combo2 : 152,14,14
Combo3 : 106,0,53
Combo4 : 122,122,122

[HitObjects]
108,295,17778,1,0
234,299,18421,2,0,C|272:254|216:198,2,120
381,218,20135,1,2
104,110,20992,5,0
264,59,21850,2,0,C|224:108|271:155,2,120
411,140,23564,1,2
338,291,24421,5,0
263,329,24850,1,0
202,271,25278,1,0
243,197,25707,1,0
160,180,26135,1,0
101,119,26564,1,0
146,48,26992,1,0
313,57,27850,5,0
300,224,28707,2,0,L|443:224,2,120
131,226,30421,1,2
413,79,31278,5,0
338,118,31707,1,0
386,186,32135,2,0,L|460:201,4,60
256,292,33850,1,2
77,181,34921,6,0,C|100:114|128:81|208:57,1,180
272,45,35992,1,0
316,116,36421,1,0
396,92,36850,1,0
417,173,37278,1,2
92,295,38135,5,0
172,270,38564,1,0
177,186,38992,1,0
223,115,39421,1,0
295,157,39850,1,0
366,113,40278,1,0
444,144,40707,1,0
339,275,41564,6,0,C|261:274,3,60
236,275,42421,2,0,C|184:237,3,60
145,237,43278,2,0,C|77:237,4,60,0|0|0|0|4
421,91,44992,5,0
349,47,45421,1,0
264,50,45850,1,0
180,45,46278,1,0
99,68,46707,2,0,B|37:108|2:174|52:253|136:257,1,240,0|2
301,332,48635,6,0,C|401:320|436:231,1,180
359,203,49707,1,0
406,133,50135,1,0
342,77,50564,1,0
260,58,50992,1,2
94,87,51850,6,0,C|28:196|111:301,1,240
165,237,53135,1,0
209,308,53564,1,0
279,262,53992,1,0
355,296,54421,1,2
425,143,55278,6,0,C|364:82,3,60
345,80,56135,2,0,C|265:80,3,60
243,89,56992,2,0,B|129:74|59:127|58:237|99:286|227:288|281:263,1,420,0|2
256,192,58921,12,4,59992
85,94,62135,5,0
82,178,62564,1,0
89,261,62992,2,0,B|151:325|197:250,1,120,0|2
273,259,63850,5,0
272,175,64278,1,0
272,90,64707,2,0,B|324:26|397:108,1,120,0|2
456,110,65564,6,0,C|443:160|372:171|372:228|437:244,1,240
376,311,66850,1,0
292,311,67278,1,8
220,266,67707,1,8
221,182,68135,1,8
163,120,68564,1,4
225,64,68992,6,0,C|289:59,3,60
320,81,69850,2,0,C|388:128,3,60
369,115,70707,1,0
433,168,71135,1,0
365,218,71564,2,0,C|308:237|252:202,1,120,4|0
196,148,72421,6,0,C|183:86|109:73,1,120
94,151,73278,2,0,C|51:206|105:240,1,120
110,314,74135,1,0
185,277,74564,1,0
259,315,74992,1,4
259,315,75207,1,8
259,315,75421,1,8
