osu file format v5

[General]
AudioFilename: 01.mp3
AudioLeadIn: 0
PreviewTime: -1
Countdown: 0
SampleSet: Soft
StackLeniency: 0.7
Mode: 0
LetterboxInBreaks: 1

[Metadata]
Title:Aku no Musume
Artist:Kagamine Rin
Creator:tom800510
Version:Absolute Cruelty!!?
Source:
Tags:

[Difficulty]
HPDrainRate:7
CircleSize:4
OverallDifficulty:8
SliderMultiplier:2
SliderTickRate:1

[Events]
//Background and Video events
0,0,"BG.jpg"
//Break Periods
2,60192,61385
2,75619,88811
2,118690,119668
2,133902,140452
2,183723,184809
//Storyboard Layer 0 (Background)
//Storyboard Layer 1 (Failing)
//Storyboard Layer 2 (Passing)
//Storyboard Layer 3 (Foreground)
//Storyboard Sound Samples
//Background Colour Transformations
3,100,163,162,255

[TimingPoints]
3850,428.571428571429,4,2,0,80,1
63207,428.571428571429,4,1,0,80,1
63635,428.571428571429,4,2,0,80,1
64920,428.571428571429,4,1,0,80,1
65348,428.571428571429,4,2,0,80,1
75205,428.571428571429,4,1,0,80,1
75847,428.571428571429,4,2,0,80,1
121490,428.571428571429,4,1,0,80,1
121918,428.571428571429,4,2,0,80,1
123203,428.571428571429,4,1,0,80,1
123631,428.571428571429,4,2,0,80,1
133488,428.571428571429,4,1,0,80,1
141202,428.571428571429,4,2,0,80,1
186630,428.571428571429,4,1,0,80,1
187058,428.571428571429,4,2,0,80,1
188343,428.571428571429,4,1,0,80,1
188771,428.571428571429,4,2,0,80,1
198628,428.571428571429,4,1,0,80,1

[Colours]
Combo1 : 26,26,26
Combo2 : 152,14,14
Combo3 : 106,0,53
Combo4 : 95,95,95

[HitObjects]
100,291,17778,5,0
150,228,17992,1,0
104,161,18207,1,0
152,97,18421,1,0
202,35,18635,1,0
250,99,18850,1,0
300,37,19064,1,0
379,41,19278,2,0,B|451:91|375:141,1,100
342,180,19707,2,0,B|316:242|394:259,1,100
441,308,20135,1,2
90,50,20992,5,0
144,108,21207,1,0
92,169,21421,1,0
147,226,21635,1,0
201,167,21850,1,0
256,224,22064,1,0
308,163,22278,1,0
308,83,22492,1,0
388,82,22707,2,0,B|429:103|428:147|383:168,1,100
396,241,23135,2,0,B|444:256|443:306|383:332,1,100
328,319,23564,1,2
98,96,24421,5,0
98,96,24528,1,0
98,96,24635,2,0,B|150:104|154:171|84:186,1,100
143,328,25278,1,0
143,328,25385,1,0
143,328,25492,2,0,B|140:283|180:272|223:297,1,100
357,222,26135,1,0
357,222,26242,1,0
357,222,26350,2,0,B|404:186|374:140|295:145,1,100
281,96,26778,1,0
347,51,26992,1,2
144,299,27850,5,0
144,299,28064,1,0
220,275,28278,1,0
220,275,28492,1,0
270,212,28707,1,0
270,212,28921,1,0
270,212,29135,1,0
212,155,29350,1,0
212,155,29564,2,0,B|236:94|310:124,1,100
349,61,29992,1,0
416,104,30207,1,0
417,183,30421,1,2
127,319,31278,6,0,B|60:220,1,100
121,173,31707,2,0,B|194:283,1,100
253,234,32135,2,0,B|176:119,1,100
210,71,32564,1,0
267,15,32778,1,0
346,21,32992,2,0,B|415:54|349:103,1,100
313,163,33421,1,0
388,189,33635,1,0
407,266,33850,1,2
256,192,34278,12,0,34921
355,179,35135,5,0
302,118,35350,1,0
233,77,35564,1,0
302,118,35778,1,0
233,77,35992,1,0
152,78,36207,1,0
85,122,36421,1,0
85,122,36635,1,0
149,170,36850,1,0
149,170,37064,1,0
87,220,37278,1,2
396,302,38135,5,0
316,295,38350,1,0
313,215,38564,1,0
374,164,38778,1,0
437,116,38992,1,0
374,65,39207,1,0
300,32,39421,1,0
226,63,39635,1,0
147,48,39850,2,0,B|60:42|112:152,3,100
73,185,40707,1,2
379,276,41564,5,0
430,215,41778,1,0
351,200,41992,2,0,B|271:160|386:98,1,100
290,64,42421,1,0
212,45,42635,1,0
149,95,42850,2,0,B|220:140|132:184,1,100
103,233,43278,1,0
176,265,43492,1,0
235,211,43707,1,0
278,277,43921,1,0
356,264,44135,1,4
91,84,44992,6,0,B|189:90|115:184,1,100
119,222,45421,2,0,B|177:288|219:197,1,100
273,192,45850,2,0,B|244:113|340:132,1,100
372,72,46278,2,0,B|458:49|432:151,1,100
409,191,46707,2,0,B|366:243|439:267,1,100
383,326,47135,1,0
305,345,47350,1,0
233,309,47564,1,0
256,192,47992,12,0,48635
136,188,48850,5,0
187,126,49064,1,0
266,130,49278,1,0
187,126,49492,1,0
266,130,49707,1,0
325,76,49921,1,0
398,45,50135,1,0
396,125,50350,1,0
342,184,50564,1,0
392,245,50778,1,0
471,249,50992,1,0
158,320,51850,6,0,B|81:324|80:253,1,100
77,192,52278,2,0,B|32:127|102:84,1,100
148,60,52707,1,0
225,40,52921,1,0
250,115,53135,1,0
217,188,53350,1,0
281,235,53564,2,0,B|313:315|393:275,3,100
413,231,54421,1,0
145,57,55278,6,0,B|244:90,1,100
207,161,55707,2,0,B|117:246,1,100
78,286,56135,1,0
149,321,56350,1,0
213,273,56564,1,0
292,275,56778,1,0
354,324,56992,2,0,C|424:294|376:279|425:264|373:236|432:220|370:185|436:164|364:124|458:118|367:25,1,750,0|2
256,192,58921,12,4,59992
132,288,62135,5,0
53,270,62350,1,0
42,190,62564,1,0
83,121,62778,1,0
162,119,62992,1,0
232,80,63207,1,0
232,80,63421,1,0
297,125,63635,5,0
332,53,63849,1,0
411,51,64063,1,0
457,116,64277,1,0
421,187,64492,1,0
341,193,64706,1,0
377,122,64920,1,0
377,122,65134,1,0
159,92,65562,6,0,C|83:162|159:248,1,200
150,311,66205,1,0
150,311,66419,1,0
229,310,66633,1,0
229,310,66848,1,0
278,247,67062,1,0
278,247,67276,2,0,B|230:200|288:148,1,100
299,82,67705,2,0,B|350:32|419:100,1,100
417,151,68133,2,0,B|478:200|404:257,1,100
399,312,68562,2,0,B|346:359|287:316,1,100
227,322,68990,5,0
227,322,69098,1,0
227,322,69205,1,0
147,329,69419,1,0
83,280,69633,1,0
147,232,69848,1,0
147,232,69955,1,0
147,232,70062,1,0
96,169,70276,1,0
81,90,70490,1,0
150,50,70705,2,0,B|269:89,1,100
316,45,71133,2,0,B|424:112,1,100
345,155,71562,1,0
345,155,71669,1,0
345,155,71776,1,0
388,222,71990,1,0
335,282,72205,1,0
256,267,72419,6,0,B|170:290|226:367,2,100
222,194,73062,1,0
142,204,73276,2,0,B|91:149|32:222,2,100
222,194,73919,1,0
177,127,74133,2,0,B|129:73|227:50,1,100
271,102,74562,2,0,B|297:176|382:98,1,100
420,160,74990,1,0
372,225,75205,1,0
421,287,75419,1,0
388,85,89561,6,0,C|370:197|244:185,1,200
258,118,90204,1,0
188,77,90418,1,0
121,122,90632,2,0,C|42:186|112:260,1,200
179,287,91275,1,0
258,288,91489,1,0
338,290,91704,1,0
258,288,91918,1,0
179,287,92132,1,2
414,70,92989,5,0
336,50,93204,1,0
275,101,93418,1,0
205,61,93632,1,0
139,106,93847,1,0
159,183,94061,1,0
227,223,94275,1,0
296,183,94489,1,0
364,141,94704,2,0,B|442:162|391:236,1,100
401,294,95132,2,0,B|379:359|293:318,1,100
241,311,95561,1,2
77,53,96418,5,0
136,105,96632,1,0
201,58,96847,1,0
280,54,97061,2,0,C|380:113|337:180,1,200
258,163,97704,1,0
190,205,97918,1,0
110,196,98132,1,0
86,272,98347,1,0
141,329,98561,1,0
217,305,98775,1,0
295,321,98989,1,2
422,71,99847,6,0,B|348:57|420:160|309:82,1,100
267,93,100275,2,0,B|193:79|265:182|154:104,1,100
142,190,100704,2,0,B|68:176|140:279|29:201,2,100
190,253,101347,1,0
257,210,101561,1,0
257,210,101775,1,0
316,263,101989,1,0
316,263,102204,1,0
375,316,102418,1,4
77,197,103275,6,0,B|28:138|110:104,1,100
166,135,103704,2,0,B|225:189|264:120,1,100
254,57,104132,2,0,B|304:-5|371:76,1,100
390,109,104561,2,0,B|458:161|373:210,1,100
332,234,104989,1,0
251,228,105204,1,0
217,300,105418,1,0
142,328,105632,1,0
62,319,105847,1,0
400,68,106704,5,0
441,136,106918,1,0
398,203,107132,1,0
445,267,107347,1,0
379,313,107561,1,0
303,288,107775,1,0
299,208,107989,1,0
245,148,108204,1,0
221,71,108418,2,0,B|155:12|112:119,1,100
113,152,108847,2,0,B|54:209|145:250,1,100
119,314,109275,1,0
398,51,110132,5,0
340,106,110347,1,0
260,107,110561,1,0
193,62,110775,1,0
119,93,110989,2,0,B|48:133|111:198,1,100
171,159,111418,2,0,B|224:224|127:258,1,100
101,296,111847,1,0
165,343,112061,1,0
233,301,112275,1,0
305,266,112489,1,0
363,320,112704,2,0,B|457:308|508:240|486:136|399:61,1,300
366,44,113561,5,0
320,109,113775,1,0
267,48,113989,1,0
221,114,114204,1,0
167,54,114418,1,0
120,119,114632,1,0
154,191,114847,1,0
107,256,115061,1,0
139,328,115275,2,0,L|176:288|192:352|243:275|252:363|304:299|319:361|368:319|378:360|424:328|444:374|521:325,1,750,0|2
256,192,117205,12,4,118490
380,288,120418,5,0
459,270,120633,1,0
470,190,120847,1,0
429,121,121061,1,0
350,119,121275,1,0
280,80,121490,1,0
280,80,121704,1,0
215,125,121918,5,0
180,53,122132,1,0
101,51,122346,1,0
55,116,122560,1,0
91,187,122775,1,0
171,193,122989,1,0
135,122,123203,1,0
135,122,123417,1,0
389,63,123845,6,0,C|466:134|388:198,1,200
414,270,124488,1,0
336,255,124702,1,0
304,328,124916,1,0
229,299,125131,1,0
229,299,125345,1,0
151,287,125559,2,0,B|65:314|72:200,1,100
85,169,125988,2,0,B|32:120|104:62,1,100
162,64,126416,2,0,B|212:20|264:78,1,100
331,78,126845,2,0,B|384:18|446:100,1,100
443,146,127273,5,0
443,146,127381,1,0
443,146,127488,1,0
391,205,127702,1,0
411,282,127916,1,0
333,297,128131,1,0
333,297,128238,1,0
333,297,128345,1,0
304,222,128559,1,0
263,153,128773,1,0
213,215,128988,1,0
213,215,129095,1,0
213,215,129202,1,0
139,185,129416,1,0
66,216,129631,1,0
64,295,129845,1,0
64,295,129952,1,0
64,295,130059,1,0
139,323,130273,1,0
214,292,130488,1,0
294,296,130702,6,0,B|371:259|300:181,1,100
406,223,131131,2,0,B|468:178|398:111,1,100
341,138,131559,2,0,B|269:111|320:40,1,100
228,54,131988,2,0,B|187:0|111:70,1,100
168,121,132416,1,0
92,144,132631,1,0
151,198,132845,1,0
75,220,133059,1,0
132,276,133273,1,0
209,250,133488,1,8
231,173,133702,1,8
84,96,141202,5,0
84,96,141309,1,0
84,96,141416,1,0
157,65,141630,1,0
226,105,141844,2,0,B|290:57|337:162,3,100
385,85,142702,1,0
385,85,142809,1,0
385,85,142916,1,0
431,150,143130,1,0
431,150,143237,1,0
431,150,143344,1,0
421,229,143559,1,2
109,301,144416,5,0
109,301,144523,2,0,B|83:217,1,50
166,220,144844,1,0
166,220,144952,2,0,B|194:164,1,50
263,149,145273,1,0
263,149,145380,2,0,B|245:84,1,50
319,61,145702,1,0
396,81,145916,1,0
427,154,146130,1,0
427,154,146237,2,0,B|383:188,1,50
394,264,146559,2,0,B|344:340|467:344,2,100,0|0|2
101,135,147844,5,0
101,135,147952,1,0
101,135,148059,1,0
157,78,148273,1,0
157,78,148380,1,0
157,78,148487,1,0
229,44,148702,2,0,B|348:85,1,100
382,130,149130,2,0,B|260:187,1,100
216,201,149559,1,0
174,269,149773,1,0
234,320,149987,1,0
234,320,150094,1,0
234,320,150202,1,0
312,304,150416,1,2
104,60,151273,5,0
104,60,151380,2,0,B|72:132,1,50
81,185,151702,1,0
81,185,151809,2,0,B|113:262,1,50
116,309,152130,1,0
116,309,152237,2,0,B|194:336,1,50
220,269,152559,1,0
220,269,152666,1,0
220,269,152773,1,0
297,250,152987,1,0
297,250,153094,2,0,B|391:226,1,50
399,178,153416,1,0
342,121,153630,1,0
393,60,153844,1,2
212,324,154702,5,0
212,324,154809,1,0
212,324,154916,1,0
139,290,155130,1,0
96,222,155344,1,0
145,158,155559,1,0
145,158,155666,1,0
145,158,155773,1,0
221,180,155987,1,0
300,187,156202,1,0
379,178,156416,1,0
379,178,156523,2,0,B|414:110,1,50
355,68,156844,1,0
355,68,156952,2,0,B|292:33,1,50
231,40,157273,1,2
435,286,158130,5,0
435,286,158237,1,0
435,286,158344,1,0
354,286,158559,1,0
354,286,158773,1,0
297,229,158987,1,0
297,229,159094,1,0
297,229,159202,1,0
217,232,159416,1,0
217,232,159630,1,0
137,228,159844,2,0,B|77:184|150:136,1,100
215,140,160273,1,0
294,137,160487,2,0,B|354:108|332:46,1,100,0|2
120,294,161559,5,0
120,294,161666,2,0,B|125:222,1,50
189,199,161987,1,0
161,123,162202,1,0
224,73,162416,1,0
224,73,162523,2,0,B|285:69,1,50
353,71,162844,1,0
353,71,162952,1,0
353,71,163059,1,0
420,114,163273,1,0
378,182,163487,1,0
440,232,163702,1,0
440,232,163809,2,0,B|384:285,1,50
460,322,164130,1,2
100,73,164987,5,0
100,73,165094,1,0
100,73,165202,1,0
178,85,165416,1,0
183,164,165630,1,0
262,159,165844,1,0
262,159,165952,1,0
262,159,166059,1,0
339,178,166273,1,0
329,257,166487,1,0
409,263,166702,2,0,B|487:241|438:160,2,100
375,335,167344,2,0,B|325:375|256:309,1,100,0|4
95,70,168416,5,0
95,70,168523,1,0
95,70,168630,1,0
174,74,168844,1,0
174,74,168952,2,0,B|233:87,1,50
286,132,169273,1,0
224,183,169487,1,0
224,183,169594,1,0
224,183,169702,1,0
146,200,169916,1,0
146,200,170023,2,0,B|66:212,1,50
109,286,170344,1,0
109,286,170451,1,0
109,286,170558,1,0
185,309,170773,1,0
185,309,170881,2,0,B|263:340,1,50
256,192,171202,12,0,171844
74,152,172059,5,0
74,152,172166,1,0
74,152,172273,1,0
134,99,172487,1,0
214,97,172702,1,0
214,97,172809,1,0
214,97,172916,1,0
134,99,173130,1,0
214,97,173344,1,0
284,57,173559,1,0
284,57,173666,1,0
284,57,173773,1,0
363,61,173987,1,0
363,61,174094,1,0
363,61,174202,1,0
434,25,174416,1,0
365,337,175273,5,0
365,337,175380,2,0,B|425:281,1,50
468,258,175702,1,0
468,258,175809,2,0,B|437:173,1,50
371,207,176130,1,0
371,207,176237,1,0
371,207,176344,1,0
318,146,176559,1,0
318,146,176666,2,0,B|331:75,1,50
258,55,176987,1,0
258,55,177094,1,0
258,55,177202,1,0
178,55,177416,1,0
178,55,177523,2,0,B|113:34,1,50
52,20,177844,1,0
152,323,178702,5,0
152,323,178809,1,0
152,323,178916,1,0
225,292,179130,1,0
225,292,179237,2,0,B|260:233,1,50
330,250,179559,1,0
330,250,179666,1,0
330,250,179773,1,0
407,229,179987,1,0
407,229,180094,2,0,B|436:176,1,50
408,108,180416,2,0,C|341:41|360:132|294:68|300:104|253:83|268:116|223:92|231:120|188:100|191:131|150:111|133:172|70:140,1,750,0|2
256,192,182344,12,4,183523
113,338,185559,5,0
168,279,185774,1,0
245,296,185988,1,0
320,320,186202,1,0
382,270,186416,1,0
372,190,186630,1,8
372,190,186844,1,8
329,122,187058,5,0
294,50,187272,1,0
215,48,187486,1,0
169,113,187700,1,0
205,184,187915,1,0
285,190,188129,1,0
249,119,188343,1,8
249,119,188557,1,8
397,61,188985,6,0,B|463:119|477:184|371:243,1,200
396,305,189628,1,0
318,324,189842,1,0
318,324,189949,1,0
318,324,190056,1,0
254,275,190271,1,0
254,275,190378,1,0
254,275,190485,1,0
309,217,190699,1,0
309,217,190806,2,0,B|290:160,1,50
213,159,191128,1,0
213,159,191235,2,0,B|242:93,1,50
308,85,191556,1,0
308,85,191663,2,0,B|252:31,1,50
196,22,191985,1,0
196,22,192092,2,0,B|136:61,1,50
73,302,192413,5,0
73,302,192521,1,0
73,302,192628,1,0
134,251,192842,1,0
134,251,192949,2,0,B|207:204,1,50
187,144,193271,2,0,B|160:70|64:132,2,100
263,121,193913,1,0
336,88,194128,1,0
336,88,194235,1,0
336,88,194342,1,0
407,123,194556,1,0
407,123,194663,1,0
407,123,194771,1,0
447,191,194985,1,0
381,236,195199,1,0
439,290,195413,1,0
365,323,195628,1,0
285,324,195842,5,0
285,324,195949,1,0
285,324,196056,1,0
284,243,196271,1,0
284,243,196378,1,0
284,243,196485,1,0
266,165,196699,1,0
266,165,196913,1,0
273,85,197128,1,0
273,85,197342,1,0
205,42,197556,1,0
205,42,197663,2,0,B|142:84,1,50
87,95,197985,1,0
87,95,198092,2,0,B|104:164,1,50
60,213,198413,1,0
138,231,198628,1,8
107,304,198842,1,8
