osu file format v9

[General]
AudioFilename: tsumugiuta short.mp3
AudioLeadIn: 0
PreviewTime: 107542
Countdown: 0
SampleSet: Soft
StackLeniency: 0.6
Mode: 0
LetterboxInBreaks: 0

[Editor]
Bookmarks: 37185,62899,108613,131470
DistanceSpacing: 1
BeatDivisor: 2
GridSize: 8

[Metadata]
Title:Tsumugi-uta
Artist:Kagamine Rin & Len
Creator:Lanttu
Version:Normal
Source:
Tags:DATEKEN vocaloid

[Difficulty]
HPDrainRate:4
CircleSize:3
OverallDifficulty:4
ApproachRate:4
SliderMultiplier:1.6
SliderTickRate:2

[Events]
//Background and Video events
0,0,"BG.png"
//Break Periods
//Storyboard Layer 0 (Background)
//Storyboard Layer 1 (Fail)
//Storyboard Layer 2 (Pass)
//Storyboard Layer 3 (Foreground)
//Storyboard Sound Samples
//Background Colour Transformations
3,100,255,255,255

[TimingPoints]
37200,714.285714285714,4,2,1,70,1,0

[Colours]
Combo1 : 205,237,251
Combo2 : 225,162,179
Combo3 : 190,143,181
Combo4 : 198,213,174
Combo5 : 244,213,205

[HitObjects]
448,328,36485,1,0
432,248,36842,1,0
360,192,37200,2,0,B|360:288|256:288,2,160,0|8|0
448,56,39342,5,8
384,104,39700,1,0
312,144,40057,2,0,B|304:80|208:80|200:144,2,160,0|8|0
256,296,42200,1,8
184,328,42557,1,0
104,336,42914,6,0,B|104:272|24:272|24:200,1,160,4|8
72,48,44342,2,0,B|176:48|176:152,1,160,0|8
336,143,45771,2,0,B|336:48|440:48,1,160,0|8
487,204,47200,2,0,B|488:272|408:272|408:336,1,160,0|8
256,272,48628,5,4
188,126,49342,1,8
43,194,50057,1,0
64,272,50414,1,0
110,339,50771,1,8
256,272,51485,5,0
324,126,52200,1,8
469,194,52914,1,0
448,272,53271,1,0
402,339,53628,1,8
328,200,54342,6,0,B|256:264|184:200,1,160,4|8
256,56,55771,2,0,B|256:152,2,80,0|8|8
336,200,57200,5,0
176,200,57914,1,8
160,360,58628,2,0,B|208:384|256:384|312:344|312:296|256:294|200:296|200:344|256:384|304:384|352:360,1,320,2|6
440,192,62200,5,0
288,240,62914,2,0,B|282:279|310:319|350:347|389:341,1,160,4|8
440,192,64342,2,0,B|440:360,2,160,0|8|0
296,112,66485,2,0,B|256:96|216:112,2,80,8|0|0
256,264,67914,5,8
136,160,68628,2,0,B|141:199|113:239|73:267|34:261,2,160,0|8|0
256,264,70771,1,8
376,160,71485,2,0,B|352:72|256:40|160:72|136:160,1,320
32,32,73628,5,8
32,112,73985,1,0
32,192,74342,2,0,B|32:288|136:288,1,160,0|8
256,184,75771,1,0
256,184,76485,5,10
378,287,77200,2,0,B|480:288|480:192,1,160,0|8
480,112,78271,1,0
480,32,78628,1,0
328,72,79342,6,0,B|256:8|184:72,1,160,8|0
328,152,80771,1,8
184,152,81485,1,0
256,280,82200,1,8
400,344,82914,2,0,B|400:264,2,80,0|0|8
256,280,84342,1,0
112,344,85057,6,0,B|112:264,2,80,8|8|4
32,208,86485,2,0,B|112:208|112:88,1,160,8|0
256,168,87914,1,8
184,312,88628,2,0,B|224:312|256:344|256:344|288:312|328:312,2,160,0|8|0
256,168,90771,1,8
400,91,91485,6,0,B|400:208|480:208,1,160,0|8
480,288,92557,2,0,B|400:288,1,80,8|0
256,216,93628,1,8
112,288,94342,2,0,B|32:288,2,80,0|8|8
256,216,95771,1,0
224,64,96485,6,0,B|256:108|288:64,1,80,8|0
328,136,97200,2,0,B|304:168|256:176|208:168|184:136,1,160,4|8
184,296,98628,2,0,B|208:264|256:256|304:264|328:296,1,160,0|8
416,160,100057,1,0
256,192,100771,1,8
96,160,101485,1,0
64,320,102200,5,8
96,160,102914,2,0,B|124:188|186:171|203:109|175:80,1,160,0|8
335,82,104342,2,0,B|308:109|325:171|387:188|416:160,1,160,0|8
448,320,105771,1,0
256,280,106485,1,8
64,320,107200,1,0
256,280,107914,5,8
256,200,108271,1,8
320,152,108628,2,0,B|304:112|256:96|208:112|192:152,2,160,4|8|0
440,256,110771,1,8
512,296,111128,1,8
440,344,111485,2,0,B|336:344|336:240,1,160,0|8
175,248,112914,2,0,B|176:344|72:344,1,160,0|8
32,192,114342,6,0,B|104:192|104:136|184:136,1,160,4|8
336,136,115771,2,0,B|410:135|410:191|482:191,1,160,0|8
336,256,117200,1,0
256,256,117557,1,0
176,256,117914,1,8
256,120,118628,1,0
296,272,119342,5,8
216,272,119700,1,8
160,216,120057,2,0,B|160:120|56:120,2,160,4|8|0
256,344,122200,1,8
352,216,122914,2,0,B|352:120|456:120,2,160,0|8|0
256,88,125057,6,8,B|256:8,1,80
176,32,125771,1,4
336,32,126485,1,8
336,192,127200,2,0,B|368:296|256:344|144:296|176:192,1,320
176,32,129342,1,8
256,176,130057,1,2
336,32,130771,1,8
480,104,131485,6,0,B|480:208|384:208|384:320,1,240,4|8
464,316,132914,2,8,B|224:316,1,240
144,316,134342,1,2
40,192,135057,1,8
144,72,135771,1,8
40,192,136485,1,8
200,192,137200,6,0,B|176:112|256:73|336:112|312:192,1,240,4|8
368,248,138628,2,8,B|320:288|256:296|192:288|144:248,1,240
104,320,140057,1,2
256,368,140771,1,8
408,320,141485,1,0
256,288,142200,1,8
408,248,142914,6,0,B|458:197|419:123|345:83|294:134,1,240,4|8
344,200,144342,2,0,B|328:256|256:312|184:256|168:200,1,240,0|8
104,248,145771,2,0,B|53:197|92:123|166:83|217:134,1,240,0|8
256,200,147200,1,8
256,40,147914,1,8
256,200,148628,5,4
456,336,149700,2,0,B|400:280,1,80,0|4
56,336,151128,2,0,B|112:280,1,80,0|4
