osu file format v9

[General]
AudioFilename: Streamline Prism.mp3
AudioLeadIn: 0
PreviewTime: 74031
Countdown: 0
SampleSet: Normal
StackLeniency: 0.6
Mode: 0
LetterboxInBreaks: 1

[Editor]
DistanceSpacing: 1
BeatDivisor: 4
GridSize: 4

[Metadata]
Title:Streamline Prism
Artist:Kagamine Rin & Len
Creator:banvi
Version:Jumping
Source:GIGA-P
Tags:Vocaloid Vocaloid2

[Difficulty]
HPDrainRate:6
CircleSize:4
OverallDifficulty:7
ApproachRate:8
SliderMultiplier:1.8
SliderTickRate:2

[Events]
//Background and Video events
0,0,"bg.jpg"
//Break Periods
2,22732,28946
2,106911,116707
//Storyboard Layer 0 (Background)
//Storyboard Layer 1 (Fail)
//Storyboard Layer 2 (Pass)
//Storyboard Layer 3 (Foreground)
//Storyboard Sound Samples
//Background Colour Transformations
3,100,163,162,255

[TimingPoints]
1040,447.761194029851,4,1,0,70,1,0
72681,-100,4,1,0,60,0,0
74472,-100,4,1,0,70,0,1
106711,-100,4,1,0,70,0,0
160442,-100,4,1,0,60,0,0
162234,-100,4,1,0,70,0,1
190890,-100,4,1,0,70,0,0

[Colours]
Combo1 : 255,128,0
Combo2 : 248,49,14
Combo3 : 242,214,49
Combo4 : 164,82,0

[HitObjects]
56,192,11562,5,0
56,192,11786,1,0
456,192,12457,1,0
456,192,12681,1,0
256,344,13353,1,0
176,264,13577,6,0,B|128:224|144:160,1,90
336,120,14025,2,0,B|384:160|368:224,1,90
256,192,14472,1,0
256,192,14696,1,0
176,120,14920,5,0
216,96,15032,1,0
256,88,15144,1,0
296,96,15256,1,0
336,120,15368,6,0,B|384:136|408:200,1,90,4|0
248,259,15816,2,0,B|296:244|312:200,1,90,8|0
160,115,16263,2,0,B|176:160|224:176,1,90
312,32,16711,2,0,B|264:47|248:91,1,90,8|0
399,180,17159,6,0,B|384:136|336:120,1,90
352,256,17607,2,0,B|367:300|415:316,1,90,8|0
160,256,18054,2,0,B|145:300|97:316,1,90
112,180,18502,2,0,B|128:136|175:120,1,90,8|0
256,64,18950,5,0
272,104,19062,1,0
256,144,19174,1,0
256,320,19398,1,8
240,280,19510,1,0
256,240,19622,1,0
344,280,19845,6,0,B|416:280,2,45,0|0|0
168,104,20293,2,0,B|96:104,2,45,8|0|0
256,192,20741,5,0
344,104,20965,1,0
168,280,21189,1,8
344,104,21413,1,0
256,192,21637,5,0
256,192,21748,1,0
256,192,21860,1,0
256,192,21972,1,0
256,192,22084,1,8
168,104,22308,1,8
344,280,22532,1,4
48,288,29696,6,0,B|80:240|184:312|224:248,1,180,4|8
160,192,30368,1,0
224,128,30592,2,0,B|272:120|312:176,1,90
424,280,31040,2,0,B|382:281|350:233,1,90,8|0
432,192,31487,5,0
376,120,31711,1,0
464,112,31935,1,8
344,200,32159,1,0
320,48,32383,1,0
376,120,32607,2,0,B|440:200,2,90,0|8|0
320,48,33278,5,0
230,43,33502,1,0
209,129,33726,2,0,B|202:177|152:192,1,90,8|0
120,112,34174,1,0
264,216,34398,1,0
96,280,34622,1,8
152,192,34845,1,0
240,136,35069,6,0,B|272:96|328:104,1,90
480,184,35517,2,0,B|448:144|392:152,1,90,8|0
264,264,35965,2,0,B|296:224|352:232,1,90
336,320,36413,1,8
256,160,36637,1,8
72,160,36860,6,0,B|176:160,1,90
440,160,37308,2,0,B|336:160,1,90,8|0
162,159,37756,2,0,B|218:71,1,90
350,160,38204,2,0,B|294:248,1,90,8|0
256,312,38651,5,0
208,232,38875,1,0
256,152,39099,1,8
208,72,39323,1,0
136,128,39547,5,0
312,80,39771,1,0
368,248,39995,1,8
192,296,40219,1,0
208,192,40442,6,0,B|216:144|256:96,1,90
304,192,40890,2,0,B|296:240|256:288,1,90,8|0
328,112,41338,2,0,B|376:120|416:152,1,90
184,272,41786,2,0,B|136:264|96:232,1,90,8|0
24,192,42234,5,0
64,112,42457,1,0
152,136,42681,1,8
192,56,42905,1,0
280,80,43129,1,2
320,72,43241,1,0
368,72,43353,1,0
408,96,43465,1,0
432,136,43577,1,2
440,184,43689,1,0
432,224,43801,1,0
416,264,43913,1,0
384,296,44025,6,0,B|336:336|224:296|192:336,1,180,4|8
128,360,44696,1,0
80,280,44920,1,0
32,200,45144,1,0
128,360,45368,1,8
32,200,45592,1,0
144,88,45816,6,0,B|224:24,1,90
299,179,46263,2,0,B|232:112,1,90,8|0
389,31,46711,2,0,B|320:88,1,90
471,183,47159,1,8
408,120,47383,1,0
408,120,47495,1,0
408,120,47607,6,0,B|392:168|336:184,1,90
256,62,48054,2,0,B|256:158,1,90,8|0
104,120,48502,2,0,B|120:168|176:184,1,90
256,152,48950,1,8
256,152,49174,1,0
256,64,49398,5,0
256,240,49622,1,0
256,152,49845,1,8
256,328,50069,1,0
256,152,50293,5,0
344,284,50517,1,0
168,284,50741,1,8
168,284,50853,1,0
168,284,50965,1,0
168,284,51077,1,0
168,284,51189,6,0,B|72:284,1,90
344,284,51637,2,0,B|440:284,1,90,8|0
256,216,52084,2,0,B|256:120,1,90
256,40,52532,1,8
256,40,52756,1,0
176,112,52980,5,0
336,112,53204,1,0
112,192,53428,1,8
400,192,53651,1,0
176,272,53875,1,0
336,272,54099,1,0
256,344,54323,1,8
256,344,54547,1,0
336,272,54771,6,0,B|364:238|372:190,1,90
176,112,55219,2,0,B|147:145|139:193,1,90,8|0
256,344,55666,2,0,B|208:336|168:304,1,90
256,32,56114,2,0,B|304:40|344:72,1,90,8|0
408,128,56562,5,0
352,192,56786,1,0
408,264,57010,1,8
344,328,57234,1,0
256,304,57457,1,2
256,304,57569,1,0
168,328,57793,1,0
168,328,57905,1,2
168,328,58017,1,0
168,328,58129,2,0,B|120:344|64:304,1,90,2|4
136,240,58577,5,0
160,80,58801,1,0
136,240,59025,1,0
104,152,59248,2,0,B|160:152|216:184,1,90
408,152,59696,2,0,B|352:152|296:184,1,90
384,240,60144,5,0
352,80,60368,1,0
384,240,60592,1,0
256,112,60816,1,0
128,240,61040,2,0,B|144:288|192:328,1,90
384,240,61487,2,0,B|368:288|320:328,1,90
256,360,61935,5,0
256,272,62159,1,0
256,184,62383,1,0
256,96,62607,1,0
168,96,62831,2,0,B|96:32,1,90
344,96,63278,2,0,B|416:32,1,90
256,144,63726,5,0
176,184,63950,1,0
216,264,64174,1,0
296,224,64398,1,0
280,88,64622,5,2
120,168,64845,1,0
200,328,65069,1,2
360,248,65293,1,0
456,120,65517,6,0,B|424:160|344:168,1,90
376,72,65965,2,0,B|344:24|280:24,1,90,8|0
56,120,66413,2,0,B|88:160|168:168,1,90
136,72,66860,2,0,B|168:24|232:24,1,90,8|0
256,192,67308,5,0
192,256,67532,2,0,B|176:312|112:320,2,90,0|8|0
320,128,68204,2,0,B|336:72|400:64,2,90,0|0|8
256,192,68875,1,0
256,280,69099,6,0,B|256:376,1,90
168,192,69547,2,0,B|80:192,1,90,8|0
256,104,69995,2,0,B|256:16,1,90
344,192,70442,2,0,B|456:192,1,90,8|0
168,192,70890,5,0
344,192,71114,1,0
80,192,71338,1,0
432,192,71562,1,0
256,192,71786,12,0,72681
168,192,72905,5,0
344,192,73129,1,0
256,360,73577,5,0
256,336,73689,1,0
256,312,73801,1,0
256,288,73913,1,0
256,264,74025,1,0
256,240,74137,1,0
256,216,74248,1,0
256,192,74360,1,0
256,168,74472,6,0,B|256:72,1,90,4|0
176,120,74920,2,0,B|140:160|88:152,1,90,8|0
336,120,75368,2,0,B|372:160|424:152,2,90,0|0|8
256,188,76040,1,0
184,244,76263,6,0,B|176:292|120:324,1,90
256,100,76711,2,0,B|232:44|160:28,1,90,8|0
328,244,77159,2,0,B|384:244|424:212,1,90
352,144,77607,1,8
352,144,77719,1,0
352,144,77831,1,0
352,144,77942,1,0
352,144,78054,6,0,B|392:104|456:112,1,90
416,200,78502,1,8
256,264,78726,1,0
336,232,78950,1,0
176,296,79174,2,0,B|80:336,2,90,0|8|0
58,164,79845,6,0,B|72:216|120:240,1,90
189,81,80293,2,0,B|152:112|152:160,1,90,8|0
324,126,80741,2,0,B|280:120|240:152,1,90
390,233,81189,1,8
390,233,81301,1,0
390,233,81413,1,0
390,233,81525,1,0
390,233,81637,6,0,B|352:208|304:216,1,90
336,304,82084,1,8
296,328,82196,1,0
256,344,82308,1,0
216,328,82420,1,0
176,304,82532,2,0,B|128:280|104:216,1,90
336,304,82980,2,0,B|384:280|408:216,1,90,8|0
256,192,83428,5,0
256,40,83651,1,0
256,344,83875,1,8
144,192,84099,2,2,B|192:128|256:112|320:128|376:200,1,270,0|8
256,248,84995,1,0
256,248,85107,1,0
256,248,85219,6,0,B|272:304|200:352,1,90,0|0
168,264,85666,2,0,B|128:296|64:272,1,90,8|0
344,120,86114,2,0,B|384:88|448:112,1,90,0|0
256,136,86562,2,0,B|240:80|312:32,1,90,8|0
344,120,87010,5,0
424,80,87234,1,0
472,160,87457,1,8
392,200,87681,1,0
392,288,87905,1,2
392,288,88017,1,0
392,288,88129,1,0
392,288,88241,1,0
392,288,88353,2,0,B|384:336|336:360,1,90,2|0
256,336,88801,5,4
208,264,89025,1,0
304,264,89248,1,8
160,184,89472,1,0
352,184,89696,1,0
256,32,89920,2,0,B|256:120,2,90,0|8|0
176,80,90592,6,0,B|144:32|80:40,1,90
336,80,91039,2,0,B|368:32|432:40,1,90,8|0
256,160,91487,2,0,B|272:208|240:256,1,90
168,192,91935,1,8
168,192,92047,1,0
168,192,92159,1,0
168,192,92271,1,0
168,192,92383,6,0,B|72:192,1,90
344,192,92831,2,0,B|440:192,2,90,8|0|0
256,192,93502,1,0
78,192,93726,1,8
434,192,93950,1,0
256,104,94174,6,0,B|312:80|304:0,1,90
256,280,94622,2,0,B|200:304|208:384,1,90,8|0
160,192,95069,2,0,B|112:200|72:176,1,90
352,192,95517,2,0,B|400:184|440:208,1,90,8|0
256,192,95965,5,0
256,280,96189,1,0
256,368,96413,1,8
256,368,96525,1,0
256,368,96637,1,0
176,320,96860,2,0,B|80:320,1,90
336,320,97308,2,0,B|432:320,1,90,8|0
256,192,97756,5,0
256,344,97980,1,0
256,40,98204,1,8
144,192,98428,2,2,B|192:256|256:272|320:256|376:184,1,270,0|8
256,40,99323,1,0
256,128,99547,6,0,B|256:192,2,45,4|0|0
168,152,99995,1,2
344,152,100219,1,2
256,296,100442,6,0,B|256:344,2,45,4|0|0
120,320,100890,1,2
392,320,101114,1,2
256,65,101338,5,4
171,294,101562,1,4
380,159,101786,1,0
129,159,102010,1,4
338,294,102234,1,0
256,192,102681,5,2
256,192,103129,12,0,106711
264,216,117457,6,0,B|216:224|168:192|152:128|168:96,1,180,4|8
256,128,118129,1,0
336,88,118353,2,0,B|368:48|432:56,1,90
408,144,118801,1,8
440,176,118913,1,0
440,224,119025,1,0
272,256,119248,6,0,B|328:251|352:211,1,90
216,96,119696,2,0,B|160:96|128:152,1,90,8|0
216,184,120144,2,0,B|272:179|296:139,1,90
152,24,120592,2,0,B|96:24|64:80,1,90,8|0
40,152,121039,5,0
80,232,121263,1,0
152,288,121487,1,8
240,320,121711,1,0
112,368,121935,5,0
152,288,122159,1,0
216,224,122383,1,8
304,200,122607,1,0
392,192,122831,6,0,B|432:152|408:80,1,90
276,26,123278,2,0,B|320:48|328:96,1,90,8|0
181,189,123726,2,0,B|232:176|248:136,1,90
160,104,124174,1,8
256,256,124398,1,8
344,256,124622,6,0,B|384:344,1,90
168,256,125069,2,0,B|80:208,1,90,8|0
344,256,125517,2,0,B|432:208,1,90
168,256,125965,2,0,B|128:344,1,90,8|0
256,320,126413,5,0
256,232,126637,1,0
256,144,126860,1,8
256,56,127084,1,0
176,96,127308,5,0
344,160,127532,1,0
256,320,127756,1,8
88,256,127980,1,0
88,256,128092,1,0
88,256,128204,6,0,B|80:192|120:144,1,90
188,309,128651,2,0,B|168:280|168:224,1,90,8|0
299,332,129099,2,0,B|264:304|256:256,1,90
415,309,129547,2,0,B|376:296|344:256,1,90,8|0
488,192,129995,5,0
448,112,130219,1,0
360,136,130442,1,8
320,56,130666,1,0
232,80,130890,1,2
192,72,131002,1,0
144,72,131114,1,0
104,96,131226,1,0
80,136,131338,1,2
72,184,131450,1,0
80,224,131562,1,0
96,264,131674,1,0
128,296,131786,6,0,B|145:341|198:365|261:346|280:316,1,180,4|8
360,272,132457,1,0
416,200,132681,1,0
320,192,132905,1,0
456,288,133129,1,8
320,192,133353,1,0
224,184,133577,6,0,B|240:128|296:104,1,90
144,144,134025,2,0,B|136:200|64:232,1,90,8|0
56,136,134472,1,0
184,256,134696,1,0
224,80,134920,1,8
352,200,135144,1,0
352,200,135256,1,0
352,200,135368,6,0,B|376:152|440:152,1,90
256,248,135816,1,8
256,248,136039,1,0
160,200,136263,2,0,B|136:152|72:152,1,90
256,144,136711,1,8
256,144,136935,1,0
256,48,137159,5,0
256,248,137383,1,0
256,144,137607,1,8
256,344,137831,1,0
168,296,138054,5,0
256,144,138278,1,0
344,296,138502,1,8
344,296,138614,1,0
344,296,138726,1,0
344,296,138838,1,0
344,296,138950,6,0,B|432:240|432:240,1,90
168,296,139398,2,0,B|80:240|80:240,1,90,8|0
304,200,139845,2,0,B|360:128,1,90
208,200,140293,2,0,B|152:128,1,90,8|0
256,56,140741,5,0
256,144,140965,1,0
256,232,141189,1,8
256,320,141413,1,0
260,240,141637,5,0
144,80,141860,1,0
260,240,142084,1,8
368,80,142308,1,0
424,152,142532,6,0,B|432:200|392:248,1,90
311,89,142980,2,0,B|336:128|328:176,1,90,8|0
168,96,143428,2,0,B|208:112|240:152,1,90
63,174,143875,2,0,B|104:168|152:184,1,90,8|0
104,264,144323,5,0
192,272,144547,1,0
232,192,144771,1,8
320,176,144995,1,0
304,88,145219,1,2
304,88,145331,1,0
384,56,145554,1,0
384,56,145666,1,2
384,56,145778,1,0
384,56,145890,2,0,B|440:64|472:128,1,90,2|4
376,144,146338,5,0
432,312,146562,1,0
376,144,146786,1,0
448,200,147010,2,0,B|416:240|344:232,1,90
328,216,147345,2,0,B|280:192|224:208,1,90
200,216,147681,1,0
168,248,147793,1,0
120,248,147905,6,0,B|72:256|24:216,1,90
96,160,148353,1,0
48,328,148577,1,0
96,160,148801,2,0,B|64:112|80:48,1,90
120,56,149137,2,0,B|168:80|224:56,1,90
248,48,149472,1,0
296,48,149584,1,0
336,64,149696,6,0,B|392:80|408:160,2,90
256,192,150368,1,0
176,320,150592,2,0,B|120:304|104:224,2,90
256,192,151263,1,0
192,128,151487,6,0,B|200:72|152:32,1,90
320,128,151935,2,0,B|312:72|360:32,1,90
256,24,152383,5,2
88,108,152607,1,0
256,192,152831,1,2
424,108,153054,1,0
192,128,153278,6,0,B|160:168|160:232,1,90
320,128,153726,2,0,B|352:168|352:232,1,90,8|0
192,295,154174,2,0,B|160:255|160:191,1,90
320,295,154622,2,0,B|352:255|352:191,1,90,8|0
256,192,155069,5,0
192,128,155293,2,0,B|176:72|112:64,2,90,0|8|0
320,256,155965,2,0,B|336:312|400:320,2,90,0|0|8
256,192,156637,1,0
193,129,156860,6,0,B|125:61,1,90
193,254,157308,2,0,B|131:316,1,90,8|0
318,254,157756,2,0,B|380:316,1,90
318,129,158204,2,0,B|397:50,1,90,8|0
256,48,158651,5,0
104,192,158875,1,0
256,336,159099,1,0
408,192,159323,1,0
256,192,159547,12,0,160442
256,192,160666,5,0
184,248,160890,1,0
216,280,161002,1,0
256,288,161114,1,0
296,280,161226,1,0
328,248,161338,2,0,B|352:248,4,22.5
328,160,161786,1,0
296,128,161898,1,0
256,120,162010,1,0
216,128,162122,1,0
184,160,162234,6,0,B|144:184|128:256,1,90,4|0
280,320,162681,2,0,B|320:296|336:224,1,90,8|0
234,239,163129,1,0
392,328,163353,1,0
384,144,163577,1,8
234,239,163801,1,0
144,240,164025,6,0,B|80:304,1,90
368,240,164472,2,0,B|432:304,1,90,8|0
256,80,164920,5,0
256,304,165144,1,0
256,216,165368,2,0,B|256:152,4,45,8|0|0|0|0
160,184,166039,6,0,B|104:104,1,90,0|8
352,200,166487,2,0,B|408:280,1,90,0|0
256,192,166935,1,0
108,110,167159,1,8
404,274,167383,1,0
328,120,167607,6,0,B|352:72|416:64,1,90
184,120,168054,2,0,B|160:72|96:64,1,90,8|0
96,168,168502,5,2
104,216,168614,1,0
128,256,168726,1,0
160,288,168838,1,0
200,312,168950,1,2
248,320,169062,1,0
296,312,169174,1,0
336,296,169286,1,0
376,272,169398,6,0,B|424:248|440:184,1,90
344,184,169845,2,0,B|344:136,2,45,8|0|0
256,160,170293,1,0
416,80,170517,1,0
256,160,170741,1,8
96,80,170965,1,0
160,184,171189,6,0,B|184:224|168:280,1,90
352,184,171637,2,0,B|328:224|344:280,1,90,8|0
96,240,172084,2,0,B|96:288|48:320,1,90
416,240,172532,2,0,B|416:288|464:320,1,90,8|0
256,304,172980,5,0
144,192,173204,1,0
256,80,173428,1,8
368,192,173651,1,0
186,317,173875,5,0
127,122,174099,1,0
321,63,174323,1,8
381,257,174547,1,0
122,279,174771,5,0
165,58,174995,1,0
385,101,175219,1,8
343,321,175442,1,0
256,192,175666,5,2
256,192,175778,1,0
256,192,175890,1,0
256,192,176002,1,0
256,192,176114,1,2
256,192,176338,1,0
160,192,176562,5,4
160,192,176786,1,0
352,192,177010,1,8
352,192,177234,1,0
256,352,177457,1,0
256,168,177681,2,0,B|256:264,2,90,0|8|0
256,80,178353,5,0
256,80,178577,1,0
256,304,178801,1,8
256,304,179025,1,0
144,192,179248,5,0
368,192,179472,1,0
280,192,179696,2,0,B|216:192,4,45,8|0|0|0|0
368,192,180368,6,0,B|432:256,1,90,0|8
144,192,180816,2,0,B|80:128,1,90
256,192,181263,5,0
256,32,181487,1,8
256,352,181711,1,0
184,264,181935,6,0,B|160:312|96:320,1,90
328,264,182383,2,0,B|352:312|416:320,1,90,8|0
416,216,182831,5,2
408,168,182942,1,0
384,128,183054,1,0
352,96,183166,1,0
312,72,183278,1,2
264,64,183390,1,0
216,72,183502,1,0
176,88,183614,1,0
136,112,183726,6,0,B|80:136|64:200,1,90
160,192,184174,1,8
212,268,184398,1,0
300,268,184622,1,0
352,192,184845,1,0
256,176,185069,2,0,B|256:128,2,45,8|0|0
256,48,185517,5,0
112,192,185741,1,0
256,336,185965,1,8
400,192,186189,1,0
112,192,186413,5,0
152,208,186525,1,0
192,192,186637,1,0
400,192,186860,1,8
360,176,186972,1,0
320,192,187084,1,0
256,336,187308,5,4
256,336,187420,1,0
256,336,187532,1,0
192,264,187756,1,2
256,192,187980,1,2
256,48,188204,5,4
256,48,188316,1,0
256,48,188428,1,0
320,120,188651,1,2
256,192,188875,1,2
256,360,189099,5,4
76,219,189323,1,0
142,31,189547,1,4
368,31,189771,1,0
434,219,189995,1,4
256,192,190442,5,2
256,192,190890,1,4
