osu file format v9

[General]
AudioFilename: Streamline Prism.mp3
AudioLeadIn: 0
PreviewTime: 74031
Countdown: 0
SampleSet: Normal
StackLeniency: 0.7
Mode: 0
LetterboxInBreaks: 1

[Editor]
DistanceSpacing: 1.1
BeatDivisor: 4
GridSize: 8

[Metadata]
Title:Streamline Prism
Artist:Kagamine Rin & Len
Creator:banvi
Version:Hard
Source:GIGA-P
Tags:Vocaloid Vocaloid2

[Difficulty]
HPDrainRate:5
CircleSize:4
OverallDifficulty:6
ApproachRate:7
SliderMultiplier:1.6
SliderTickRate:2

[Events]
//Background and Video events
0,0,"bg.jpg"
//Break Periods
2,22732,28796
2,106911,116557
//Storyboard Layer 0 (Background)
//Storyboard Layer 1 (Fail)
//Storyboard Layer 2 (Pass)
//Storyboard Layer 3 (Foreground)
//Storyboard Sound Samples
//Background Colour Transformations
3,100,163,162,255

[TimingPoints]
1040,447.761194029851,4,1,0,70,1,0
72681,-100,4,1,0,60,0,0
74472,-100,4,1,0,70,0,1
106711,-100,4,1,0,70,0,0
160442,-100,4,1,0,60,0,0
162234,-100,4,1,0,70,0,1
190890,-100,4,1,0,70,0,0

[Colours]
Combo1 : 255,128,0
Combo2 : 248,49,14
Combo3 : 242,214,49
Combo4 : 164,82,0

[HitObjects]
256,192,11562,1,0
256,192,11786,1,0
256,192,12457,1,0
256,192,12681,1,0
256,192,13353,1,0
168,192,13577,6,0,B|104:192,2,40
212,116,14025,2,0,B|156:116,2,40
300,116,14472,1,0
300,116,14696,1,0
348,192,14920,2,0,B|412:192,2,40
300,268,15368,6,0,B|260:356|132:332,1,160,4|8
80,176,16263,2,0,B|120:88|248:112,1,160,0|8
212,107,16823,1,0
212,107,16935,1,0
176,200,17159,6,0,B|256:200,1,80
224,284,17607,2,0,B|312:284,1,80,8|0
392,284,18054,2,0,B|424:252|408:196,1,80
372,188,18390,2,0,B|359:145|388:112,1,80
416,80,18726,1,0
324,52,18950,5,0
236,52,19174,1,0
164,100,19398,1,8
164,100,19510,1,0
164,100,19622,1,0
96,156,19845,2,0,B|72:188|80:236,1,80
164,208,20293,2,0,B|171:252|147:284,1,80,8|0
112,312,20629,1,0
80,344,20741,5,0
256,344,21189,1,8
432,344,21637,1,2
432,344,21748,1,0
432,344,21860,1,0
344,344,22084,1,2
344,344,22196,1,0
344,344,22308,1,0
256,344,22532,5,4
248,72,29696,6,0,B|152:72|128:168,1,160,4|8
248,312,30592,2,0,B|344:312|368:216,1,160,0|8
366,224,31151,1,0
366,224,31263,1,0
272,216,31487,6,0,B|268:168|304:136,1,80
364,88,31935,2,0,B|332:56|276:56,2,80,8|0|0
424,152,32607,1,0
424,240,32831,1,8
424,240,32942,1,0
424,240,33054,1,0
372,312,33278,6,0,B|308:264,1,80
256,336,33726,2,0,B|192:288,1,80,8|0
120,236,34174,1,0
120,148,34398,1,0
120,236,34622,1,8
120,148,34845,1,0
152,64,35069,6,0,B|264:64,1,80
296,136,35517,2,0,B|196:136,1,80,8|0
280,208,35965,2,0,B|392:208,1,80
360,208,36301,1,0
360,208,36413,1,8
452,208,36637,1,8
452,300,36860,6,0,B|448:348|392:376,1,80
328,336,37308,2,0,B|296:304|240:300,1,80,8|0
180,348,37756,2,0,B|96:328|72:232,1,160,0|8
52,156,38428,1,0
96,84,38651,6,0,B|128:48|204:52,2,80,0|0|8
168,136,39323,1,0
256,136,39547,2,0,B|328:184|308:288,1,160,0|8
256,348,40219,1,0
256,348,40331,1,0
256,348,40442,6,0,B|116:240,1,160,0|8
256,36,41338,2,0,B|396:144,1,160,0|8
256,348,42234,5,0
192,288,42457,1,0
192,200,42681,1,8
256,140,42905,1,0
344,140,43129,2,0,B|392:140,2,40,2|0|0
316,56,43577,2,0,B|372:56,2,40,2|0|0
228,56,44025,6,0,B|176:120|64:112,1,160,4|8
100,28,44696,1,0
84,113,44920,2,0,B|132:177|104:269,1,160,0|8
64,344,45592,1,0
152,344,45816,6,0,B|200:348|240:320,1,80
280,256,46263,2,0,B|327:252|356:272,1,80,8|0
440,308,46711,1,0
484,232,46935,1,0
412,180,47159,1,8
448,100,47383,1,0
448,100,47495,1,0
448,100,47607,6,0,B|376:44,1,80
332,120,48054,2,0,B|260:84,1,80,8|0
244,172,48502,2,0,B|164:180,1,80
204,260,48950,2,0,B|140:316,1,80,8|0
143,312,49398,5,0
256,360,49622,1,0
368,312,49845,1,8
256,360,50069,1,0
256,272,50293,6,0,B|256:188,1,80
256,192,50629,1,0
256,192,50741,1,8
256,104,50965,1,8
344,104,51189,6,0,B|424:104,1,80
412,192,51637,2,0,B|504:192,1,80,8|0
476,280,52084,1,0
420,348,52308,1,0
332,348,52532,1,8
272,284,52756,1,0
184,284,52980,6,0,B|80:284,2,80,0|0|8
256,232,53651,1,0
332,184,53875,2,0,B|436:184,2,80,0|0|8
256,136,54547,1,0
256,92,54659,1,0
256,48,54771,5,0
72,192,55219,1,8
256,336,55666,1,0
440,192,56114,1,8
256,192,56562,5,0
256,192,57010,1,8
256,192,57457,2,0,B|200:192,1,40,2|0
128,192,57793,2,0,B|72:192,3,40,0|2|0|0
108,276,58353,6,0,B|168:348,1,80,4|0
236,296,58801,2,0,B|296:368,1,80
352,300,59248,2,0,B|396:324|448:312,1,80
468,296,59584,2,0,B|492:248|480:200,1,80
484,176,59920,1,0
448,96,60144,5,0
372,48,60368,1,0
300,100,60592,1,0
228,48,60816,1,0
156,100,61040,2,0,B|144:140|104:172,1,80
80,192,61375,2,0,B|92:240|148:264,1,80
168,272,61711,1,0
256,300,61935,6,0,B|364:300,2,80
256,84,62831,2,0,B|148:84,2,80
344,84,63502,1,0
344,84,63614,1,0
344,84,63726,6,0,B|388:96|408:148,1,80
320,168,64174,2,0,B|338:207|378:219,1,80
464,240,64622,1,0
404,304,64845,1,0
320,280,65069,1,0
256,340,65293,1,0
168,320,65517,5,0
64,171,65965,1,8
212,67,66413,1,0
315,216,66860,1,8
256,280,67084,1,8
197,216,67308,5,0
305,51,67756,1,8
468,166,68204,1,0
352,328,68651,1,8
256,352,68875,1,8
160,328,69099,5,0
91,105,69547,1,8
310,38,69995,1,0
376,256,70442,1,8
376,256,70666,1,8
296,232,70890,6,0,B|256:320,1,80
216,152,71338,2,0,B|256:64,1,80
256,192,71786,12,0,72681
256,192,73129,5,0
256,192,73577,2,0,B|256:256,6,40
256,104,74472,6,0,B|272:56|320:40,1,80,4|0
392,64,74920,2,0,B|376:112|328:128,1,80,8|0
392,192,75368,1,0
448,264,75592,1,0
376,320,75816,1,8
320,248,76039,1,0
232,248,76263,6,0,B|64:248,2,160,0|8|0
320,248,77383,1,0
408,248,77607,1,8
408,208,77719,1,0
408,168,77831,1,0
408,80,78054,6,0,B|384:40|328:24,1,80
272,80,78502,2,0,B|240:112|192:112,1,80,8|0
112,104,78950,1,0
64,176,79174,2,0,B|32:208|32:256,2,80,0|8|0
120,240,79845,5,0
184,304,80069,1,0
256,352,80293,1,8
328,304,80517,1,0
392,240,80741,2,0,B|432:224|456:176,1,80
368,160,81189,2,0,B|320:144|304:96,1,80,8|0
392,80,81637,5,0
392,80,81860,1,0
320,32,82084,1,8
320,32,82308,1,0
248,80,82532,1,0
248,80,82644,1,0
248,80,82756,2,0,B|232:128|176:144,2,80,0|8|0
160,56,83428,5,0
48,128,83651,1,0
128,232,83875,1,8
240,160,84099,2,2,B|328:64|464:128,1,240,0|8
416,208,84995,1,0
416,208,85107,1,0
416,208,85219,5,0
296,336,85666,1,8
128,280,86114,1,0
296,336,86562,1,8
256,168,87010,6,0,B|256:112|216:80,1,80
168,152,87457,2,0,B|144:112|104:104,1,80,8|0
88,192,87905,2,0,B|40:192,4,40,2|0|0|0|2
88,192,88577,1,0
128,272,88801,5,4
192,328,89025,1,0
256,272,89248,1,8
320,328,89472,1,0
384,272,89696,1,0
448,216,89920,2,0,B|480:184|480:136,2,80,0|8|0
392,152,90592,6,0,B|224:152,2,160,0|8|0
392,64,91711,1,0
304,64,91935,1,8
256,64,92047,1,0
208,64,92159,1,0
120,64,92383,6,0,B|72:80|56:136,1,80
144,144,92831,2,0,B|184:160|200:216,1,80,8|0
112,224,93278,1,0
112,224,93502,2,0,B|16:224,2,80,0|8|0
156,300,94174,5,0
212,368,94398,1,0
300,368,94622,1,8
356,300,94845,1,0
296,232,95069,2,0,B|288:176|320:144,1,80
384,208,95517,2,0,B|406:179|398:131,1,80,8|0
336,72,95965,5,0
256,32,96189,1,0
176,72,96413,1,8
176,72,96525,1,0
176,72,96637,1,0
224,144,96860,2,0,B|232:192|208:224,1,80
296,216,97308,2,0,B|272:248|282:292,1,80,8|0
368,272,97756,5,0
480,200,97980,1,0
400,96,98204,1,8
288,168,98428,2,2,B|200:264|64:200,1,240,0|8
36,120,99323,1,0
112,72,99547,6,0,B|192:24,2,80,4|0|2
36,120,100219,1,0
68,204,100442,2,0,B|92:292,2,80,4|0|2
36,120,101114,1,0
120,148,101338,6,0,B|196:176,1,80,4|0
392,236,101786,2,0,B|316:208,1,80,4|0
256,320,102234,5,4
256,64,102681,1,2
256,192,103129,12,0,106711
264,72,117457,6,0,B|360:72|384:168,1,160,4|8
264,312,118353,2,0,B|168:312|144:216,1,160,0|8
146,224,118913,1,0
146,224,119025,1,0
136,136,119248,5,0
168,56,119472,1,0
256,40,119696,2,0,B|296:32|344:56,2,80,8|0|0
288,120,120368,2,0,B|325:139|365:131,2,80,0|8|0
256,40,121039,6,0,B|160:32|120:128,1,160,0|8
88,192,121711,1,0
128,272,121935,2,0,B|112:317|71:336,1,80
175,345,122383,2,0,B|207:377|269:367,1,80,8|0
328,320,122831,5,0
392,264,123054,1,0
440,192,123278,1,8
392,120,123502,1,0
328,64,123726,2,0,B|216:64,1,80
248,64,124062,1,0
248,64,124174,1,8
160,64,124398,1,8
80,104,124622,6,0,B|80:192,1,80
144,248,125069,2,0,B|144:144,1,80,8|0
208,232,125517,2,0,B|208:320,1,80
296,312,125965,2,0,B|344:312,2,40,8|0|0
328,232,126413,5,0
392,176,126637,1,0
456,232,126860,1,8
392,176,127084,1,0
392,88,127308,2,0,B|360:48|312:48,1,80
312,136,127756,2,0,B|264:128|240:80,1,80,8|0
224,56,128092,1,0
184,56,128204,6,0,B|88:56,1,80
144,136,128651,2,0,B|80:200,1,80,8|0
176,216,129099,2,0,B|144:304,1,80
240,280,129547,2,0,B|272:368,1,80,8|0
344,312,129995,6,0,B|432:312,2,80,0|0|8
344,312,130666,1,0
344,224,130890,2,0,B|408:224,2,40,2|0|0
344,136,131338,2,0,B|400:136,2,40,2|0|0
344,48,131786,5,4
168,48,132234,1,8
168,48,132457,1,0
136,128,132681,2,0,B|88:112|80:64,2,80,0|0|8
224,120,133353,1,0
288,184,133577,6,0,B|320:216|320:272,1,80
232,248,134025,2,0,B|240:296|216:344,1,80,8|0
144,280,134472,2,0,B|112:312|56:304,1,80
80,216,134920,1,8
136,144,135144,1,0
136,144,135256,1,0
136,144,135368,6,0,B|192:88,1,80
256,32,135816,1,8
256,32,136039,1,0
319,87,136263,2,0,B|376:144,1,80
440,200,136711,1,8
440,200,136935,1,0
376,256,137159,5,0
256,320,137383,1,0
312,200,137607,1,8
192,264,137831,1,0
104,264,138054,6,0,B|64:232|64:176,1,80
65,196,138390,1,0
65,196,138502,1,8
64,112,138726,1,8
128,48,138950,6,0,B|208:48,1,80
168,128,139398,2,0,B|272:128,1,80,8|0
336,128,139845,1,0
408,80,140069,1,0
456,152,140293,1,8
384,200,140517,1,0
432,272,140741,6,0,B|368:320,1,80
288,280,141189,2,0,B|224:328,1,80,8|0
136,328,141637,1,0
48,328,141860,1,0
136,328,142084,1,8
120,240,142308,1,0
104,152,142532,6,0,B|240:48,1,160,0|8
408,232,143428,2,0,B|272:336,1,160,0|8
256,192,144323,5,0
256,192,144771,1,8
256,192,145219,2,2,B|256:152,1,40,2|0
256,64,145554,2,0,B|256:16,3,40,0|2|0|0
344,48,146114,6,0,B|432:48,1,80,4|0
384,128,146562,2,0,B|440:192,1,80
424,272,147010,2,0,B|408:312|360:336,1,80
328,312,147345,2,0,B|296:280|248:280,1,80
216,288,147681,1,0
128,288,147905,5,0
56,236,148129,1,0
56,148,148353,1,0
128,96,148577,1,0
216,96,148801,2,0,B|249:58|303:52,1,80
326,61,149137,2,0,B|363:97|368:147,1,80
372,172,149472,1,0
372,260,149696,6,0,B|372:340,2,80
140,260,150592,2,0,B|140:340,2,80
140,172,151263,1,0
140,172,151487,6,0,B|64:116,1,80
160,88,151935,2,0,B|224:24,1,80
312,48,152383,1,0
400,64,152607,1,0
384,152,152831,1,0
472,168,153054,1,0
464,256,153278,6,0,B|440:344|328:352,1,160,0|8
240,208,154174,2,0,B|264:120|376:112,1,160,0|8
424,168,154845,1,8
344,200,155069,6,0,B|310:107|217:99,1,160,0|8
88,248,155965,2,0,B|120:336|214:348,1,160,0|8
307,347,156637,1,8
376,280,156860,6,0,B|416:200|376:120,1,160,0|8
136,104,157756,2,0,B|96:184|136:264,1,160,0|8
133,258,158428,1,8
216,296,158651,5,0
288,248,158875,1,0
240,176,159099,1,0
312,128,159323,1,0
256,192,159547,12,0,160442
256,280,160890,5,0
256,280,161002,1,0
256,280,161114,1,0
256,192,161338,2,0,B|256:144,6,40
256,280,162234,6,0,B|440:280,2,160,4|8|0
192,344,163353,1,0
128,280,163577,1,8
192,216,163801,1,0
128,152,164025,6,0,B|88:120|88:64,1,80
176,80,164472,2,0,B|192:40|248:32,1,80,8|0
256,120,164920,1,0
256,120,165144,1,0
344,120,165368,1,8
384,120,165480,1,0
424,120,165592,1,0
424,208,165816,6,0,B|424:376,2,160,0|8|0
424,120,166935,2,0,B|456:88|448:40,2,80,0|8|0
360,56,167607,5,0
272,32,167831,1,0
296,120,168054,1,8
208,96,168278,1,0
120,96,168502,2,0,B|72:104|48:152,1,80
128,184,168950,2,8,B|136:232|96:272,1,80,8|0
72,336,169398,6,0,B|168:336,1,80
240,336,169845,1,8
240,336,169957,1,0
240,336,170069,1,0
256,248,170293,1,0
344,248,170517,1,0
432,248,170741,2,0,B|472:216|464:168,1,80,8|0
376,176,171189,5,0
472,88,171413,1,0
344,48,171637,1,8
376,176,171860,2,2,B|304:184|256:64|168:48,1,240,0|8
88,40,172756,1,0
88,40,172868,1,0
88,40,172980,5,0
48,208,173428,1,8
224,240,173875,1,0
256,64,174323,1,8
224,240,174771,6,0,B|232:288|280:312,1,80
312,232,175219,2,0,B|344:272|400:280,1,80,8|0
392,192,175666,2,0,B|440:192,4,40,2|0|0|0|2
392,192,176338,1,0
392,104,176562,6,0,B|376:56|336:40,1,80,4|0
304,120,177010,2,0,B|288:168|240:184,2,80,8|0|0
216,96,177681,1,0
144,48,177905,1,8
72,96,178129,1,0
72,184,178353,6,0,B|72:280,1,80
144,216,178801,2,0,B|144:320,1,80,8|0
216,248,179248,2,0,B|216:336,1,80
288,280,179696,1,8
328,280,179808,1,0
368,280,179920,1,0
456,280,180144,6,0,B|488:240|472:184,1,80
400,160,180592,2,0,B|400:104|360:72,1,80,8|0
304,32,181039,1,0
240,88,181263,2,0,B|136:88,2,80,0|8|0
304,152,181935,5,0
248,216,182159,1,0
304,280,182383,1,8
248,216,182607,1,0
160,216,182831,2,0,B|152:264|112:288,1,80
72,208,183278,2,0,B|80:160|120:136,1,80,8|0
184,96,183726,5,0
256,48,183950,1,0
304,120,184174,1,8
232,168,184398,1,0
288,240,184622,2,0,B|288:288|232:320,1,80
200,240,185069,2,0,B|176:280|120:280,1,80,8|0
128,192,185517,5,0
32,104,185741,1,0
160,64,185965,1,8
128,192,186189,2,2,B|200:200|248:80|336:64,1,240,0|8
416,56,187084,1,0
444,140,187308,6,0,B|477:175|486:217,1,80,4|0
393,221,187756,2,0,B|406:269|391:318,1,80,2|0
313,275,188204,2,0,B|304:319|269:352,1,80,4|0
219,281,188651,2,0,B|190:310|148:319,1,80,2|0
144,232,189099,5,4
188,112,189323,1,0
324,112,189547,1,4
368,232,189771,1,0
256,312,189995,1,4
256,192,190442,5,2
256,192,190890,1,4
