osu file format v9

[General]
AudioFilename: Rin Rin Signal.mp3
AudioLeadIn: 2500
PreviewTime: 61979
Countdown: 0
SampleSet: Soft
StackLeniency: 0.7
Mode: 0
LetterboxInBreaks: 1

[Editor]
DistanceSpacing: 1
BeatDivisor: 4
GridSize: 4

[Metadata]
Title:Rin Rin Signal
Artist:Kagamine Rin & Len
Creator:banvi
Version:Normal
Source:Signal-P
Tags:Dios Vocaloid Vocaloid2

[Difficulty]
HPDrainRate:4
CircleSize:3
OverallDifficulty:3
ApproachRate:3
SliderMultiplier:1
SliderTickRate:1

[Events]
//Background and Video events
0,0,"bgg.jpg"
//Break Periods
2,93207,105116
2,200626,213503
//Storyboard Layer 0 (Background)
//Storyboard Layer 1 (Fail)
//Storyboard Layer 2 (Pass)
//Storyboard Layer 3 (Foreground)
//Storyboard Sound Samples
//Background Colour Transformations
3,100,163,162,255

[TimingPoints]
105,483.870967741935,4,2,1,60,1,0
9540,-100,4,2,1,65,0,0
11475,-100,4,2,1,70,0,0
13411,-100,4,2,1,75,0,0
62040,-100,4,2,1,80,0,1
62161,-100,4,2,1,80,0,0
77524,-100,4,2,1,80,0,1
77645,-100,4,2,1,80,0,0
106072,-100,4,2,1,75,0,0
154943,-100,4,2,1,80,0,1
155064,-100,4,2,1,80,0,0
170427,-100,4,2,1,80,0,1
170545,-100,4,2,1,80,0,0
215911,-100,4,2,1,80,0,1
216032,-100,4,2,1,80,0,0

[Colours]
Combo1 : 0,255,255
Combo2 : 255,255,0
Combo3 : 0,255,0
Combo4 : 255,0,255

[HitObjects]
64,72,104,1,2
160,72,588,1,2
256,72,1072,2,0,B|352:72,2,75,2|0|2
256,120,2040,6,0,B|248:176|192:200,1,100,2|2
104,200,3008,2,0,B|112:256|160:280,1,100,2|2
256,280,3975,5,2
352,280,4459,1,2
448,280,4943,2,0,B|448:368,2,75,2|0|2
448,232,5911,6,0,B|488:192|480:128,1,100,2|2
384,160,6879,1,2
320,88,7363,1,2
224,88,7846,6,0,B|112:104|80:224,1,200,4|8
104,312,9298,1,0
200,344,9782,2,0,B|312:328|344:208,1,200,8|8
336,120,11234,1,8
256,64,11717,6,0,B|200:72|176:128,1,100,4|8
112,192,12685,2,0,B|128:240|176:272,1,100,2|8
256,320,13653,1,4
352,320,14137,1,4
400,232,14621,1,4
304,232,15104,1,4
352,144,15588,6,0,B|392:96|384:48,2,100,4|2|0
288,72,17040,1,2
192,72,17524,2,0,B|152:24|96:32,1,100,0|2
112,128,18492,1,8
112,128,18975,1,8
112,224,19459,6,0,B|65:231|25:183,2,100,0|2|0
200,176,20911,1,2
256,96,21395,2,0,B|280:48|336:40,1,100,0|2
392,120,22363,2,0,B|368:168|312:176,1,100,8|8
216,192,23330,5,4
144,120,23814,1,2
72,192,24298,1,0
144,264,24782,1,2
216,336,25266,2,0,B|328:336,2,100,8|2|8
144,264,26717,1,8
72,192,27201,6,0,B|32:152|48:80,1,100,4|2
144,128,28169,2,0,B|144:64|208:40,1,100,0|2
248,128,29137,1,8
344,128,29621,1,8
440,128,30105,2,0,B|496:128,4,50,4|0|4|0|4
440,232,31556,6,0,B|440:288|392:320,2,100,8|0|8
344,240,33008,1,0
272,176,33492,1,8
200,240,33975,1,0
128,176,34459,1,8
56,112,34943,6,0,B|96:64|168:88,1,100,0|8
224,144,35911,2,0,B|240:200|200:240,1,100,0|8
112,272,36879,2,0,B|48:256|32:192,1,100,0|8
128,176,37846,1,0
128,176,38330,1,8
200,104,38814,5,0
264,32,39298,1,4
360,32,39782,1,0
424,104,40266,1,4
488,184,40750,2,0,B|448:216|384:200,1,100,4|4
328,128,41717,2,0,B|273:114|233:146,1,100,4|4
296,224,42685,5,4
240,304,43169,1,8
144,304,43653,1,0
88,224,44137,1,8
144,144,44621,2,0,B|144:88|192:56,1,100,4|4
244,144,45588,1,4
244,144,46072,1,4
288,56,46556,5,4
384,56,47040,2,0,B|472:56,1,75,8|8
424,176,48008,1,8
424,176,48250,2,0,B|424:256|336:304,1,150,4|8
256,336,49459,1,4
164,300,49943,1,8
72,264,50427,5,4
72,168,50911,2,0,B|56:128|75:88,1,75,8|8
192,136,51879,2,0,B|192:80,2,50,8|0|4
288,168,52846,1,8
384,136,53330,2,0,B|440:120|488:168,1,100,4|8
416,232,54298,5,4
320,232,54782,2,0,B|232:232,1,75,8|8
144,304,55750,1,8
144,304,55992,2,0,B|99:232|145:160,1,150,4|8
200,80,57201,1,4
296,48,57685,1,8
392,80,58169,6,0,B|440:96|456:160,1,100,4|8
352,168,59137,2,0,B|296:184|280:240,1,100,4|8
376,264,60105,1,4
304,328,60588,1,4
208,328,61072,1,4
136,264,61556,1,4
192,184,62040,6,0,B|184:128|224:88,2,100,4|8|0
288,160,63492,1,8
384,160,63975,2,0,B|432:160,2,50,0|0|8
288,160,64943,1,0
192,160,65427,1,8
96,160,65911,6,0,B|96:112,2,50,4|0|8
192,160,66879,2,0,B|192:216|136:256,1,100,0|8
80,320,67846,1,4
176,352,68330,1,4
248,288,68814,1,4
344,320,69298,1,4
360,224,69782,5,4
456,224,70266,1,8
360,224,70750,1,0
408,136,71234,1,8
312,136,71717,2,0,B|312:80,2,50,0|0|8
216,136,72685,1,0
144,72,73169,1,8
72,136,73653,6,0,B|32:168|40:240,1,100,4|8
136,208,74621,2,0,B|128:264|168:312,1,100,4|8
240,240,75588,1,4
336,240,76072,1,8
432,240,76556,2,0,B|480:240,4,50,4|0|4|0|4
336,240,78008,5,8
280,320,78492,1,0
184,320,78975,1,8
128,240,79459,1,0
128,192,79701,1,0
128,144,79943,1,8
24,128,80427,2,0,B|28:72|80:48,1,100,0|8
176,49,81395,6,0,B|280:49,1,100,4|8
328,136,82363,2,0,B|224:136,1,100,4|8
128,136,83330,1,4
56,200,83814,1,4
128,264,84298,1,4
200,200,84782,1,4
272,264,85266,6,0,B|280:320|336:352,2,100,4|8|0
368,264,86717,1,8
464,264,87201,1,0
464,216,87443,1,0
464,168,87685,1,8
464,72,88169,2,0,B|464:24,2,50,0|0|8
368,72,89137,5,4
272,72,89621,1,8
232,160,90105,1,4
136,160,90588,1,8
96,248,91072,1,4
136,336,91556,1,8
232,336,92040,2,0,B|304:336,4,50,4|0|4|0|4
256,192,106556,12,4,108492
256,192,108975,6,0,B|256:248|200:280,2,100,8|0|8
152,192,110427,1,0
72,136,110911,1,8
128,56,111395,1,0
208,112,111879,1,8
304,112,112363,6,0,B|320:56|376:40,1,100,0|8
440,112,113330,2,0,B|424:168|368:184,1,100,0|8
280,208,114298,1,0
328,296,114782,1,8
240,344,115266,1,0
192,256,115750,1,8
92,248,116234,6,0,B|44:208|52:144,1,100,0|4
152,160,117201,2,0,B|136:104|168:64,1,100,0|4
248,128,118169,1,4
320,64,118653,1,4
392,128,119137,1,4
464,64,119621,1,8
392,128,120105,6,0,B|344:152|344:208,1,100,4|8
444,212,121072,2,0,B|443:269|395:293,1,100,0|8
320,360,122040,1,0
244,292,122524,1,8
320,224,123008,1,4
320,176,123250,1,0
320,128,123492,2,0,B|320:64,2,50,4|0|4
224,128,124459,6,0,B|200:72|144:56,2,100,8|0|8
128,152,125911,1,0
32,176,126395,1,8
56,272,126879,1,0
152,248,127363,1,8
128,152,127846,5,0
192,80,128330,1,8
280,40,128814,1,0
368,80,129298,1,8
432,152,129782,1,0
456,248,130266,2,0,B|456:304|400:344,2,100,8|0|8
352,248,131717,6,0,B|248:248|248:248,1,100,0|4
200,160,132685,2,0,B|304:160,1,100,0|4
400,160,133653,1,4
440,72,134137,1,4
352,32,134621,1,4
312,120,135105,1,4
272,208,135588,6,0,B|224:184|216:128,1,100,4|8
208,32,136556,2,0,B|153:39|129:87,1,100,0|8
136,184,137524,1,4
56,248,138008,1,4
40,152,138492,1,4
136,184,138975,1,4
152,280,139459,5,4
248,280,139943,2,0,B|328:280,1,75,8|8
448,280,140911,1,8
448,280,141153,1,4
448,128,141879,1,8
376,56,142363,1,0
304,128,142846,1,8
376,200,143330,5,4
304,272,143814,2,0,B|296:320|256:352,1,75,8|8
160,280,144782,2,0,B|104:280,2,50,8|0|4
144,184,145750,2,0,B|184:144|176:80,2,100,8|0|8
112,280,147201,5,4
208,280,147685,2,0,B|288:280,1,75,8|8
408,280,148653,1,8
408,280,148895,1,4
256,280,149621,2,0,B|264:336|312:368,2,100,8|4|8
332,216,151072,5,4
280,132,151556,1,8
180,132,152040,2,0,B|180:80,2,50,4|0|8
96,192,153008,1,4
160,264,153492,1,4
248,224,153975,1,4
312,296,154459,1,4
408,296,154943,6,0,B|464:272|480:208,2,100,4|8|0
376,200,156395,1,8
376,104,156879,2,0,B|376:48,2,50,0|0|8
288,156,157846,1,0
288,156,158330,1,8
272,56,158814,6,0,B|216:64|184:128,1,100,4|8
96,120,159782,2,0,B|104:176|168:208,1,100,4|8
240,240,160750,1,4
296,160,161234,1,4
384,208,161717,1,4
328,288,162201,1,4
272,368,162685,6,0,B|160:368,1,100,4|8
72,368,163653,2,0,B|72:312|120:280,1,100,0|8
216,280,164621,1,0
264,280,164863,1,0
312,280,165105,1,8
408,280,165588,2,0,B|432:232|406:182,1,100,0|8
352,104,166556,6,0,B|399:78|448:99,2,100,4|8|4
312,192,168008,1,8
256,112,168492,1,4
160,112,168975,1,8
104,192,169459,1,4
104,240,169701,1,0
104,288,169943,2,0,B|104:352,2,50,4|0|4
200,312,170911,5,8
296,312,171395,2,0,B|344:288|360:240,1,100,0|8
264,216,172363,1,0
264,168,172605,1,0
264,120,172846,1,8
224,24,173330,2,0,B|176:40|160:96,1,100,0|8
176,192,174298,6,0,B|120:200|80:152,2,100,4|8|0
256,128,175750,1,8
336,72,176234,1,4
416,128,176717,1,4
416,224,177201,1,4
336,280,177685,1,4
256,224,178169,6,0,B|248:168|200:144,1,100,4|8
120,200,179137,2,0,B|128:256|176:280,1,100,0|8
256,336,180105,1,0
352,336,180588,1,8
408,256,181072,2,0,B|464:256,2,50,0|0|8
352,176,182040,5,4
288,104,182524,1,8
200,64,183008,1,4
112,104,183492,1,8
48,176,183975,1,4
48,176,184459,1,8
128,240,184943,6,0,B|144:296|192:328,2,100,4|8|0
216,192,186395,1,8
304,144,186879,2,0,B|288:88|249:62,2,100,0|8|0
216,192,188330,1,8
120,192,188814,5,4
168,280,189298,1,8
256,328,189782,1,0
344,280,190266,1,8
392,192,190750,2,0,B|424:152|416:96,1,100,0|8
320,128,191717,1,8
272,128,191959,1,0
224,128,192201,2,0,B|160:128,2,50,8|0|4
200,224,193169,5,8
104,224,193653,1,0
152,312,194137,2,0,B|152:368,2,50,8|0|0
200,224,195105,1,8
248,312,195588,1,0
296,224,196072,1,8
344,312,196556,6,0,B|464:312,1,100,4|8
392,224,197524,2,0,B|496:224,1,100,4|8
440,136,198492,1,4
368,64,198975,1,4
296,136,199459,1,4
248,136,199701,1,0
200,136,199943,2,0,B|128:136,2,50,8|0|4
256,192,214943,6,0,B|256:120,4,50,4|0|4|0|4
256,288,216395,2,0,B|280:344|344:352,2,100,8|0|8
352,256,217846,1,0
352,208,218088,1,0
352,160,218330,1,8
448,128,218814,2,0,B|424:72|360:64,1,100,0|8
276,68,219782,5,4
176,68,220266,1,8
76,68,220750,2,0,B|52:128|88:184,1,100,4|8
176,168,221717,1,4
272,168,222201,1,4
312,256,222685,1,4
408,256,223169,1,4
368,168,223653,6,0,B|360:104|312:80,2,100,4|8|0
272,168,225105,1,8
176,168,225588,2,0,B|120:168,2,50,0|0|8
136,256,226556,2,0,B|80:256,2,50,0|0|8
232,256,227524,5,4
304,328,228008,1,8
376,256,228492,1,4
304,184,228975,1,8
376,112,229459,1,4
304,40,229943,1,4
232,112,230427,5,4
184,112,230669,1,0
136,112,230911,2,0,B|64:112,2,50,4|0|4
