osu file format v9

[General]
AudioFilename: Migikata no Chou.mp3
AudioLeadIn: 0
PreviewTime: -1
Countdown: 1
SampleSet: Normal
StackLeniency: 0.7
Mode: 0
LetterboxInBreaks: 1

[Editor]
Bookmarks: 15495,52996,90067,118781,166353,208781
DistanceSpacing: 1.5
BeatDivisor: 4
GridSize: 16

[Metadata]
Title:Migikata no Chou(PV ver.)
Artist:Kagamine Rin & Len
Creator:ry5566
Version:Flying
Source:VOCALOID
Tags:

[Difficulty]
HPDrainRate:7
CircleSize:5
OverallDifficulty:5
ApproachRate:8
SliderMultiplier:2.49999990463257
SliderTickRate:1

[Events]
//Background and Video events
0,0,"shining.png"
Video,0,"Migikata.avi"
//Break Periods
2,84092,89356
2,152877,158785
//Storyboard Layer 0 (Background)
//Storyboard Layer 1 (Fail)
//Storyboard Layer 2 (Pass)
//Storyboard Layer 3 (Foreground)
//Storyboard Sound Samples
//Background Colour Transformations
3,100,0,0,0

[TimingPoints]
15535,428.571428571429,4,1,0,80,1,0
21963,-200,4,1,0,80,0,0
22392,-100,4,1,0,80,0,0
35570,-100,4,2,0,80,0,0
35677,-100,4,1,0,80,0,0
39535,-66.6666666666667,4,1,0,80,0,0
39963,-100,4,1,0,80,0,0
40606,-66.6666666666667,4,1,0,80,0,0
41035,-100,4,1,0,80,0,0
41249,-200,4,1,0,80,0,0
41892,-100,4,1,0,80,0,0
62638,-133.333333333333,4,1,0,80,0,0
63281,-100,4,1,0,80,0,1
76781,-100,4,1,0,80,0,0
124713,-100,4,2,0,80,0,0
124820,-100,4,1,0,80,0,0
124927,-100,4,2,0,80,0,0
125035,-100,4,1,0,80,0,0
130353,-200,4,1,0,80,0,0
130996,-100,4,1,0,80,0,0
159496,-200,4,1,0,80,0,0
166353,-100,4,1,0,80,0,1
185210,-66.6666666666667,4,1,0,80,0,1
193781,-100,4,1,0,80,0,1
204106,-133.333333333333,4,1,0,80,0,1
204749,-200,4,1,0,80,0,1

[Colours]
Combo1 : 171,26,187
Combo2 : 198,0,0
Combo3 : 119,13,249
Combo4 : 250,126,228

[HitObjects]
80,128,15534,2,0,B|80:0,1,124.999995231629,0|0
240,95,15963,1,0
144,176,16177,2,0,B|240:96,1,124.999995231629
144,96,16606,2,0,B|32:176,1,124.999995231629,0|0
128,256,17034,5,0
160,240,17142,1,0
192,256,17249,1,0
272,256,17463,2,0,B|256:192|192:160,1,124.999995231629,0|0
192,256,17892,2,0,B|256:304|320:256,1,124.999995231629,0|0
256,144,18320,1,0
304,128,18427,1,0
336,160,18534,1,0
368,192,18642,1,0
400,224,18749,6,0,B|544:224,2,124.999995231629,0|0|0
352,128,19392,2,0,B|224:128,1,124.999995231629,0|0
160,64,19820,1,0
128,96,19927,1,0
112,144,20034,1,0
128,192,20142,1,0
160,224,20249,1,0
272,144,20463,5,0
206,88,20677,2,0,B|155:142|206:200,1,124.999995231629
336,192,21106,2,0,B|387:119|320:64,1,124.999995231629
210,161,21535,2,0,B|159:215|210:273,1,124.999995231629
339,101,21963,2,0,B|384:48,1,62.4999976158143,2|8
276,214,22392,5,0
280,170,22499,1,0
316,151,22606,1,0
337,109,22713,1,0
368,80,22820,2,0,B|496:80,1,124.999995231629,0|0
288,80,23249,1,8
144,224,23463,1,0
255,13,23677,1,0
139,20,23892,6,0,B|110:85|161:146,1,124.999995231629,0|0
112,80,24320,2,0,B|48:112|0:48,1,124.999995231629,0|0
48,160,24749,2,0,B|112:144|160:208,1,124.999995231629,0|0
96,272,25177,1,0
64,304,25285,1,0
112,304,25392,1,0
160,304,25499,1,0
192,272,25606,6,0,B|256:160,1,124.999995231629,0|0
368,128,26035,1,0
368,320,26249,1,0
288,256,26463,1,0
208,192,26677,1,0
160,192,26785,1,0
112,192,26892,1,0
160,192,26999,1,0
208,192,27106,1,0
416,112,27320,5,0
432,80,27427,1,0
448,48,27535,2,0,B|304:48|320:48,1,124.999995231629,0|0
96,288,27963,2,0,B|240:288,1,124.999995231629,0|0
256,128,28392,1,0
256,160,28499,1,0
256,192,28606,1,0
255,146,28713,1,0
256,112,28820,1,0
432,48,29249,6,0,B|304:80,2,124.999995231629,0|0|0
292,135,29892,2,0,B|196:50,2,124.999995231629,0|0|0
176,192,30535,2,0,B|245:89,2,124.999995231629,0|0|0
288,160,31177,1,0
120,76,31392,2,0,B|62:118|99:188,1,124.999995231629,0|0
230,234,31820,2,0,B|218:157|158:138|158:138,2,124.999995231629,0|0|0
144,240,32463,5,0
96,240,32570,1,0
48,240,32677,1,0
96,240,32785,1,0
144,240,32892,2,0,B|288:240,1,124.999995231629
288,96,33320,2,0,B|160:96,1,124.999995231629
240,192,33749,2,0,B|365:192,1,124.999995231629
138,260,34177,2,0,B|136:312|184:348|232:348,2,124.999995231629
208,304,34820,1,0
272,240,35035,2,0,B|320:192|277:127,2,124.999995231629
128,224,35570,5,2
112,160,35678,1,2
128,96,35785,1,4
176,48,35892,2,0,B|256:48|272:128|272:128,1,124.999995231629,4|8
448,32,36535,2,0,B|416:160,1,124.999995231629
317,90,36963,1,0
400,208,37177,1,0
368,32,37392,2,0,B|320:160,1,124.999995231629
240,96,37820,6,0,B|272:224,1,124.999995231629,8|2
240,256,38142,2,0,B|176:128,1,124.999995231629,8|0
176,96,38463,2,0,B|112:208,1,124.999995231629,2|4
176,176,39320,5,0
192,192,39427,1,0
208,208,39535,2,0,B|144:304|144:304,2,93.7499936297538,8|4|8
320,112,39963,1,0
288,16,40177,1,0
336,208,40392,1,0
320,192,40499,1,8
304,176,40607,2,0,B|368:80|368:80,2,93.7499936297538
240,288,41035,1,4
240,160,41249,2,0,B|240:32,1,124.999995231629,2|0
256,192,41892,12,0,42535
256,192,42963,5,0
144,80,43392,2,0,B|16:80,1,124.999995231629
208,128,43820,2,0,B|336:128,1,124.999995231629
128,160,44249,2,0,B|0:160,1,124.999995231629
208,96,44677,2,0,B|240:128|240:176|208:208,1,124.999995231629
80,192,45106,2,0,B|48:160|48:112|80:80,1,124.999995231629
240,240,45535,1,8
64,256,45749,1,0
240,240,45963,1,8
112,336,46177,1,2
240,240,46392,6,0,B|336:160,1,124.999995231629
224,112,46820,2,0,B|336:16,1,124.999995231629
400,144,47249,2,0,B|512:48,1,124.999995231629
336,288,47677,2,0,B|432:208,1,124.999995231629
224,176,48106,1,0
80,112,48320,1,0
224,176,48535,1,0
128,256,48749,1,0
224,176,48963,6,0,B|320:96,1,124.999995231629,2|8
288,160,49285,2,0,B|256:288,1,124.999995231629,4|8
208,224,49606,2,0,B|304:304,1,124.999995231629,2|0
352,64,50035,5,8
336,96,50142,1,8
320,128,50249,1,8
304,160,50356,1,2
289,192,50463,1,8
255,81,50677,2,0,B|329:61|367:129,1,124.999995231629
352,246,51106,2,0,B|332:320|255:319,1,124.999995231629
160,256,51535,6,0,B|106:202|145:135,1,124.999995231629
192,176,51856,2,0,B|201:256|135:290|136:290,1,124.999995231629
112,240,52177,2,0,B|104:172|184:140,1,124.999995231629
101,69,53035,5,8
144,48,53142,1,2
176,80,53249,2,0,B|234:124|303:107,1,124.999995231629,8|0
320,96,53677,1,2
320,96,53892,1,8
316,172,54106,2,0,B|240:175|216:251,1,124.999995231629,8|2
208,288,54535,1,2
208,288,54749,1,8
114,76,54963,2,0,B|171:40|244:68,1,124.999995231629
312,240,55392,1,0
176,217,55606,1,0
377,123,55820,6,0,B|310:123,1,62.4999976158143,8|4
287,159,56035,2,4,B|206:159,1,62.4999976158143,4|8
183,128,56249,2,0,B|117:128,1,62.4999976158143,8|4
87,162,56463,2,0,B|108:224|44:246|109:311,2,124.999995231629,8|0|0
303,69,57106,5,0
231,170,57320,2,0,B|308:64,1,124.999995231629
385,162,57749,2,0,B|301:66,1,124.999995231629
385,162,58177,1,0
385,162,58392,2,0,B|286:256,1,124.999995231629
385,162,58820,2,0,B|283:76,1,124.999995231629
135,85,59249,2,0,B|236:164,1,124.999995231629
449,212,59677,5,8
456,258,59785,1,4
411,284,59892,1,0
386,320,59999,1,2
336,312,60106,1,4
256,192,60320,5,8
256,192,60535,1,4
256,192,60749,1,8
176,80,60963,2,0,B|256:48|320:64,1,124.999995231629
224,128,61285,2,0,B|144:160|80:144,1,124.999995231629
80,128,61606,1,0
208,256,61820,5,6
400,80,62035,1,6
160,176,62249,1,6
384,304,62463,1,6
224,80,62677,2,0,B|256:144|224:208|288:272,1,187.499992847443,6|0
416,192,63535,5,8
432,240,63642,1,2
400,272,63749,2,0,B|336:304|272:272,1,124.999995231629,8|0
195,164,64177,2,0,B|173:129|111:103|73:108,1,124.999995231629,4|0
143,341,65035,5,8
103,309,65142,1,2
90,261,65249,2,0,B|105:194|158:159,1,124.999995231629,8|0
259,214,65677,2,0,B|257:134|204:97,2,124.999995231629,2|0|4
261,215,66535,1,8
352,144,66963,5,8
368,96,67070,1,2
416,80,67177,2,0,B|464:128|464:192,1,124.999995231629,8|0
352,144,67606,2,0,B|304:80|320:16,1,124.999995231629,0|4
128,288,68463,5,6
48,128,68677,2,0,B|144:48,1,124.999995231629,8|2
288,48,69106,2,0,B|384:144,1,124.999995231629,2|8
256,288,69535,2,0,B|144:400,1,124.999995231629,8|0
112,128,69963,5,4
144,96,70070,1,0
192,112,70177,1,8
240,96,70285,1,8
272,128,70392,2,0,B|352:160|368:224,2,124.999995231629,8|0|0
137,151,71035,2,0,B|159:89|241:64,1,124.999995231629,8|2
256,64,71677,1,8
192,240,71892,5,8
224,192,71999,1,0
272,208,72106,1,4
272,256,72213,1,4
224,272,72320,2,0,B|160:320|80:272|96:272,3,124.999995231629,0|0|0|4
80,256,73392,1,8
96,128,73820,5,4
96,80,73927,1,2
121,40,74035,1,0
176,33,74142,1,0
224,48,74249,2,0,B|288:32|368:48,2,124.999995231629,2|0|0
208,80,75106,1,8
64,192,75535,5,4
112,192,75642,1,8
160,192,75749,1,2
208,192,75856,1,8
256,192,75963,2,0,B|352:192,1,62.4999976158143,8|0
352,192,76177,2,0,B|432:192,1,62.4999976158143,8|0
448,224,76392,2,0,B|186:223,1,249.999990463257,2|0
304,112,77249,6,0,B|240:64,2,62.4999976158143
144,128,77677,2,0,B|80:144,2,62.4999976158143
96,240,78106,1,8
208,320,78320,1,2
144,304,78534,5,2
288,288,78749,1,8
384,160,78963,2,0,B|352:80|352:96,2,62.4999976158143
416,304,79392,2,0,B|352:352,2,62.4999976158143
288,112,79820,6,0,B|224:128|208:208,1,124.999995231629,8|2
304,176,80249,2,0,B|256:128|176:144,1,124.999995231629,2|8
96,80,80677,1,0
144,208,80892,1,0
144,208,81106,1,0
256,272,81320,1,0
400,192,81535,2,0,B|400:112|336:80,1,124.999995231629,8|2
288,144,81963,2,0,B|256:80|192:48,1,124.999995231629,8|2
80,144,82392,6,0,B|32:192|64:272,1,124.999995231629
192,224,82820,2,0,B|224:160|192:96,1,124.999995231629
128,176,83249,5,4
320,176,83463,1,4
224,176,83677,5,4
416,176,83892,1,4
64,192,90106,5,4
160,192,90320,1,4
304,192,90535,1,4
480,192,90749,1,4
304,128,90963,6,0,B|176:128,1,124.999995231629,8|0
160,80,91285,2,0,B|96:96|96:192,1,124.999995231629
144,176,91606,2,0,B|192:240|160:304,2,124.999995231629,0|2|0
208,256,92677,2,0,B|336:256,1,124.999995231629,8|0
368,288,92999,2,0,B|432:272|432:176,1,124.999995231629
384,176,93320,2,0,B|336:112|368:48,2,124.999995231629,0|2|0
192,64,94392,6,0,B|112:96|112:160,1,124.999995231629,8|0
176,256,94820,1,2
112,160,95035,1,2
80,272,95249,1,0
112,160,95463,1,0
176,256,95677,1,0
224,192,95892,5,8
352,272,96106,1,2
384,176,96320,2,0,B|352:112|272:96,1,124.999995231629,8|0
192,48,96749,2,0,B|119:66|94:161,1,124.999995231629,2|8
16,192,97177,2,0,B|16:256|80:320|80:304,1,124.999995231629,2|0
416,176,97820,6,0,B|400:48,2,124.999995231629,4|4|0
384,288,98463,1,8
336,96,98677,2,0,B|208:80,2,124.999995231629,4|4|0
224,176,99320,1,8
112,176,99535,2,0,B|160:48,2,124.999995231629,4|4|0
112,176,100177,2,0,B|112:256|176:288,1,124.999995231629,8|4
80,160,100606,2,0,B|67:23,2,124.999995231629,4|0|8
80,160,101248,2,0,B|115:231|186:232,1,124.999995231629,0|2
174,231,101677,5,8
240,112,101892,1,2
400,224,102106,1,8
368,112,102320,1,8
288,288,102535,1,8
256,208,102749,1,0
256,208,102963,1,8
288,96,103177,2,0,B|224:64|144:96,1,124.999995231629,2|2
80,224,103606,2,0,B|160:208|192:144,1,124.999995231629,8|0
16,64,104035,2,0,B|32:128|112:144,1,124.999995231629
352,160,104463,5,8
384,112,104570,1,8
416,64,104677,1,8
352,160,104892,2,0,B|272:272,2,124.999995231629,0|0|8
304,176,105535,2,0,B|176:208,2,124.999995231629,0|0|8
224,96,106177,1,8
96,96,106392,2,0,B|144:224,2,124.999995231629,8|0|0
64,192,107035,2,0,B|192:256,2,124.999995231629,8|0|0
96,144,107570,5,8
144,128,107677,2,0,B|272:192,2,124.999995231629,0|0|8
160,80,108213,1,8
208,80,108320,1,8
256,56,108427,1,2
313,50,108535,2,0,B|345:114|313:194,1,124.999995231629,8|8
176,208,108963,2,0,B|208:144|272:112,2,124.999995231629,8|4|8
352,160,109606,1,4
352,288,109820,1,2
243,221,110035,5,8
356,200,110249,1,2
306,317,110463,1,0
208,144,110677,2,0,B|112:48,1,124.999995231629,8|2
112,192,111106,2,0,B|208:288,1,124.999995231629,8|0
240,169,111427,5,8
288,144,111535,1,8
304,96,111642,1,2
352,80,111749,1,8
432,64,111963,1,0
432,64,112177,2,0,B|464:144|416:192,1,124.999995231629,8|0
424,182,112606,2,0,B|352:208|352:288,1,124.999995231629,8|0
251,244,112927,5,8
235,212,113035,1,8
219,180,113142,1,8
224,112,113249,2,0,B|160:96|96:96,2,124.999995231629,8|2|4
160,128,113892,2,0,B|94:126|31:141,2,124.999995231629,8|2|4
160,176,114427,5,4
128,208,114535,1,8
96,240,114642,1,8
64,272,114749,2,0,B|128:224|192:240,1,124.999995231629,8|0
240,176,115177,2,0,B|304:192|368:144,1,124.999995231629,2|0
352,48,115606,1,4
272,128,115820,2,0,B|272:208|320:256,2,124.999995231629,8|2|4
96,48,116463,5,8
64,96,116570,1,8
96,128,116677,1,4
144,112,116785,1,2
144,64,116892,2,0,B|208:112|192:176,1,124.999995231629,8|4
256,256,117320,2,0,B|288:192|272:128,1,124.999995231629,4|8
208,192,117749,2,0,B|272:208|336:160,1,124.999995231629,2|4
463,47,118820,5,8
298,160,119035,1,2
455,254,119249,1,4
500,171,119463,2,0,B|430:150|368:202,1,124.999995231629
395,106,119892,2,0,B|333:151|250:100|250:99,1,124.999995231629
345,76,120320,2,0,B|364:112|345:171|304:185,1,124.999995231629
159,127,120749,2,0,B|206:77|274:114,1,124.999995231629
262,226,121177,1,0
275,116,121392,1,0
262,226,121606,1,0
364,189,121820,6,0,B|412:130|398:69,1,124.999995231629
347,91,122142,2,0,B|268:96|232:46|232:45,1,124.999995231629
192,16,122463,2,0,B|128:48|112:128|112:128|160:128|177:194|177:194|112:240,1,312.499988079071
128,160,123106,2,0,B|175:116|258:96,1,124.999995231629
306,179,123535,2,0,B|426:212,1,124.999995231629
232,145,123963,2,0,B|109:80|108:81,1,124.999995231629
117,307,124392,1,0
79,168,124606,5,2
132,150,124713,1,2
133,94,124820,1,2
171,53,124927,1,2
231,48,125035,2,2,B|302:42|338:108,1,124.999995231629,8|8
433,285,125677,5,0
433,285,125892,1,0
375,220,126106,2,0,B|301:211|258:269,1,124.999995231629
242,336,126535,2,0,B|170:307|189:221,1,124.999995231629
260,248,126963,2,0,B|257:192|220:152|156:168,1,124.999995231629
183,237,127392,2,0,B|209:187|198:134|135:114,1,124.999995231629
112,144,127820,2,0,B|63:116|44:65|86:15,1,124.999995231629
273,105,128249,5,8
317,64,128356,1,8
369,96,128463,1,0
359,148,128570,1,8
300,156,128677,2,0,B|216:266,2,124.999995231629
300,156,129320,1,0
300,156,129535,2,0,B|169:121,2,124.999995231629
300,156,130177,1,0
116,328,130392,2,2,B|56:292|44:212,1,124.999995231629,2|0
92,93,131035,1,4
214,110,131249,5,0
213,156,131356,1,0
214,205,131463,1,0
214,295,131677,1,0
320,208,131892,1,0
384,336,132106,1,8
480,192,132320,1,4
459,57,132535,6,0,B|338:127,2,124.999995231629
351,197,133177,2,0,B|266:180|277:94,1,124.999995231629
352,82,133606,2,0,B|347:43|301:13|255:29,1,124.999995231629
139,200,134035,2,0,B|116:163|131:89|178:78,1,124.999995231629
240,208,134463,2,0,B|214:136|128:154,1,124.999995231629
160,240,134892,5,0
112,352,135106,1,0
0,288,135320,1,0
48,176,135535,2,0,B|99:52,1,124.999995231629
208,160,135963,2,0,B|288:32,1,124.999995231629
321,205,136392,2,0,B|241:302,1,124.999995231629
432,271,136820,2,0,B|512:159,1,124.999995231629
432,96,137249,5,0
368,80,137463,1,0
352,144,137677,1,0
416,160,137892,1,0
285,87,138106,2,0,B|237:87|251:154|157:151,1,124.999995231629
96,48,138535,1,8
112,80,138642,1,2
128,112,138749,1,8
144,144,138856,1,8
160,176,138963,1,4
416,160,139392,6,0,B|448:96|416:32,1,124.999995231629
288,96,139820,2,0,B|256:160|288:224,1,124.999995231629
356,226,140142,2,0,B|340:290|276:322,1,124.999995231629
282,256,140463,2,0,B|282:176|202:160,1,124.999995231629
160,176,140785,1,0
144,224,140892,1,0
128,272,140999,1,0
112,320,141106,1,0
93,269,141213,2,0,B|91:188|47:157,1,124.999995231629
24,97,141535,2,0,B|88:129|168:113,1,124.999995231629
320,256,142177,6,0,B|224:336,2,124.999995231629
384,192,142820,2,0,B|480:96,1,124.999995231629,2|4
343,213,143249,2,0,B|302:331,2,124.999995231629,0|0|2
365,126,143892,2,0,B|398:-5,1,124.999995231629,8|0
336,32,144213,1,0
296,58,144320,1,8
288,112,144427,1,8
272,160,144535,1,0
224,176,144642,1,10
183,199,144749,2,0,B|87:295,2,124.999995231629,0|4|4
432,64,145820,5,4
240,64,146035,2,0,B|96:64,1,124.999995231629,8|4
224,144,146463,2,0,B|352:144,1,124.999995231629,8|8
138,93,146892,2,0,B|106:157|154:221,1,124.999995231629,8|0
277,238,147320,2,0,B|277:160|192:146,1,124.999995231629
129,108,147749,2,0,B|168:40|255:76,1,124.999995231629,0|8
197,156,148177,2,0,B|179:276|90:286,1,124.999995231629,8|8
112,216,148499,2,0,B|155:154|128:76,1,124.999995231629,8|2
84,135,148820,2,0,B|72:197|2:229,1,124.999995231629,8|0
420,95,149463,6,0,B|444:17,1,62.4999976158143,8|0
429,151,149677,2,0,B|391:73,1,62.4999976158143,2|0
411,196,149892,2,0,B|482:130,1,62.4999976158143,8|0
343,151,150106,2,0,B|274:134|184:167,3,124.999995231629,2|0|2|4
54,52,150963,1,6
112,256,151177,1,6
256,112,151392,1,6
224,352,151606,1,6
416,240,151820,1,6
256,192,152035,12,0,152677
272,59,159535,6,0,B|357:68,1,62.4999976158143,8|8
419,131,159963,2,0,B|389:187|315:194,1,124.999995231629,2|0
217,119,161035,1,4
92,108,161249,1,8
108,229,161463,2,0,B|124:310,1,62.4999976158143,8|0
240,272,161892,2,0,B|298:290,1,62.4999976158143,8|2
441,59,162963,2,0,B|360:54,1,62.4999976158143,8|2
440,193,163392,2,0,B|395:238,1,62.4999976158143,8|2
332,135,163820,2,2,B|187:135,1,124.999995231629,0|2
256,234,164677,5,8
256,234,164892,1,0
256,234,164999,1,0
256,234,165106,1,8
256,234,165320,1,8
256,234,165535,1,2
405,203,165749,5,4
238,328,165963,1,4
76,179,166178,1,4
251,65,166392,1,4
300,45,166499,1,8
348,68,166606,2,0,B|419:84|453:138,1,124.999995231629,8|0
348,153,167035,2,2,B|276:148|232:76,1,124.999995231629
89,65,167677,5,8
116,116,167785,1,8
91,167,167892,1,2
96,224,167999,1,0
132,269,168106,2,0,B|175:323|260:332,1,124.999995231629,2|8
245,276,168427,2,0,B|312:250|393:275,1,124.999995231629,2|0
400,320,168749,2,0,B|432:245|410:189,1,124.999995231629,8|0
304,144,169820,5,8
336,96,169927,1,8
320,48,170035,1,2
192,128,170249,2,0,B|176:192|240:240,1,124.999995231629,8|0
256,112,170677,5,8
249,58,170784,1,8
206,32,170892,1,2
160,176,171106,2,0,B|188:235|268:230,1,124.999995231629,8|0
368,176,171535,6,0,B|448:80,1,124.999995231629,8|2
400,240,171963,2,0,B|320:336,1,124.999995231629,2|8
320,112,172392,2,0,B|448:96,1,124.999995231629,8|0
432,144,172713,1,8
400,176,172820,2,0,B|272:192,1,124.999995231629,8|2
144,64,173249,5,8
176,96,173356,1,8
160,144,173463,1,2
48,32,173677,2,0,B|16:96|80:144,1,124.999995231629,8|0
224,224,174106,1,8
192,256,174213,1,8
160,288,174320,1,2
112,288,174427,1,0
64,288,174535,1,4
48,176,174749,6,0,B|144:80,1,124.999995231629,8|2
160,48,175070,2,0,B|320:48,1,124.999995231629,2|0
304,96,175392,2,0,B|384:192,1,124.999995231629,8|4
400,80,175820,2,0,B|320:64|288:144,1,124.999995231629,8|0
320,256,176249,2,0,B|301:321|219:312,1,124.999995231629,0|8
112,224,176677,5,8
128,176,176785,1,8
160,144,176892,1,2
208,48,177106,2,0,B|272:96|256:192,1,124.999995231629,8|0
144,256,177535,2,0,B|128:176|176:128,1,124.999995231629,2|0
336,128,178177,5,4
384,224,178392,1,8
336,240,178499,1,8
288,224,178606,1,2
288,80,178820,1,2
336,48,178927,1,0
384,80,179035,1,2
336,192,179249,6,0,B|336:320,1,124.999995231629,0|4
336,192,179677,2,0,B|336:64,1,124.999995231629,4|0
128,240,180106,5,0
64,128,180320,1,0
224,215,180535,2,0,B|240:295|176:327,1,124.999995231629,2|0
26,234,180963,2,0,B|36:153|107:143,1,124.999995231629,8|2
112,48,181392,1,2
224,96,181606,1,8
192,208,181820,2,0,B|128:240,2,62.4999976158143
329,112,182249,2,0,B|448:58,1,124.999995231629,8|2
384,128,182570,2,0,B|340:197|368:260,2,124.999995231629,2|0|0
384,96,183106,2,0,B|341:43|258:35,1,124.999995231629,4|0
256,100,183535,6,0,B|332:108|379:42,2,124.999995231629,2|0|0
192,65,184070,2,0,B|128:33|46:55,2,124.999995231629,0|8|2
213,118,184606,2,0,B|163:173,1,62.4999976158143,8|0
250,197,184820,2,0,B|286:256,1,62.4999976158143,8|0
197,264,185035,2,0,B|172:329,1,62.4999976158143,2|0
106,163,185249,6,0,B|71:50|228:82,1,187.499987259508,4|0
305,197,185677,2,0,B|359:328|164:320,1,187.499987259508,4|0
176,64,186106,2,0,B|286:51|359:126,1,187.499987259508,4|2
275,145,186427,2,0,B|165:158|92:83,1,187.499987259508,2|0
160,32,186749,2,0,B|172:163|120:230,2,187.499987259508,4|0|4
176,160,187392,6,0,B|197:256|302:300,1,187.499987259508,2|2
415,208,187821,2,8,B|463:121,1,93.7499936297538
416,144,188035,2,0,B|421:38,1,93.7499936297538,0|8
384,96,188250,2,0,B|296:35|295:33,1,93.7499936297538,8|0
320,80,188463,2,0,B|213:80|140:185,4,187.499987259508,8|0|0|0|0
112,64,189535,2,0,B|112:158|206:224,1,187.499987259508,0|8
240,128,189963,2,0,B|136:145|95:257,1,187.499987259508,2|0
192,116,190392,6,0,B|206:9,1,93.7499936297538,2|0
270,36,190606,2,0,B|374:20,1,93.7499936297538,0|2
317,99,190820,2,0,B|284:190|363:274,1,187.499987259508,2|0
416,144,191249,2,2,B|300:170|280:279,1,187.499987259508
145,76,191892,5,4
78,116,192106,2,0,B|112:214|231:226,2,187.499987259508,2|0|8
96,80,192642,2,0,B|295:60|296:59,1,187.499987259508,8|0
421,193,193820,5,2
402,209,193927,1,0
380,221,194035,1,0
333,209,194142,2,0,B|258:183,2,62.4999976158143,0|0|8
299,256,194463,2,0,B|246:292,2,62.4999976158143,0|0|8
264,218,194785,2,0,B|250:146|249:145,2,62.4999976158143,0|0|8
228,241,195106,1,8
168,229,195213,1,0
118,196,195320,1,8
97,144,195427,1,0
106,87,195535,6,0,B|180:54|180:56,1,62.4999976158143,8|0
192,112,195749,2,0,B|284:122,1,62.4999976158143,0|8
281,74,195963,2,0,B|356:79,1,62.4999976158143,8|0
368,123,196177,2,0,B|380:203,1,62.4999976158143,0|8
427,188,196392,6,0,B|460:252,3,62.4999976158143,0|2|0|0
400,240,196820,2,0,B|350:308,3,62.4999976158143
312,247,197249,2,0,B|262:191|299:104,1,124.999995231629,0|4
336,90,197570,2,0,B|279:38|193:61,1,124.999995231629,4|0
178,21,197892,2,0,B|116:59|111:135,1,124.999995231629
226,139,198320,2,0,B|226:219|180:258,1,124.999995231629,8|0
103,136,198749,2,0,B|156:88|247:109,1,124.999995231629,8|0
239,154,199070,2,0,B|305:188|384:155,1,124.999995231629,4|4
382,104,199392,2,0,B|419:185|371:255,1,124.999995231629,8|0
287,248,199820,5,8
148,290,200035,1,8
58,191,200249,1,8
130,57,200463,1,8
283,56,200677,2,0,B|430:51|426:50,2,124.999995231629,8|0|0
212,143,201320,1,8
160,237,201535,2,8,B|51:325,2,124.999995231629,8|8|12
212,143,202177,5,0
326,228,202392,2,0,B|273:294|206:293,1,124.999995231629,8|0
182,4,202820,2,0,B|256:-4|310:32,1,124.999995231629,0|8
213,205,203249,1,8
144,132,203463,1,8
44,77,203677,2,0,B|24:155|84:208,1,124.999995231629,4|0
98,288,204106,2,0,B|162:283|181:238,1,93.7499936297538,2|0
331,49,204749,6,0,B|396:43|460:100|458:168,1,187.499992847443,0|8
256,320,205820,2,0,B|219:242|276:202|244:134,1,187.499992847443,8|0
256,192,206677,12,2,207535
